#TITLE:Wild Horses;
#SUBTITLE:;
#ARTIST:Gino Vannelli;
#TITLETRANSLIT:;
#SUBTITLETRANSLIT:;
#ARTISTTRANSLIT:;
#CREDIT:;
#BANNER:wildhorses.png;
#BACKGROUND:wildhorsesbg.png;
#LYRICSPATH:;
#CDTITLE:!therairaicdtitle.png;
#MUSIC:Wild Horses.mp3;
#OFFSET:-6.980;
#SAMPLESTART:105.360;
#SAMPLELENGTH:20.160;
#SELECTABLE:YES;
#BPMS:0.000=170.750,36.000=85.375,68.000=170.750,204.000=85.390,218.000=170.750;
#STOPS:;
#BGCHANGES:;
// cache tags:
#FIRSTBEAT:2.500;
#LASTBEAT:330.000;
#SONGFILENAME:Songs/Keys of Flames/Wild Horses (The Rai Rai)/wildhorses.sm;
#HASMUSIC:1;
#HASBANNER:1;
#MUSICLENGTH:149.451;
// end cache tags

//---------------dance-single - ----------------
#NOTES:
     dance-single:
     :
     Hard:
     12:
     1.000,1.000,1.000,0.074,0.512,808.000,388.000,11.000,0.000,0.000:  // measure 1
0000
0000
0000
0000
0000
0000
0000
0000
0000
0000
0001
0100
0010
0000
0010
0000
,  // measure 2
1010
0100
0011
1000
0001
0100
1010
0100
,  // measure 3
1100
0001
1010
0110
0001
0110
1010
0100
,  // measure 4
0101
0010
1100
0010
0001
0010
1100
0010
,  // measure 5
1010
0001
1100
0110
1000
0110
1100
0010
,  // measure 6
1010
0100
0011
1100
0011
0100
1010
0100
,  // measure 7
1100
0000
0001
0100
1010
0000
0110
0000
0001
0000
0110
0000
1010
0000
0100
0000
,  // measure 8
0101
0010
1100
0101
1010
0001
1100
0010
,  // measure 9
1010
0001
1100
0110
0001
1010
1001
0100
,  // measure 10
1100
0010
1001
0010
0001
0010
1001
0100
0100
0010
1001
0110
1000
0110
1001
0100
,  // measure 11
0101
0010
1001
0100
0001
0100
1001
0100
0100
0010
1001
0110
1000
0110
1001
0010
,  // measure 12
1010
0000
0100
0000
1001
0000
0010
0000
1000
0000
0010
0000
1001
0000
0100
0000
0100
0000
0010
0100
1001
0000
0110
0000
0001
0000
0110
0000
1001
0000
0100
0000
,  // measure 13
0101
0010
1001
0100
0001
0100
1001
0100
0101
0010
1001
0110
1000
0110
0001
0100
,  // measure 14
1100
0010
1001
0100
1000
0100
1001
0100
0100
0010
1001
0110
1000
0110
1001
0100
,  // measure 15
0101
0010
1001
0100
0001
0100
1001
0100
0100
0010
1001
0110
1000
0110
1001
0010
,  // measure 16
1010
0000
0100
0000
1001
0000
0010
0000
1000
0000
0100
0010
1001
0000
0100
0000
0100
0000
0010
0000
1001
0000
0110
0000
0001
0000
0110
0000
1001
0000
0010
0000
,  // measure 17
1010
0000
0100
0000
1001
0000
0100
0000
0001
0000
0100
0000
1001
0000
0100
0000
0101
0000
0010
0000
1001
0000
0110
0000
1000
0000
0100
0010
1001
0000
1001
0000
,  // measure 18
1010
0100
1001
0010
1000
0010
1001
0100
,  // measure 19
1100
0010
1001
0110
0001
0110
1001
0010
,  // measure 20
1010
0100
1001
0010
1000
0010
1001
0100
,  // measure 21
0100
0010
1001
0110
0001
1010
1010
0100
,  // measure 22
1001
0001
1001
0001
0001
0001
1001
1010
,  // measure 23
0001
1010
1001
0110
0101
0110
1001
0100
,  // measure 24
1001
0000
1000
0100
0011
0000
0100
0000
0100
0000
0101
0000
1001
0000
1010
0000
,  // measure 25
0010
0000
1010
0100
1001
0000
0110
0000
0101
0000
0011
0100
1001
0000
0100
0000
,  // measure 26
1010
0100
1001
0010
1000
0010
1001
0100
,  // measure 27
0100
0010
1001
0110
0001
0110
1001
0010
,  // measure 28
1010
0100
1001
0010
1000
0010
1001
0100
,  // measure 29
1100
0010
1001
0110
1000
0110
1001
0010
,  // measure 30
0011
0100
1001
0010
0001
0010
1001
0100
,  // measure 31
0100
0010
1001
0110
1000
0110
1001
0100
,  // measure 32
0101
0010
1001
0100
1000
0100
1001
0100
,  // measure 33
0100
0000
0010
0100
1001
0000
0110
0000
0001
0000
0100
0010
1001
0000
1000
0000
,  // measure 34
1010
0100
0011
1000
0001
0100
1010
0100
,  // measure 35
1100
0001
1010
0110
0001
0110
1010
0100
,  // measure 36
0101
0010
1100
0001
0010
0001
1100
0010
,  // measure 37
1010
0001
1100
0110
1000
0110
1100
0010
,  // measure 38
1010
0100
0011
1100
0011
0100
1001
0100
,  // measure 39
1100
0000
0001
0100
1010
0000
0110
0000
0001
0000
0110
0000
1010
0000
0100
0000
,  // measure 40
0101
0010
1100
0101
1010
0001
1100
0010
,  // measure 41
1010
0001
1100
0110
0001
1001
1001
0100
,  // measure 42
1010
0000
0100
0000
0011
0000
1000
0000
0001
1000
0100
0000
1010
0000
0001
0000
,  // measure 43
1100
0000
0001
0000
1010
0000
0110
0000
0001
0000
0110
0000
1010
0100
0001
0000
,  // measure 44
0101
0000
0000
0000
0010
0000
1000
0100
0011
0000
1000
0000
0001
0000
0100
0000
1010
0000
0000
0000
0110
0000
0000
0000
0101
0000
0000
0000
0011
0000
0000
0000
,  // measure 45
1010
0101
1100
0110
1010
0110
1100
0011
,  // measure 46
1010
0100
0001
1000
0011
0100
1000
0010
0100
0001
1000
0001
1010
0100
0001
0010
,  // measure 47
1100
0001
1000
0100
1010
0001
1000
0010
0100
0001
0010
0100
1010
0100
0001
0010
,  // measure 48
1100
0000
0000
0010
0000
0000
0101
0000
0000
1010
0000
0000
0001
0000
0000
0010
0001
0010
1100
0000
0000
0100
0000
0000
,  // measure 49
1010
0101
0101
0110
1010
0101
0011
0011
,  // measure 50
1010
0000
0100
0000
0011
0000
1000
0010
0002
0000
0100
0003
1010
0000
0100
0000
,  // measure 51
1100
0000
0001
0100
1010
0000
1100
0010
0001
1000
0001
0100
1010
0001
0100
0000
,  // measure 52
1100
0010
1001
0010
0001
0010
1001
0100
0100
0010
1001
0110
1000
0110
1001
0100
,  // measure 53
0101
0010
1001
0100
0001
0100
1001
0100
0100
0010
1001
0110
1000
0110
1001
0010
,  // measure 54
1010
0100
1001
0010
1000
0010
1001
0100
0100
0010
1001
0110
0001
0110
1001
0100
,  // measure 55
0101
0010
1001
0100
0001
0100
1001
0100
0101
0000
1001
0000
1001
0000
0100
0000
,  // measure 56
1010
0000
1002
0003
0010
0000
1100
0000
0101
0000
2001
3000
0100
0000
1001
0000
,  // measure 57
2001
3000
0000
0000
0000
0000
0000
0000
0200
0000
0300
0000
0000
0000
0000
0000
1002
0000
0000
0000
0003
0000
0000
0000
0100
0000
0000
0000
0000
0000
0000
0000
1100
0000
0000
0000
0000
0000
0000
0000
0001
0000
0000
0000
0100
0000
0000
0000
1010
0000
0000
0000
0001
0000
0000
0000
1000
0000
0000
0000
0100
0000
0000
0000
,  // measure 58
0011
0000
1000
0000
0200
0300
0010
0000
0001
0000
0100
0000
0010
0000
0100
0000
0001
0000
1000
0000
0002
0000
0103
0000
1010
0000
0001
0000
0200
0000
0310
0000
,  // measure 59
0200
0301
1000
0010
2010
0000
0000
3000
0011
0000
0100
0000
1010
0000
0001
0000
,  // measure 60
1000
0100
0011
0100
1100
0001
1010
0110
,  // measure 61
0001
0110
1010
0100
0101
0010
1100
0001
,  // measure 62
0010
0000
1000
0010
0101
0000
0010
0000
1010
0000
0001
0000
1100
0000
0110
0000
,  // measure 63
1000
0110
1100
0010
1010
0100
0011
1100
,  // measure 64
0011
0000
0100
0000
1001
0000
0100
0000
1100
0000
0001
0100
1010
0000
0110
0000
,  // measure 65
0001
0110
1010
0100
0101
0010
1100
0101
,  // measure 66
1010
0000
0001
0000
1100
0000
0010
0000
1010
0000
0001
0010
1100
0000
0110
0000
,  // measure 67
0001
1001
1001
0010
1010
0110
0011
1000
,  // measure 68
0001
0100
1010
0100
1100
0001
1010
0110
,  // measure 69
0001
0000
0001
0100
1010
0000
0100
0000
0101
0000
0010
0000
1100
0000
0001
0000
,  // measure 70
0010
0000
0001
0000
1100
0000
0010
0000
1010
0000
0001
0010
1100
0000
0110
0000
,  // measure 71
1000
0110
1100
0010
1010
0100
0011
1100
,  // measure 72
0011
0000
0001
0100
1010
0000
0100
0000
1100
0000
0001
0000
1010
0000
0110
0000
,  // measure 73
0001
0000
0110
0000
1010
0000
0100
0000
0101
0000
0001
0010
1100
0000
0101
0000
,  // measure 74
1010
0001
1100
0010
1010
0001
1100
0110
,  // measure 75
0001
0010
1001
0100
1100
0001
1010
0101
,  // measure 76
0011
0100
1010
0001
0101
1000
1010
0110
,  // measure 77
0001
0110
1010
0100
0101
0010
1100
0101
,  // measure 78
0011
0001
1100
0010
1010
0001
1100
0110
,  // measure 79
1000
0110
1100
0010
1010
0100
1001
0010
,  // measure 80
1000
0100
1001
0100
0100
0010
1001
0110
,  // measure 81
0001
0110
1001
0010
1010
0100
1001
0100
,  // measure 82
0001
0100
1001
0100
0101
1001
1001
0110
,  // measure 83
1000
0100
1001
1001
1010
0000
0000
0000
;
