#TITLE:Carol of the Bells;
#SUBTITLE:;
#ARTIST:August Burns Red;
#TITLETRANSLIT:;
#SUBTITLETRANSLIT:;
#ARTISTTRANSLIT:;
#CREDIT:Braeden47;
#BANNER:../Banner.png;
#BACKGROUND:../BG.PNG;
#LYRICSPATH:;
#CDTITLE:../CDTitleBRAEDEN.png;
#MUSIC:August Burns Red- Carol of the Bells.ogg;
#OFFSET:-0.040;
#SAMPLESTART:43.900;
#SAMPLELENGTH:12.000;
#SELECTABLE:YES;
#BPMS:0.000=180.000;
#STOPS:;
#BGCHANGES:;
// cache tags:
#FIRSTBEAT:1.000;
#LASTBEAT:412.000;
#SONGFILENAME:Songs/Index Fusion/Carol of the Bells - [Braeden]/Carol.sm;
#HASMUSIC:1;
#HASBANNER:1;
#MUSICLENGTH:166.592;
// end cache tags

//---------------dance-single - ----------------
#NOTES:
     dance-single:
     :
     Challenge:
     13:
     0.903,1.000,0.450,0.486,0.648,896.000,75.000,81.000,24.000,0.000:
0000
M000
0M00
00M0
,
000M
00M0
0M00
M000
,
00M0
0M00
000M
00M0
,
0M00
M000
00M0
0M00
,
000M
0M00
00M0
M000
,
0M00
0000
00M0
0000
1001
0000
1000
0100
,
0010
0000
0001
0000
0100
0010
1000
0000
,
0100
0000
0010
0001
0010
0000
0100
0000
,
1000
0001
1000
0000
0001
0000
1000
0100
,
1000
0000
0001
0000
1000
0100
1000
0000
,
0001
0000
0100
0010
0100
0000
0001
0000
,
1000
0100
1000
0000
1001
0000
0001
0100
,
0010
0000
2000
0000
3001
0010
0100
0000
,
1001
0000
1000
0100
0010
0000
0002
0000
,
1003
0100
0010
0000
1001
0000
0001
0100
,
0010
0000
2000
0000
3001
0100
0010
0000
,
1001
0000
1000
0100
0010
0000
0001
0001
,
0100
0010
1000
0100
0110
0000
0010
0001
,
0010
0000
0011
0000
0001
1000
0001
0000
,
1001
0000
1000
0010
1000
0000
1001
0000
,
1000
0010
1000
0000
1001
1000
0010
0100
,
0010
1000
0010
0100
0010
1000
0010
0100
,
0001
0000
1000
0100
1000
0100
1000
0000
0001
0010
0001
0000
1001
0000
1000
0100
,
0010
0001
0010
0000
0100
1000
0100
0000
0011
0000
0001
0000
0100
0000
0100
0000
,
0010
0010
1010
1000
0100
0100
0010
0010
,
0011
0001
0100
0100
0010
0010
1010
1000
,
0001
0001
0100
0100
0110
0010
1000
1000
,
0001
0001
1001
1000
0100
0010
0100
1000
,
1001
0001
0010
0100
0010
0001
1010
0100
,
0001
0100
0010
1000
1010
0010
0100
0001
,
0100
0010
1010
1000
0100
0010
0001
0011
,
0011
0001
1000
0010
0100
0001
0110
0010
,
1000
0100
0010
0011
0011
0001
0100
0010
,
1000
0010
0110
0010
1000
0100
0010
0001
,
1001
0010
0100
0010
1000
0100
1001
0000
,
0000
0000
0000
0000
0000
0000
0000
0000
1001
0000
0001
0010
0001
0000
0100
0000
,
0010
0000
1000
0000
1010
0000
0100
0001
0100
0000
0010
0000
1000
0000
0010
0000
,
1010
0000
1000
0001
1000
0001
0100
0010
0100
0010
1000
0100
0010
0000
0001
0010
,
0100
1000
0100
0010
0001
0010
0100
1000
0001
0100
0010
1000
0100
0010
0001
0010
,
0100
1000
0001
0100
0010
1000
0100
1000
0001
0010
0100
1000
0001
0100
0010
1000
,
0100
0010
0001
0010
0100
1000
0001
0100
0010
1000
0100
0010
0001
0010
0100
1000
,
0001
0100
0010
0000
1000
0001
1000
0000
1001
0000
0001
0000
0100
0000
0010
0000
,
1000
0000
0100
0000
0010
0001
0010
0001
1000
0100
1000
0100
0010
0001
0010
0001
,
1000
0000
0010
0000
0100
0000
0001
0000
M010
0000
0100
0000
1000
0100
0010
0001
,
0010
0100
1000
0001
0010
0100
1000
0100
0010
0000
0001
0000
0100
0000
0010
0000
,
1M00
0000
0001
0000
0100
0010
0100
0010
0100
0001
0100
0010
0100
0001
0100
0010
,
0100
0000
0010
0000
1000
0000
0100
0000
M010
0000
0001
0000
0100
0010
0100
0010
,
1000
0001
1000
0001
0100
0010
0100
0010
2000
0000
0000
0000
3001
0000
0100
0000
,
0010
1000
2010
0000
3001
0100
0010
1000
,
2010
0000
3001
0100
0010
1000
2010
0000
,
3001
0000
0100
0000
0010
0000
1000
0001
2000
0000
0000
0000
3001
0000
0100
0000
,
0010
1000
0200
0000
0310
0001
0100
0001
,
2001
0000
3010
0100
0001
0100
0102
0000
,
1003
0000
0100
0000
0001
1000
0001
1000
0001
0000
1000
0100
1000
0000
0001
0000
,
0100
0000
0010
0000
1010
0000
1000
0001
1000
0000
0001
0000
0100
0000
0010
0000
,
1000
0000
0001
1000
0001
0000
1000
0000
0010
0000
0100
0000
0101
0000
0001
0100
,
0001
0000
1000
0000
0010
0000
1000
0000
0100
0010
0001
0010
0100
1000
0001
0100
,
0010
1000
0100
0010
0001
0010
0100
1000
0001
0100
0010
1000
0100
0010
0100
0000
,
0110
0010
0010
0110
0100
0100
1100
0010
,
0010
0000
1010
0000
1000
0000
0000
0000
1001
0000
0000
0000
0000
0000
0001
1000
,
0001
0000
0000
0000
1000
0100
0010
0001
0100
0000
0000
0000
0010
1000
0010
1000
,
0001
0000
0000
0000
0000
0000
1000
0001
0100
0000
0000
0000
0010
1000
0010
1000
,
0001
0000
0000
0000
0100
0010
0100
0010
2000
0000
0000
0000
3000
0000
0001
0010
,
0100
0000
0000
0000
1000
0100
0010
0001
0100
0000
0000
0000
0010
1000
0001
0100
,
0002
0000
0000
0000
0000
0000
0103
0010
1000
0000
0000
0000
0001
0010
0100
1000
,
0100
0010
0001
0100
0010
1000
0100
0010
0002
0000
0023
0000
0230
0000
1300
0010
,
2000
0000
3020
0000
0130
0001
0100
0001
0200
0000
0320
0000
1030
0010
1000
0010
,
2000
0000
3020
0000
0230
0000
0301
0100
0002
0000
0203
0000
0310
1000
0010
1000
,
0002
0000
0203
0000
0310
0100
0010
1000
0002
0000
0023
0000
0230
0000
1300
0001
,
2000
0000
3020
0000
0130
0001
0100
0001
2000
0000
3002
0000
0103
0010
0100
0010
,
2000
0000
3002
0000
0203
0000
0310
1000
0020
0000
0230
0000
0301
1000
0010
0100
,
0020
0000
2030
0000
3001
0010
0100
1000
0010
0000
0100
0001
0100
0000
0010
0000
,
1000
0000
1000
0000
1001
0000
0001
0100
0010
0000
1000
0000
0100
0000
0100
0000
,
0011
0000
0100
1000
0001
0000
0100
0000
0010
0000
0010
0000
1010
0000
1000
0001
,
0100
0000
0010
0000
1000
0000
0100
0000
0010
0001
0100
0010
1000
0100
0010
0001
,
0010
0100
1000
0001
0100
0010
1000
0100
0010
0001
0010
0100
1000
0001
0100
0010
,
1000
0100
0100
0011
0001
0001
0101
0010
,
0010
0000
1010
0000
1000
0010
1000
0010
2000
0000
3000
0000
0002
0003
0020
0130
,
2000
3000
0000
0000
2000
3010
1000
0010
2000
3000
0002
0003
0020
0130
1000
0000
,
0002
0003
0000
0000
0020
0130
2000
3100
0020
0030
0001
0000
0020
0130
1000
0100
,
0020
0030
0200
0300
2000
3001
1000
0001
0200
0300
0010
0000
2000
3000
0020
0130
,
0002
0003
0010
0000
0200
1300
0100
0010
0002
0003
0200
0300
0020
1030
0010
0100
,
0002
0003
0010
0000
0200
1300
0020
0130
0002
0003
0000
0000
2000
3010
0100
0001
,
0100
0000
0010
0000
1000
0100
0010
0001
1001
0000
1000
0010
1000
0000
0001
0000
,
0100
0000
0100
0000
1010
0000
0100
0001
0100
0000
0010
0000
1000
0000
1000
0000
,
0101
0000
0001
0100
0010
0000
1000
0000
0001
0000
1000
0000
1001
0000
0010
0100
,
0010
0000
0100
0000
0010
0000
0001
0000
1000
0010
0100
0001
1000
0100
0010
0001
,
0010
0100
1000
0001
0100
0010
1000
0100
0010
0001
0010
0100
1000
0000
0010
0000
,
1010
1000
1000
1001
1000
0001
0101
0100
,
0100
0000
0110
0000
0010
1000
0010
0100
0001
0010
0100
1000
0100
0010
0001
0010
,
0100
1000
0001
0100
0010
1000
0100
0010
0001
0010
0100
1000
0001
0100
0010
1000
,
0100
0010
0001
0010
0100
1000
0001
0100
0010
1000
0001
0010
0100
1000
0001
0100
,
0010
0100
0001
0010
0100
1000
0001
1000
2001
0000
0000
0000
3040
0000
0000
0000
,
0030
0100
0102
0000
4003
0000
3010
0100
,
0102
0000
0403
0000
0310
1000
2010
0000
,
3004
0000
0000
0000
0103
0000
0010
1000
0020
0000
0000
0000
4030
0000
0000
0000
,
3001
0100
0102
0000
0403
0000
0310
1000
,
0001
0100
0010
1000
0100
0010
0001
0010
0100
1000
0001
0100
0010
1000
0100
0010
,
0100
1000
0001
0100
0010
1000
0100
0010
0400
0000
0000
0000
0310
0000
0100
0000
,
1000
0100
0120
0000
0031
0100
0010
1000
,
2010
0000
3001
0010
0100
1000
2100
0000
,
3001
0100
0010
1000
1100
1000
0001
0100
,
0010
1000
2002
0000
0000
0000
0000
0000
,
3003
0000
0000
0000
;
