#TITLE:Architecture;
#SUBTITLE:;
#ARTIST:DJ Myosuke & Noizenecio;
#TITLETRANSLIT:;
#SUBTITLETRANSLIT:;
#ARTISTTRANSLIT:;
#CREDIT:Fraxtil;
#BANNER:bn.png;
#BACKGROUND:bg.png;
#LYRICSPATH:;
#CDTITLE:;
#MUSIC:Architecture.ogg;
#OFFSET:0.009;
#SAMPLESTART:116.800;
#SAMPLELENGTH:19.200;
#SELECTABLE:YES;
#DISPLAYBPM:300.000;
#BPMS:0.000=300.000;
#STOPS:;
#BGCHANGES:;
// cache tags:
#FIRSTBEAT:8.000;
#LASTBEAT:720.000;
#SONGFILENAME:Songs/SPEEEDCOOOORE 4/Architecture - [Fraxtil]/Architecture.sm;
#HASMUSIC:1;
#HASBANNER:1;
#MUSICLENGTH:145.600;
// end cache tags

//---------------dance-single - 16th stream----------------
#NOTES:
     dance-single:
     16th stream:
     Edit:
     22:
     1.000,1.000,0.302,0.144,0.646,988.000,44.000,21.000,63.000,0.000:

0000
0000
0000
0000
,
0000
0000
0000
0000
,
MMMM
0000
0000
0000
,
0000
0000
0000
0000
,
0000
0000
0000
0000
,
0000
0000
0000
0000
,
0000
0000
0000
0000
,
0000
0000
0000
0000
,
0000
0000
0000
0000
,
0000
0000
0000
0000
,
0000
0000
0000
0000
,
0000
0000
0000
0000
,
0000
0000
0000
0000
,
0000
0000
0000
0000
,
0000
0000
0000
0000
,
0000
0000
0000
0000
,
0000
0000
0000
0000
,
0M00
0000
0000
0000
000M
0000
0000
0000
00M0
00M0
00M0
00M0
1001
0000
0000
0000
,
0001
1000
0010
0100
0010
1000
0100
0010
,
0001
0000
0100
0000
0001
0000
1000
0000
0100
0000
0010
0000
0001
1000
0001
0000
,
0200
0000
0310
1000
0001
0010
0100
0010
,
0001
0000
0100
0000
0010
0000
1000
0000
0001
1000
0001
1000
0100
0000
0010
0001
,
1000
0010
1000
0100
0010
0001
0100
0001
,
1000
0000
0001
0000
0010
0000
0100
0000
0010
0000
0001
0000
1000
0001
1000
0000
,
0010
0100
0001
1000
0100
1000
0010
0100
,
0001
1000
0001
1000
0200
0000
0000
0000
0340
0000
0000
0030
0004
0000
0000
0003
,
1001
0000
1000
0001
0100
0010
1000
0001
,
0010
0100
1000
0010
0100
0001
0000
1000
,
0001
0000
0000
0000
1000
0100
1000
0100
0010
0000
0001
0000
1000
0000
0001
0100
,
0010
0000
1000
0000
0001
0000
0010
0001
1000
0001
1000
0010
0100
0000
0001
0000
,
2000
0000
3100
0010
0100
1000
0010
1000
,
0002
0000
0000
0000
0023
0000
0000
0000
0430
0000
0000
0300
4000
0000
0000
3000
,
1001
0000
0000
0000
0001
0000
0000
0000
0400
0000
0000
0300
0010
0000
0000
0000
,
1010
1000
0400
0000
,
030M
0000
0010
0001
0100
0001
1000
0001
,
0010
0100
1000
0010
0100
0001
0010
0001
,
1000
0010
1000
0100
1000
0001
1000
0010
,
0100
0000
0001
0000
0010
0000
0001
0000
0400
0000
0000
0300
0040
0000
0000
0030
,
1000
0100
1000
0001
1000
0010
1000
0100
,
0010
0001
0100
0001
1000
0100
1000
0010
,
0100
0000
0001
0000
0010
0000
0100
0000
1000
0001
1000
0001
0200
0000
0000
0000
,
0310
0000
1000
0000
0100
0000
1000
0000
0004
0000
0000
0003
0040
0000
0000
0030
,
0100
1000
0010
1000
0001
0010
0001
0100
,
0010
1000
0100
1000
0001
0100
0001
0010
,
0100
1000
0010
1000
0001
0010
0001
0100
,
0010
1000
0100
0010
0001
0100
0001
1000
,
0010
1000
0100
0010
0001
0100
0010
1000
,
0100
1000
0001
0010
0100
1000
0001
0100
0001
1000
0010
0100
0010
1000
0001
0010
,
0100
0000
1000
0010
0000
1000
0001
0000
,
0010
0001
0000
0100
0001
0010
0100
0000
,
1001
0000
0000
0000
,
0000
0000
0000
0000
,
0000
0000
0000
0000
,
0000
0000
0000
0000
,
2000
0000
0000
3020
0000
0000
0130
0000
,
0000
0100
0000
0100
0000
0001
1000
0000
,
0200
0000
0000
0320
0000
0000
0031
0000
,
0000
0000
0001
0000
0000
0000
0001
0000
0000
0000
0100
0000
0001
1000
0001
1000
,
0200
0310
0001
1000
,
0001
0100
0010
1000
,
2000
3100
0010
0001
,
0100
0010
1000
0001
,
0020
0130
1000
0001
0100
0001
0010
0100
,
1000
0001
0100
0001
0010
0100
1000
0010
,
0000
0000
0000
0000
,
0100
0001
0100
0001
4000
0000
0000
0000
3100
0000
0000
0000
M010
0000
0000
0000
,
0001
1000
0010
1000
0100
0010
0001
0100
,
0001
0000
0010
0000
0001
0000
0100
0000
0010
0000
1000
0000
0100
0000
1000
0001
,
1000
0010
0100
0001
0010
0001
0100
0010
,
1000
0000
0100
0000
1000
0000
0010
0000
0100
0000
0001
0000
1000
0001
1000
0001
,
0010
0001
1000
0001
0010
0100
1000
0010
,
1000
0000
0100
0000
1000
0000
0010
0000
0100
0000
0001
0000
0010
0000
0001
1000
,
0001
0100
0010
0000
1000
0000
0000
0000
0400
0000
0000
0300
1000
0000
0000
0000
,
1001
0001
0100
0020
,
1030
0001
0010
0001
0100
0010
1000
0100
,
1000
0000
0010
0000
1000
0000
0100
0000
0010
0000
0001
0000
0100
0000
0001
1000
,
0001
0010
0100
1000
0010
1000
0100
0010
,
0001
0000
0100
0000
0001
0000
0010
0000
0100
0000
1000
0000
0001
1000
0001
1000
,
0020
0000
0000
0000
4030
0000
0000
3000
0100
0000
1000
0000
0001
0000
0010
0000
,
0001
0100
0001
0010
0100
1000
0010
1000
,
0002
0000
0000
0000
,
0000
0000
0000
0000
0000
0000
0000
0003
,
4001
0000
0000
0000
,
0000
0000
0000
0000
,
0000
0000
0000
0000
,
0000
0000
0000
0000
,
0000
0000
0000
0000
,
0000
0000
0000
0000
,
3000
0000
0000
0000
,
0000
0000
0000
0000
,
MMMM
0000
0000
0000
,
0000
0000
0000
0000
,
0000
0000
0000
0000
,
0000
0000
0000
0000
,
0000
0000
0000
0000
0000
0000
0000
0000
0000
0000
0000
0000
0000
0000
000M
00M0
,
0M00
M000
0000
0000
0000
0000
0000
0000
0000
0000
0000
0000
0000
0000
0000
0000
,
0000
0000
0000
0000
,
0000
0000
0000
0000
,
1001
0000
0000
0000
,
0000
0000
0000
0000
,
0001
0000
0000
0000
,
0000
0000
0000
0000
,
0010
0000
0000
0000
,
0000
0000
0000
0000
,
0100
0000
0000
0000
,
0000
0000
1000
0000
,
0001
0100
0001
0100
0010
1000
0010
1000
,
0001
1000
0001
0010
0001
1000
0100
1000
,
0010
0100
0010
0100
0001
0100
0001
1000
,
0100
1000
0001
0010
0001
1000
0010
1000
,
0100
0010
0100
0010
0001
0010
0001
1000
,
0010
1000
0001
0100
0001
1000
0100
1000
,
0001
0100
0001
0100
0010
1000
0010
1000
,
0001
1000
0001
0010
0001
0100
0010
1000
,
010M
0000
0010
0000
0001
0000
1000
0000
0010
0000
0100
00M0
0100
0000
1000
0000
,
0010
0M00
0010
0000
0001
0000
0010
0M00
0010
0000
1000
0000
0100
0000
1000
0000
,
0001
0000
0100
0000
0010
0000
1000
0000
0001
0000
0010
0M00
0010
0000
1000
0000
,
0100
00M0
0100
0000
0001
0000
0100
00M0
0100
0000
1000
0000
0010
0000
1000
0000
,
0001
0000
0010
0000
0100
0000
0010
0000
0001
0000
0100
00M0
0100
0000
1000
0000
,
0010
0M00
0010
0000
0001
0000
0010
0M00
0010
0000
1000
0000
0100
0000
1000
0000
,
0001
0000
0100
0000
0010
0000
1000
0000
0100
0000
0010
0M00
0010
0000
1000
0000
,
0100
00M0
0100
0000
0001
0000
0100
00M0
0100
0000
1000
0000
0010
0000
1000
0000
,
0001
0000
0100
0000
0001
0000
1000
0000
0100
0000
0010
0M00
0010
0000
1000
0000
,
0100
00M0
0100
0000
0001
0000
0100
00M0
0100
0000
1000
0000
0010
0000
1000
0000
,
0001
0000
0010
0000
0100
0000
1000
0000
0001
0000
0100
00M0
0100
0000
1000
0000
,
0010
0M00
0010
0000
0001
0000
0010
0M00
0010
0000
1000
0000
0100
0000
1000
0000
,
0001
0000
0100
0000
0010
0000
0100
0000
0001
0000
0010
0M00
0010
0000
1000
0000
,
0100
00M0
0100
0000
0001
0000
0100
00M0
0100
0000
1000
0000
0010
0000
1000
0000
,
0001
0000
0010
0000
0100
0000
1000
0000
0010
0000
0100
00M0
0100
0000
1000
0000
,
0010
0M00
0010
0000
0001
0000
0010
0M00
0010
0000
1000
0000
0002
0000
0000
0003
,
1001
1010
0110
0101
,
1001
0000
1100
0000
0110
0000
0010
0001
,
1000
1001
0101
0110
,
0010
1000
0010
1000
0200
0000
0310
0001
,
1000
1001
0101
0110
,
1010
0000
1001
0000
0011
0000
0010
0100
,
1000
1100
1001
0101
,
0100
0010
0100
0010
2000
0000
3100
0000
,
0010
0001
1000
0000
1001
0000
0001
0100
,
0010
0000
1010
0000
1001
0000
0001
0040
,
0130
0000
1000
0001
0100
0000
0101
0000
,
0001
0000
1000
0000
0100
0000
1000
0000
0040
0000
0000
0000
0230
0000
0000
0300
,
1001
1001
1100
1100
,
1001
1001
0101
0101
,
4000
0000
00M0
00M0
00M0
0000
0000
0000
0M00
0M00
0M00
0000
0000
0M00
0M00
0000
,
00M0
00M0
00M0
0000
00M0
00M0
3000
0000
0000
0000
0000
0000
0000
0000
0000
0000
,
0001
0010
0100
0010
0001
0100
0010
1000
,
0100
0000
0010
0000
0001
0000
0100
0000
0001
0000
1000
0000
0010
0000
1000
0001
,
1000
0000
0100
0000
0010
0000
0001
0000
1000
0000
0010
0000
1000
0000
0001
0100
,
0001
0000
1000
0000
0100
0000
0010
0000
0100
0000
1000
0000
0001
1000
0001
1000
,
0010
1000
0001
0010
0001
0100
0010
1000
,
0100
0000
1000
0000
0001
0000
0100
0000
0001
0000
0010
0000
0100
0000
1000
0100
,
1000
0001
0100
0010
1000
0100
0010
0001
,
1000
0001
1000
0001
0100
0000
0010
0000
2000
0000
0000
0000
3400
0000
0000
0300
,
0010
0001
0100
0001
1000
0010
0100
0001
,
0010
0000
0100
0000
1000
0000
0010
0000
1000
0000
0001
0000
0100
0000
0001
1000
,
0001
0000
0010
0000
0100
0000
1000
0000
0001
0000
0100
0000
0001
0000
1000
0010
,
1000
0000
0001
0000
0010
0000
0100
0000
0010
0000
0001
0000
1000
0001
1000
0001
,
0100
0001
1000
0100
1000
0010
0100
0001
,
0010
0000
0001
0000
1000
0000
0010
0000
1000
0000
0100
0000
0010
0000
0001
0010
,
0001
1000
0040
0130
,
0101
0001
4000
3100
,
0140
0000
0000
0000
,
0000
0000
0000
0000
,
0030
0000
0000
0000
,
0000
0000
MMMM
0000
,
0001
1000
0001
1000
0010
0100
0001
0100
0010
1000
0001
0010
0100
1000
0001
1000
,
0100
0010
0001
1000
0010
0100
0010
1000
0001
0100
0010
1000
0001
0010
0100
1000
,
0001
0100
0001
1000
0010
0100
0001
1000
0100
0010
0001
0010
0100
1000
0001
0100
,
0001
1000
0010
0100
0010
1000
0001
0010
0100
1000
0100
1000
0001
1000
0001
0100
,
0010
1000
0010
0100
0001
1000
0100
0010
0001
1000
0001
0010
0100
1000
0001
0100
,
0001
1000
0010
1000
0001
0010
0100
0010
0001
1000
0100
1000
0001
0100
0010
1000
,
0001
0010
0001
1000
0100
1000
0001
0100
0010
1000
0010
0100
0001
1000
0100
0010
,
0001
1000
0100
1000
0001
0100
0001
1000
0010
0100
0010
1000
0010
1000
0001
1000
,
0001
0010
0100
1000
0001
0100
0010
1000
0001
0010
0001
1000
0010
0100
0010
1000
,
0001
0010
0100
1000
0001
0100
0010
1000
0001
0010
0001
1000
0100
1000
0001
0100
,
0010
0100
0001
1000
0100
0010
0001
1000
0010
1000
0001
0100
0001
1000
0100
1000
,
0001
0100
0010
1000
0001
0010
0001
1000
0010
0100
0001
1000
0001
0010
0100
1000
,
0001
0000
0000
0000
,
0000
0000
0000
0000
,
M000
0000
0000
0000
;

//---------------dance-single - Fraxtil----------------
#NOTES:
     dance-single:
     Fraxtil:
     Challenge:
     14:
     0.998,1.000,0.302,0.144,0.646,936.000,44.000,21.000,63.000,0.000:

0000
0000
0000
0000
,
0000
0000
0000
0000
,
MMMM
0000
0000
0000
,
0000
0000
0000
0000
,
0000
0000
0000
0000
,
0000
0000
0000
0000
,
0000
0000
0000
0000
,
0000
0000
0000
0000
,
0000
0000
0000
0000
,
0000
0000
0000
0000
,
0000
0000
0000
0000
,
0000
0000
0000
0000
,
0000
0000
0000
0000
,
0000
0000
0000
0000
,
0000
0000
0000
0000
,
0000
0000
0000
0000
,
0000
0000
0000
0000
,
0M00
0000
0000
0000
000M
0000
0000
0000
00M0
00M0
00M0
00M0
1001
0000
0000
0000
,
0001
1000
0010
0100
0010
1000
0100
0010
,
0001
0000
0100
0000
0001
0000
1000
0000
0100
0000
0010
0000
0001
1000
0001
0000
,
0200
0000
0310
1000
0001
0010
0100
0010
,
0001
0000
0100
0000
0010
0000
1000
0000
0001
1000
0001
1000
0100
0000
0010
0001
,
1000
0010
1000
0100
0010
0001
0100
0001
,
1000
0000
0001
0000
0010
0000
0100
0000
0010
0000
0001
0000
1000
0001
1000
0000
,
0010
0100
0001
1000
0100
1000
0010
0100
,
0001
1000
0001
1000
0200
0000
0000
0000
0340
0000
0000
0030
0004
0000
0000
0003
,
1001
0000
1000
0001
0100
0010
1000
0001
,
0010
0100
1000
0010
0100
0001
0000
1000
,
0001
0000
0000
0000
1000
0100
1000
0100
0010
0000
0001
0000
1000
0000
0001
0100
,
0010
0000
1000
0000
0001
0000
0010
0001
1000
0001
1000
0010
0100
0000
0001
0000
,
2000
0000
3100
0010
0100
1000
0010
1000
,
0002
0000
0000
0000
0023
0000
0000
0000
0430
0000
0000
0300
4000
0000
0000
3000
,
1001
0000
0000
0000
0001
0000
0000
0000
0400
0000
0000
0300
0010
0000
0000
0000
,
1010
1000
0400
0000
,
030M
0000
0010
0001
0100
0001
1000
0001
,
0010
0100
1000
0010
0100
0001
0010
0001
,
1000
0010
1000
0100
1000
0001
1000
0010
,
0100
0000
0001
0000
0010
0000
0001
0000
0400
0000
0000
0300
0040
0000
0000
0030
,
1000
0100
1000
0001
1000
0010
1000
0100
,
0010
0001
0100
0001
1000
0100
1000
0010
,
0100
0000
0001
0000
0010
0000
0100
0000
1000
0001
1000
0001
0200
0000
0000
0000
,
0310
0000
1000
0000
0100
0000
1000
0000
0004
0000
0000
0003
0040
0000
0000
0030
,
0100
1000
0010
1000
0001
0010
0001
0100
,
0010
1000
0100
1000
0001
0100
0001
0010
,
0100
1000
0010
1000
0001
0010
0001
0100
,
0010
1000
0100
0010
0001
0100
0001
1000
,
0010
1000
0100
0010
0001
0100
0010
1000
,
0100
0010
0001
0010
0100
1000
0001
0100
0010
0100
0001
1000
,
0100
0000
1000
0010
0000
1000
0001
0000
,
0010
0001
0000
0100
0001
0010
0100
0000
,
1001
0000
0000
0000
,
0000
0000
0000
0000
,
0000
0000
0000
0000
,
0000
0000
0000
0000
,
2000
0000
0000
3020
0000
0000
0130
0000
,
0000
0100
0000
0100
0000
0001
1000
0000
,
0200
0000
0000
0320
0000
0000
0031
0000
,
0000
0000
0001
0000
0000
0000
0001
0000
0000
0000
0100
0000
0001
1000
0001
1000
,
0200
0310
0001
1000
,
0001
0100
0010
1000
,
2000
3100
0010
0001
,
0100
0010
1000
0001
,
0020
0130
1000
0001
0100
0001
0010
0100
,
1000
0001
0100
0001
0010
0100
1000
0010
,
0000
0000
0000
0000
,
0100
0001
0100
0001
4000
0000
0000
0000
3100
0000
0000
0000
M010
0000
0000
0000
,
0001
1000
0010
1000
0100
0010
0001
0100
,
0001
0000
0010
0000
0001
0000
0100
0000
0010
0000
1000
0000
0100
0000
1000
0001
,
1000
0010
0100
0001
0010
0001
0100
0010
,
1000
0000
0100
0000
1000
0000
0010
0000
0100
0000
0001
0000
1000
0001
1000
0001
,
0010
0001
1000
0001
0010
0100
1000
0010
,
1000
0000
0100
0000
1000
0000
0010
0000
0100
0000
0001
0000
0010
0000
0001
1000
,
0001
0100
0010
0000
1000
0000
0000
0000
0400
0000
0000
0300
1000
0000
0000
0000
,
1001
0001
0100
0020
,
1030
0001
0010
0001
0100
0010
1000
0100
,
1000
0000
0010
0000
1000
0000
0100
0000
0010
0000
0001
0000
0100
0000
0001
1000
,
0001
0010
0100
1000
0010
1000
0100
0010
,
0001
0000
0100
0000
0001
0000
0010
0000
0100
0000
1000
0000
0001
1000
0001
1000
,
0020
0000
0000
0000
4030
0000
0000
3000
0100
0000
1000
0000
0001
0000
0010
0000
,
0001
0100
0001
0010
0100
1000
0010
1000
,
0002
0000
0000
0000
,
0000
0000
0000
0000
0000
0000
0000
0003
,
4001
0000
0000
0000
,
0000
0000
0000
0000
,
0000
0000
0000
0000
,
0000
0000
0000
0000
,
0000
0000
0000
0000
,
0000
0000
0000
0000
,
3000
0000
0000
0000
,
0000
0000
0000
0000
,
MMMM
0000
0000
0000
,
0000
0000
0000
0000
,
0000
0000
0000
0000
,
0000
0000
0000
0000
,
0000
0000
0000
0000
0000
0000
0000
0000
0000
0000
0000
0000
0000
0000
000M
00M0
,
0M00
M000
0000
0000
0000
0000
0000
0000
0000
0000
0000
0000
0000
0000
0000
0000
,
0000
0000
0000
0000
,
0000
0000
0000
0000
,
1001
0000
0000
0000
,
0000
0000
0000
0000
,
0001
0000
0000
0000
,
0000
0000
0000
0000
,
0010
0000
0000
0000
,
0000
0000
0000
0000
,
0100
0000
0000
0000
,
0000
0000
1000
0000
,
0001
0100
0001
0100
0010
1000
0010
1000
,
0001
1000
0001
0010
0001
1000
0100
1000
,
0010
0100
0010
0100
0001
0100
0001
1000
,
0100
1000
0001
0010
0001
1000
0010
1000
,
0100
0010
0100
0010
0001
0010
0001
1000
,
0010
1000
0001
0100
0001
1000
0100
1000
,
0001
0100
0001
0100
0010
1000
0010
1000
,
0001
1000
0001
0010
0001
0100
0010
1000
,
010M
0000
0010
0000
0001
0000
1000
0000
0010
0000
0100
00M0
0100
0000
1000
0000
,
0010
0M00
0010
0000
0001
0000
0010
0M00
0010
0000
1000
0000
0100
0000
1000
0000
,
0001
0000
0100
0000
0010
0000
1000
0000
0001
0000
0010
0M00
0010
0000
1000
0000
,
0100
00M0
0100
0000
0001
0000
0100
00M0
0100
0000
1000
0000
0010
0000
1000
0000
,
0001
0000
0010
0000
0100
0000
0010
0000
0001
0000
0100
00M0
0100
0000
1000
0000
,
0010
0M00
0010
0000
0001
0000
0010
0M00
0010
0000
1000
0000
0100
0000
1000
0000
,
0001
0000
0100
0000
0010
0000
1000
0000
0100
0000
0010
0M00
0010
0000
1000
0000
,
0100
00M0
0100
0000
0001
0000
0100
00M0
0100
0000
1000
0000
0010
0000
1000
0000
,
0001
0000
0100
0000
0001
0000
1000
0000
0100
0000
0010
0M00
0010
0000
1000
0000
,
0100
00M0
0100
0000
0001
0000
0100
00M0
0100
0000
1000
0000
0010
0000
1000
0000
,
0001
0000
0010
0000
0100
0000
1000
0000
0001
0000
0100
00M0
0100
0000
1000
0000
,
0010
0M00
0010
0000
0001
0000
0010
0M00
0010
0000
1000
0000
0100
0000
1000
0000
,
0001
0000
0100
0000
0010
0000
0100
0000
0001
0000
0010
0M00
0010
0000
1000
0000
,
0100
00M0
0100
0000
0001
0000
0100
00M0
0100
0000
1000
0000
0010
0000
1000
0000
,
0001
0000
0010
0000
0100
0000
1000
0000
0010
0000
0100
00M0
0100
0000
1000
0000
,
0010
0M00
0010
0000
0001
0000
0010
0M00
0010
0000
1000
0000
0002
0000
0000
0003
,
1001
1010
0110
0101
,
1001
0000
1100
0000
0110
0000
0010
0001
,
1000
1001
0101
0110
,
0010
1000
0010
1000
0200
0000
0310
0001
,
1000
1001
0101
0110
,
1010
0000
1001
0000
0011
0000
0010
0100
,
1000
1100
1001
0101
,
0100
0010
0100
0010
2000
0000
3100
0000
,
0010
0001
1000
0000
1001
0000
0001
0100
,
0010
0000
1010
0000
1001
0000
0001
0040
,
0130
0000
1000
0001
0100
0000
0101
0000
,
0001
0000
1000
0000
0100
0000
1000
0000
0040
0000
0000
0000
0230
0000
0000
0300
,
1001
1001
1100
1100
,
1001
1001
0101
0101
,
4000
0000
00M0
00M0
00M0
0000
0000
0000
0M00
0M00
0M00
0000
0000
0M00
0M00
0000
,
00M0
00M0
00M0
0000
00M0
00M0
3000
0000
0000
0000
0000
0000
0000
0000
0000
0000
,
0001
0010
0100
0010
0001
0100
0010
1000
,
0100
0000
0010
0000
0001
0000
0100
0000
0001
0000
1000
0000
0010
0000
1000
0001
,
1000
0000
0100
0000
0010
0000
0001
0000
1000
0000
0010
0000
1000
0000
0001
0100
,
0001
0000
1000
0000
0100
0000
0010
0000
0100
0000
1000
0000
0001
1000
0001
1000
,
0010
1000
0001
0010
0001
0100
0010
1000
,
0100
0000
1000
0000
0001
0000
0100
0000
0001
0000
0010
0000
0100
0000
1000
0100
,
1000
0001
0100
0010
1000
0100
0010
0001
,
1000
0001
1000
0001
0100
0000
0010
0000
2000
0000
0000
0000
3400
0000
0000
0300
,
0010
0001
0100
0001
1000
0010
0100
0001
,
0010
0000
0100
0000
1000
0000
0010
0000
1000
0000
0001
0000
0100
0000
0001
1000
,
0001
0000
0010
0000
0100
0000
1000
0000
0001
0000
0100
0000
0001
0000
1000
0010
,
1000
0000
0001
0000
0010
0000
0100
0000
0010
0000
0001
0000
1000
0001
1000
0001
,
0100
0001
1000
0100
1000
0010
0100
0001
,
0010
0000
0001
0000
1000
0000
0010
0000
1000
0000
0100
0000
0010
0000
0001
0010
,
0001
1000
0040
0130
,
0101
0001
4000
3100
,
0140
0000
0000
0000
,
0000
0000
0000
0000
,
0030
0000
0000
0000
,
0000
0000
MMMM
0000
,
0001
0100
0001
1000
0010
1000
0001
0010
0100
1000
0001
0100
,
0001
1000
0100
0010
0001
1000
0010
1000
0001
0100
0001
0010
,
0100
1000
0001
0100
0001
1000
0100
0010
0001
1000
0010
1000
,
0001
0100
0001
1000
0100
0010
0001
1000
0001
1000
0010
1000
,
0001
0010
0100
0010
0001
1000
0010
0100
0001
1000
0100
1000
,
0001
0100
0010
1000
0001
0010
0100
0010
0001
0100
0010
1000
,
0100
0010
0001
1000
0100
1000
0001
0100
0010
1000
0001
0010
,
0100
0010
0001
1000
0010
0100
0001
1000
0001
0100
0001
0100
,
0010
1000
0100
0010
0001
0100
0001
0010
0100
1000
0010
1000
,
0100
0010
0001
0100
0010
1000
0010
0100
0001
0010
0100
1000
,
0010
0100
0001
0010
0100
1000
0010
0100
0001
0010
0100
1000
,
0010
1000
0100
0010
0001
0100
0010
1000
0100
0010
0001
0100
,
0001
0000
0000
0000
,
0000
0000
0000
0000
,
M000
0000
0000
0000
;

//---------------dance-single - Fraxtil----------------
#NOTES:
     dance-single:
     Fraxtil:
     Hard:
     13:
     0.929,1.000,0.330,0.179,0.409,851.000,48.000,26.000,39.000,0.000:

0000
0000
0000
0000
,
0000
0000
0000
0000
,
MMMM
0000
0000
0000
,
0000
0000
0000
0000
,
0000
0000
0000
0000
,
0000
0000
0000
0000
,
0000
0000
0000
0000
,
0000
0000
0000
0000
,
0000
0000
0000
0000
,
0000
0000
0000
0000
,
0000
0000
0000
0000
,
0000
0000
0000
0000
,
0000
0000
0000
0000
,
0000
0000
0000
0000
,
0000
0000
0000
0000
,
0000
0000
0000
0000
,
0000
0000
0000
0000
,
0M00
0000
0000
0000
000M
0000
0000
0000
00M0
00M0
00M0
00M0
1001
0000
0000
0000
,
0001
1000
0010
0100
0010
1000
0100
0010
,
0001
0000
0100
0000
0001
0000
1000
0000
0100
0000
0010
0000
0001
1000
0001
0000
,
0200
0000
0310
1000
0001
0010
0100
0010
,
0001
0000
0000
0000
0000
0000
0100
0000
0000
0000
0000
0000
0010
0000
0000
0000
0000
0000
1000
0000
0000
0000
0000
0000
0001
0000
0000
0000
1000
0000
0000
0000
0001
0000
0000
0000
0100
0000
0000
0000
0000
0000
0010
0000
0000
1000
0000
0000
,
0001
0100
0001
0010
0100
1000
0010
1000
,
0001
0000
1000
0000
0100
0000
0010
0000
0100
0000
1000
0000
0001
1000
0001
0000
,
0100
0010
1000
0001
0010
0001
0100
0010
,
1000
0000
0000
0000
0001
0000
0000
0000
1000
0000
0000
0000
0200
0000
0000
0000
0000
0000
0000
0000
0000
0000
0000
0000
0340
0000
0000
0000
0000
0000
0000
0000
0000
0030
0000
0000
0004
0000
0000
0000
0000
0000
0000
0000
0000
0003
0000
0000
,
1001
0000
1000
0001
0100
0010
1000
0001
,
0010
0100
1000
0010
0100
0001
0000
1000
,
0001
0000
0000
0000
0000
0000
0000
0000
0000
0000
0000
0000
1000
0000
0000
0000
0100
0000
0000
0000
1000
0000
0000
0000
0001
0000
0000
0000
0000
0000
0100
0000
0000
0000
0000
0000
0010
0000
0000
0000
0000
0000
1000
0000
0000
0001
0000
0000
,
0010
0000
0000
0000
0000
0000
0100
0000
0000
0000
0000
0000
1000
0000
0000
0000
0000
0000
0001
0000
0000
1000
0000
0000
0001
0000
0000
0000
0100
0000
0000
0000
0010
0000
0000
0000
1000
0000
0000
0000
0000
0000
0001
0000
0000
0000
0000
0000
,
2000
0000
3100
0010
0100
1000
0010
1000
,
0002
0000
0000
0000
0023
0000
0000
0000
0430
0000
0000
0300
4000
0000
0000
3000
,
1001
0000
0000
0000
0001
0000
0000
0000
0400
0000
0000
0300
0010
0000
0000
0000
,
1010
1000
0400
0000
,
030M
0000
0010
0001
0100
0001
1000
0001
,
0010
0100
1000
0010
0100
0001
0010
0001
,
1000
0010
1000
0100
1000
0001
1000
0010
,
0100
0000
0001
0000
0010
0000
0001
0000
0400
0000
0000
0300
0040
0000
0000
0030
,
1000
0100
1000
0001
1000
0010
1000
0100
,
0010
0001
0100
0001
1000
0100
1000
0010
,
0100
0000
0000
0001
0000
0000
0010
0000
0000
0100
0000
0000
1000
0000
0001
0000
1000
0000
0200
0000
0000
0000
0000
0000
,
0310
0000
0001
0000
0100
0000
0001
0000
4000
0000
0000
3000
0400
0000
0000
0300
,
0010
0001
0100
0001
1000
0100
1000
0010
,
0100
0001
0010
0001
1000
0010
1000
0100
,
0010
0001
0100
0001
1000
0100
1000
0010
,
0100
0001
0010
0100
1000
0010
1000
0001
,
0100
0001
0010
0100
1000
0010
0100
0001
,
0010
0100
1000
0100
0010
0001
1000
0100
1000
0001
0010
0001
,
1000
0000
0001
0100
0000
0001
1000
0000
,
0100
1000
0000
0010
1000
0100
0010
0000
,
1001
0000
0000
0000
,
0000
0000
0000
0000
,
0000
0000
0000
0000
,
0000
0000
0000
0000
,
2000
0000
0000
3020
0000
0000
0130
0000
,
0000
0100
0000
0100
0000
0001
1000
0000
,
0200
0000
0000
0320
0000
0000
0031
0000
,
0000
0000
0000
0001
0000
0000
0000
0000
0000
0001
0000
0000
0000
0000
0000
0100
0000
0000
0001
0000
1000
0000
0001
0000
,
0020
0130
1000
0001
,
1000
0010
0100
0001
,
0002
0013
0100
1000
,
0010
0100
0001
1000
,
0200
0310
0001
1000
0010
1000
0100
0010
,
0001
1000
0010
1000
0100
0010
0001
0100
,
0000
0000
0000
0000
,
0001
0100
0001
4000
0000
0000
3100
0000
0000
M010
0000
0000
,
0001
1000
0010
1000
0100
0010
0001
0100
,
0001
0000
0010
0000
0001
0000
0100
0000
0010
0000
1000
0000
0100
0000
1000
0001
,
1000
0010
0100
0001
0010
0001
0100
0010
,
1000
0000
0000
0100
0000
0000
1000
0000
0000
0010
0000
0000
0100
0000
0000
0001
0000
0000
1000
0000
0001
0000
1000
0000
,
0100
1000
0001
1000
0100
0010
0001
0100
,
0001
0000
0010
0000
0001
0000
0100
0000
0010
0000
1000
0000
0100
0000
1000
0001
,
0400
0000
0000
0300
0010
0000
0000
0000
4000
0000
0000
3000
0001
0000
0000
0000
,
1001
1000
0010
0200
,
0301
1000
0100
1000
0010
0100
0001
0010
,
0001
0000
0100
0000
0001
0000
0010
0000
0100
0000
1000
0000
0010
0000
1000
0001
,
1000
0100
0010
0001
0100
0001
0010
0100
,
1000
0000
0000
0010
0000
0000
1000
0000
0000
0100
0000
0000
0010
0000
0000
0001
0000
0000
1000
0000
0001
0000
1000
0000
,
0200
0000
0000
0000
4300
0000
0000
3000
0100
0000
1000
0000
0001
0000
0010
0000
,
0001
0100
0001
0010
0100
1000
0010
1000
,
0002
0000
0000
0000
,
0000
0000
0000
0000
0000
0000
0000
0003
,
4001
0000
0000
0000
,
0000
0000
0000
0000
,
0000
0000
0000
0000
,
0000
0000
0000
0000
,
0000
0000
0000
0000
,
0000
0000
0000
0000
,
3000
0000
0000
0000
,
0000
0000
0000
0000
,
MMMM
0000
0000
0000
,
0000
0000
0000
0000
,
0000
0000
0000
0000
,
0000
0000
0000
0000
,
0000
0000
0000
0000
0000
0000
0000
0000
0000
0000
0000
0000
0000
0000
000M
00M0
,
0M00
M000
0000
0000
0000
0000
0000
0000
0000
0000
0000
0000
0000
0000
0000
0000
,
0000
0000
0000
0000
,
0000
0000
0000
0000
,
1001
0000
0000
0000
,
0000
0000
0000
0000
,
0001
0000
0000
0000
,
0000
0000
0000
0000
,
0010
0000
0000
0000
,
0000
0000
0000
0000
,
0100
0000
0000
0000
,
0000
0000
1000
0000
,
0001
0100
0001
0100
0010
1000
0010
1000
,
0001
1000
0001
0010
0001
1000
0100
1000
,
0010
0100
0010
0100
0001
0100
0001
1000
,
0100
1000
0001
0010
0001
1000
0010
1000
,
0100
0010
0100
0010
0001
0010
0001
1000
,
0010
1000
0001
0100
0001
1000
0100
1000
,
0001
0100
0001
0100
0010
1000
0010
1000
,
0001
1000
0001
0010
0001
0100
0010
1000
,
0100
0010
0100
1000
0001
0100
0010
1000
,
0100
0010
0001
0100
0010
1000
0100
1000
,
0010
0100
0001
1000
0001
0010
0100
1000
,
0010
0100
0001
0010
0100
1000
0010
1000
,
0001
0010
0100
0010
0001
0100
0010
1000
,
0100
0010
0001
0100
0010
1000
0100
1000
,
0001
0100
0010
1000
0100
0010
0100
1000
,
0010
0100
0001
0010
0100
1000
0010
1000
,
010M
0010
0100
1000
0001
0100
0010
1000
,
0100
0010
0001
0100
0010
1000
0100
1000
,
0010
0100
0001
1000
0001
0010
0100
1000
,
0010
0100
0001
0010
0100
1000
0010
1000
,
0001
0010
0100
1000
0001
0010
0100
1000
,
0001
0100
0010
1000
0001
0100
0010
1000
,
0100
0010
0100
0010
0001
1000
0001
1000
,
0010
0000
0100
0000
0001
0000
0010
0000
0100
0000
1000
0000
0002
0000
0000
0003
,
1001
1010
0110
0101
,
1001
0000
1100
0000
0110
0000
0010
0001
,
1000
1001
0101
0110
,
0010
1000
0010
1000
0200
0000
0310
0001
,
1000
1001
0101
0110
,
1010
0000
1001
0000
0011
0000
0010
0100
,
1000
1100
1001
0101
,
0100
0010
0100
0010
2000
0000
3100
0000
,
0010
0001
1000
0000
1001
0000
0001
0100
,
0010
0000
1010
0000
1001
0000
0001
0040
,
0130
0000
1000
0001
0100
0000
0101
0000
,
0001
0000
1000
0000
0100
0000
1000
0000
0040
0000
0000
0000
0230
0000
0000
0300
,
1001
1001
1100
1100
,
1001
1001
0101
0101
,
4000
0000
00M0
00M0
00M0
0000
0000
0000
0M00
0M00
0M00
0000
0000
0M00
0M00
0000
,
00M0
00M0
00M0
0000
00M0
00M0
3000
0000
0000
0000
0000
0000
0000
0000
0000
0000
,
0001
0010
0100
0010
0001
0100
0010
1000
,
0100
0000
0010
0000
0001
0000
0100
0000
0001
0000
1000
0000
0010
0000
1000
0001
,
1000
0000
0100
0000
0010
0000
0001
0000
1000
0000
0010
0000
1000
0000
0001
0100
,
0001
0000
1000
0000
0100
0000
0010
0000
0100
0000
1000
0000
0004
0000
0000
0003
,
0100
0001
1000
0100
1000
0010
0100
0001
,
0010
0000
0001
0000
1000
0000
0010
0000
1000
0000
0100
0000
0010
0000
0001
0010
,
0001
1000
0010
0100
0001
0010
0100
1000
,
0004
0000
0000
0003
0100
0000
0010
0000
2000
0000
0000
0000
3400
0000
0000
0300
,
0010
0001
0100
0001
1000
0010
0100
0001
,
0010
0000
0100
0000
1000
0000
0010
0000
1000
0000
0001
0000
0100
0000
0001
1000
,
0001
0000
0010
0000
0100
0000
1000
0000
0001
0000
0100
0000
0001
0000
1000
0010
,
1000
0000
0001
0000
0010
0000
0100
0000
0010
0000
0001
0000
4000
0000
0000
3000
,
0010
1000
0001
0010
0001
0100
0010
1000
,
0100
0000
1000
0000
0001
0000
0100
0000
0001
0000
0010
0000
0100
0000
1000
0100
,
1000
0001
0400
0310
,
1010
1000
0004
0013
,
0410
0000
0000
0000
,
0000
0000
0000
0000
,
0300
0000
0000
0000
,
0000
0000
MMMM
0000
,
1000
0100
1000
0001
0010
0100
1000
0100
0010
0001
1000
0001
,
0100
0001
1000
0010
0100
0001
1000
0010
1000
0004
0000
0003
,
0010
0100
1000
0001
0010
0001
1000
0100
0010
0001
1000
0001
,
0100
0010
1000
0001
0100
0001
2000
0000
0000
3000
0000
0000
,
0001
0010
0001
1000
0100
0010
0001
1000
0001
0010
0100
1000
,
0001
0100
0001
1000
0010
0100
0001
0100
0010
4000
0000
0000
,
3001
0010
0100
1000
0001
1000
0100
0010
0001
1000
0100
1000
,
0001
0100
0001
1000
0010
0100
0002
0000
0000
0003
0000
0000
,
4000
0000
3200
0320
,
0034
0000
0203
0000
,
0340
0000
0000
0000
,
0000
0000
0000
0000
0000
0000
0000
0000
0000
0000
0000
0030
,
1001
0000
0000
0000
,
0000
0000
0000
0000
,
0M00
0000
0000
0000
;
