#TITLE:LastBoss;
#SUBTITLE:(Litoare Mix);
#ARTIST:Emagicker;
#TITLETRANSLIT:;
#SUBTITLETRANSLIT:;
#ARTISTTRANSLIT:;
#CREDIT:;
#BANNER:lastbosslitoaremix.png;
#BACKGROUND:lastbosslitoaremix-bg.png;
#LYRICSPATH:;
#CDTITLE:!HSTTitle.png;
#MUSIC:18 LastBoss (Litoare Mix).mp3;
#OFFSET:1.140;
#SAMPLESTART:92.478;
#SAMPLELENGTH:12.000;
#SELECTABLE:YES;
#BPMS:0.000=143.000,493.500=71.500;
#STOPS:32.000=0.839
,127.875=0.210
,128.375=0.210
,319.125=0.105
,319.375=0.315
,321.875=0.210
,322.125=0.315
,324.625=0.210
,324.875=0.315
,325.125=0.315
,325.375=0.315
,325.625=0.315
,325.875=0.105
,326.125=0.105
,326.375=0.524
;
#BGCHANGES:;
// cache tags:
#FIRSTBEAT:4.000;
#LASTBEAT:496.000;
#SONGFILENAME:Songs/Fabulously Fresh Flock of Fantastic Files F5/(HST) LastBoss (Litoare Mix)/lastbosslitoaremix.sm;
#HASMUSIC:1;
#HASBANNER:1;
#MUSICLENGTH:216.842;
// end cache tags

//---------------dance-single - ----------------
#NOTES:
     dance-single:
     :
     Hard:
     12:
     1.000,1.000,0.996,0.401,1.000,1304.000,216.000,87.000,0.000,0.000:  // measure 1
0000
0000
0000
0000
,  // measure 2
1000
1000
0010
1000
0100
0010
0011
1000
,  // measure 3
0000
0011
1000
0010
0100
0010
1010
0001
,  // measure 4
1000
0000
0010
1000
0100
0010
0011
2100
,  // measure 5
3000
0011
1000
0010
0100
0010
1010
0001
,  // measure 6
0120
0000
1030
0100
0000
0001
0000
0120
0000
0030
1000
0000
0011
0000
1000
0001
,  // measure 7
1020
0000
1030
0001
0100
0000
0100
0012
0000
0003
0100
0000
1001
0000
0100
0000
,  // measure 8
0012
0000
1003
0001
0000
0000
1000
0012
0000
0003
1000
0000
0011
0000
1000
0000
,  // measure 9
0000
0000
0000
0000
0000
0000
0000
0000
0000
0000
0000
0000
0001
0000
1000
0000
0001
0000
0100
0000
0000
0010
0000
0000
2001
0000
0000
0000
0000
0000
3100
0000
0000
0010
0000
0000
0000
0000
0000
0001
0000
0000
0000
0000
0000
2001
0000
0000
,  // measure 10
0000
3000
0100
0000
1001
0000
1000
0010
0102
0000
1003
0010
0100
0000
0001
1020
,  // measure 11
0000
0030
0001
0000
1100
0000
0001
0000
1002
0000
0103
0010
0000
0000
0001
1200
,  // measure 12
0000
0300
0010
0000
0101
0000
1000
0000
1002
0000
0013
0100
0000
1000
0000
1002
,  // measure 13
0000
0003
0010
0000
1001
0000
0001
0100
2010
0000
3001
0100
0010
0000
1000
0201
,  // measure 14
0000
0300
1000
0000
0011
0000
1000
0000
0000
0011
0000
1000
0000
0000
0100
2001
,  // measure 15
0000
3000
0100
0000
1001
0000
1000
0010
0102
0000
1003
0010
0100
0000
0001
1020
,  // measure 16
0000
0030
0001
0000
1100
0000
0001
0000
1001
0000
0100
0000
1001
0000
0100
0000
,  // measure 17
1200
0000
0300
0000
0022
0000
0033
0000
1010
0000
1010
0000
0001
0000
0010
0101
,  // measure 18
0000
0010
0001
0000
0011
0000
1000
0000
1100
0000
1100
0000
0010
0000
0001
0110
,  // measure 19
0000
0010
1000
0000
1100
0000
0010
1000
0100
1000
0001
1000
0100
0010
0001
0010
,  // measure 20
0100
1000
0001
1000
0100
0010
0001
0010
0100
1000
0001
1000
0100
0010
0001
0010
,  // measure 21
0100
1000
0001
1000
0101
0001
0001
0001
1001
0000
1001
0000
1000
0000
0010
0101
,  // measure 22
0000
0010
1000
0000
1100
0000
0001
0000
0101
0000
0101
0000
0010
0000
1000
0110
,  // measure 23
0000
1000
0100
0000
0110
0000
0100
0001
0010
0001
1000
0001
0010
0100
1000
0100
,  // measure 24
0010
0001
1000
0001
0010
0100
1000
0100
0010
0001
1000
0001
0010
0100
1000
0100
,  // measure 25
0010
0001
0101
0010
0101
0000
0101
0001
1001
0000
1100
0000
0000
0000
1000
0000
,  // measure 26
1100
0000
0000
1100
0000
0000
0022
0000
0033
0000
0101
0000
0000
0000
0001
0000
,  // measure 27
0101
0000
0000
0101
0000
0000
2020
3030
0100
0001
1000
0001
0100
0010
1000
0010
,  // measure 28
0100
0001
1000
0001
0100
0010
1000
0010
0100
0001
1000
0001
0100
0010
1000
0010
,  // measure 29
0100
0001
1100
0001
0101
0000
1000
0000
1001
0000
0101
0000
0000
0000
0001
0000
,  // measure 30
0101
0000
0000
0101
0000
0000
2020
0000
3030
0000
1001
0000
0000
0000
0100
0000
,  // measure 31
0110
0000
0000
0110
0000
0000
2002
3003
0100
1000
0001
1000
0100
0010
0001
0010
,  // measure 32
0100
1000
0001
1000
0100
0010
0001
0010
0100
1000
0001
1000
0100
0010
0001
0010
,  // measure 33
1001
0000
0101
0000
0011
0000
0011
0000
0100
0000
0001
1100
0000
0001
0100
0000
,  // measure 34
0101
0000
0010
0000
1010
0000
1010
0000
0001
0000
0100
1001
0000
0001
0010
0000
,  // measure 35
1010
0000
1000
0100
1000
0010
0100
0010
1000
0001
0100
0001
1000
0010
0100
0010
,  // measure 36
1000
0001
0100
0001
1000
0010
0100
0010
1000
0001
0100
0001
1000
0010
0100
0010
,  // measure 37
1100
0000
0100
0000
0110
0000
1100
0000
0000
0000
1000
0000
1001
0000
0000
1001
,  // measure 38
0000
0000
2020
0000
3030
0000
0110
0000
0000
0000
0001
0000
1001
0000
0000
1001
,  // measure 39
0000
0000
2020
3030
0100
1000
0001
1000
0100
0010
0001
0010
0100
1000
0001
1000
,  // measure 40
0100
0010
0001
0010
0100
1000
0001
1000
0100
0010
0001
0010
0100
1000
0001
1000
,  // measure 41
0101
0001
0001
0001
0101
0000
0000
0010
0000
0000
1000
0000
0000
0010
0000
0000
,  // measure 42
1000
0000
0000
0010
1100
0001
0100
0000
1000
0001
1000
0110
0001
0000
0000
0000
,  // measure 43
1000
0001
0010
0100
2001
3000
1100
0000
0000
0000
1000
0000
1100
0000
0000
1100
,  // measure 44
0000
0000
2020
3030
0101
0010
2000
0000
3000
0000
0100
0011
1100
0000
0000
1100
,  // measure 45
0000
0000
1000
0110
0001
0010
0100
1000
0100
0010
0001
0100
0001
0010
0100
1000
,  // measure 46
0100
0010
0001
0100
1010
0100
0002
0000
0003
0000
0001
1010
0000
0000
0000
0000
,  // measure 47
0110
0000
0110
0000
0110
0000
0110
0000
0001
0100
0001
0000
0000
0001
0000
0100
0000
0000
0000
0000
0001
0100
0001
0000
0000
0000
0001
0100
0001
0000
0000
0000
,  // measure 48
0001
0100
0001
0000
0000
0000
0000
0000
0012
0000
0000
0000
1003
0000
0000
0000
0012
0000
0000
0000
1003
0000
0000
0000
0012
0000
0000
0000
1003
0000
0000
0000
,  // measure 49
0012
0000
1003
0000
0001
0100
0001
0100
0010
0000
1000
0100
0010
0100
1000
0100
,  // measure 50
0010
0100
0010
0001
2100
3001
0010
0001
0100
0000
0010
1000
0000
1000
0010
0100
,  // measure 51
0011
0000
0000
0000
0102
1003
0100
1000
0100
0000
0100
0010
0102
1003
0001
1000
,  // measure 52
0100
0010
0001
1000
2100
0000
3001
0000
2100
0000
3001
0000
1000
0001
1000
0001
,  // measure 53
1000
0001
1000
0001
1000
0000
0000
0010
0000
0000
0100
0000
0000
0001
0000
0000
,  // measure 54
0010
0000
0001
0000
1000
0000
0000
0010
0000
0000
0100
0000
0000
0001
0000
0000
,  // measure 55
2002
0000
3003
0000
0100
1000
0100
0010
0000
0100
0000
0010
0000
0100
0000
1000
,  // measure 56
0000
0000
0100
0000
0000
0000
0010
0000
0000
0000
0001
0000
0010
0000
0000
0000
0100
0000
0010
0000
0000
0000
0001
0000
0000
0000
0010
0100
0000
0000
1000
0000
,  // measure 57
0000
0100
0000
0100
1000
0100
0010
0001
0000
1000
0000
0001
0000
0010
0000
0001
,  // measure 58
0000
0000
1000
0000
0000
0000
0010
0000
0000
0000
0100
0000
1000
0000
0000
0000
0010
0000
0100
0000
0000
0000
0100
0001
0000
0000
0001
0000
0000
0000
0001
0000
,  // measure 59
0000
0010
0000
0100
0000
0001
1000
0100
0010
0001
0000
1000
0000
0001
0000
0010
,  // measure 60
0000
0000
1000
0000
0000
0000
0100
0000
0000
0000
1000
0000
0010
0000
0000
0000
0001
0000
0010
0000
0000
0000
0010
0000
0000
0000
0001
1000
0000
0000
1000
0000
,  // measure 61
0000
0010
0000
0010
1000
0010
0100
0000
0010
0000
1000
0010
0000
0001
0000
0010
,  // measure 62
0000
0000
0100
0000
0000
0000
1000
0000
0000
0000
0100
0000
1000
0000
0000
0000
1000
0000
0100
0000
0000
0000
0010
0001
0000
0000
0001
0000
0000
0000
1000
0000
,  // measure 63
0000
0001
0000
0001
0100
1000
0100
0010
0000
0100
0000
1000
0000
0010
0000
0100
,  // measure 64
0000
0000
0001
0000
0000
0000
0010
0000
0000
0000
0001
0000
0010
0000
0000
0000
0100
0000
0010
0000
0000
0000
0001
0010
0000
0000
0100
0000
0000
0000
0010
0100
,  // measure 65
0000
1000
0000
0100
1000
0100
0010
0001
0000
1000
0000
0001
0000
0010
0000
0001
,  // measure 66
0000
0000
1000
0000
0000
0000
0010
0100
0000
0000
0100
0000
0010
0000
0000
0000
0010
0000
1000
0000
0000
0000
0100
0010
0000
0000
0001
0000
0000
0000
0010
0000
,  // measure 67
0000
0100
0000
1000
0000
0100
1000
0010
0100
0001
0000
1000
0000
0010
0000
0001
,  // measure 68
0000
0000
1000
0000
0000
0000
0100
0000
0000
0000
1000
0000
0001
0000
0000
0000
0001
0000
0010
0000
0000
0000
0010
0001
0000
0000
0001
0000
0000
0000
1000
0010
,  // measure 69
0000
0010
0000
0010
1000
0010
0100
0000
0010
0000
1000
0010
0000
0001
0000
0010
,  // measure 70
0000
0000
0100
0000
0000
0000
1000
0000
0000
0000
0100
0000
1000
0000
0000
0000
1000
0000
0100
0000
0000
0000
0010
0001
0000
0000
0010
0000
0000
0000
1000
0000
,  // measure 71
0000
0010
0000
0010
0100
1000
0100
0010
0000
0100
0000
0010
0012
1000
0003
0100
,  // measure 72
0000
0001
0000
0010
0101
1000
0100
0010
0101
1000
0000
0001
1000
0001
1000
0001
,  // measure 73
0010
0100
1000
0001
1200
0000
0310
0001
0000
0010
0000
0120
0000
0030
1000
0000
,  // measure 74
1010
0000
0001
1000
0120
0000
0130
1000
0100
0000
0100
0012
0000
0003
0100
0000
,  // measure 75
1001
0000
0100
0000
0001
0010
0100
1000
0100
0010
0001
0100
0001
0010
0100
1000
,  // measure 76
0100
0010
0001
0100
0001
0010
0100
1000
0100
0010
0001
0100
0001
0010
0100
1000
,  // measure 77
0100
0010
0001
0100
1010
0000
1010
0000
0001
0000
0010
0101
0000
0010
0001
0000
,  // measure 78
0011
0000
1000
0000
1100
0000
1100
0000
0010
0000
0001
0110
0000
0010
1000
0000
,  // measure 79
1100
0000
0010
1000
0100
1000
0001
1000
0100
0010
0001
0010
0100
1000
0001
1000
,  // measure 80
0100
0010
0001
0010
0100
1000
0001
1000
0100
0010
0001
0010
0100
1100
0101
0000
,  // measure 81
0100
0001
0100
0010
0100
0001
0010
0100
1100
0101
0000
0100
0001
0100
0010
1000
,  // measure 82
0010
0100
0001
0101
1001
1100
1001
0011
1001
1001
1001
0001
0010
0100
1000
0001
,  // measure 83
1000
0100
0010
0001
0010
0100
1000
0001
1000
0100
0010
0001
0010
0100
1000
0001
,  // measure 84
1000
0100
0010
0001
0010
0100
1000
0001
1000
0100
0012
0000
1003
0100
0000
0010
,  // measure 85
0000
0012
0000
0000
0103
0000
0000
0000
0000
0000
0012
0000
1003
0100
0000
0010
,  // measure 86
0000
0012
0000
0000
0103
0000
0000
0000
0000
0000
0012
0000
1003
0100
0000
0010
,  // measure 87
0000
0012
0000
0000
0103
0000
0000
0000
0000
0000
0012
0000
1003
0100
0000
0010
,  // measure 88
0000
0012
0000
0000
0103
0000
0000
0000
0000
0000
1002
0000
1003
0010
0000
0100
,  // measure 89
0000
0102
0000
0000
1003
0000
0000
0000
0000
0000
1002
0000
1003
0010
0000
0100
,  // measure 90
0000
0102
0000
0000
1003
0000
0000
0000
0000
0000
1002
0000
1003
0010
0000
0100
,  // measure 91
0000
0102
0000
0000
1003
0000
0000
0000
0000
0000
1010
0000
0100
0000
0011
0000
,  // measure 92
0100
0000
1000
0001
1000
0001
1000
0001
1000
0001
1000
0010
0100
0001
0100
0010
,  // measure 93
0100
0000
0001
0000
0010
0000
0000
0000
0010
0000
0001
0010
0000
0000
0001
0000
0100
0000
0010
0000
0100
0000
0001
0000
0100
0000
0010
0000
1000
0000
0001
0000
,  // measure 94
0000
0001
1000
0100
0010
0100
0000
0010
0001
1000
0000
0001
0010
0001
0010
0001
,  // measure 95
0010
0001
0010
0000
0010
0001
0000
0000
0001
0100
0010
1001
0100
0010
0100
1000
,  // measure 96
0101
0000
0010
0000
1001
0000
0100
0000
1001
0000
0100
0000
0011
0000
1000
0000
0001
0010
0100
0000
0001
0000
0010
0000
0001
0000
0010
0100
0001
0000
0100
0001
,  // measure 97
0100
0000
0001
0000
0100
0001
0100
0000
0001
0000
0100
0000
0001
0000
0100
0000
0001
0000
0010
0000
0100
0000
1000
0000
0010
0001
0100
0000
0001
0000
0010
0000
,  // measure 98
0100
0000
1000
0001
0100
0000
0010
0000
1000
0001
0100
0000
0001
0000
2100
0000
0000
0000
0000
0000
3000
0000
0100
0000
0010
0000
0100
0000
1010
0000
0100
0000
,  // measure 99
0001
0000
0010
0001
0100
0000
0001
0000
0100
0000
0000
0000
1001
0000
0100
0000
0001
0000
0100
0000
1010
0000
0000
0000
0100
0000
0000
0000
1010
0000
0000
0000
,  // measure 100
1100
0000
1000
0101
1000
0010
1100
0010
1001
0010
0100
1000
0010
0100
0000
0001
,  // measure 101
0000
0000
0100
0000
0000
0000
0010
0000
0000
0000
0001
0000
0000
0000
0010
0000
0000
0000
0100
0000
0000
0000
1000
0000
0100
0000
0000
0000
0010
0000
0100
1000
,  // measure 102
0000
0000
1000
0100
0000
0000
0100
0010
0000
0000
0001
0000
0000
0000
0010
0000
0000
0000
0010
0000
0001
0000
0010
0000
0100
0000
1000
0000
0000
0000
0001
0000
,  // measure 103
0000
0000
1000
0000
0000
0000
0100
0000
0000
0000
1000
0000
0000
0000
0001
0000
0000
0001
0100
0000
0000
0000
0010
0000
0100
0000
0000
0000
0100
0000
0001
0000
,  // measure 104
0000
0000
0010
0100
0000
0000
1000
0000
0000
0000
0100
0000
0000
0000
0010
0000
0000
0000
1000
0000
0000
0000
0010
0000
0001
0000
0010
0000
0100
0000
1000
0000
,  // measure 105
0000
0001
0000
1000
0000
0100
0000
0001
0000
0010
0000
0001
1000
0000
1000
0100
,  // measure 106
0000
0000
0100
0000
0000
0000
1000
0001
0000
0000
0001
0000
0000
0000
0100
0000
0000
0000
0100
0000
0001
0000
0100
0000
0010
0000
0000
0000
0100
0000
0000
0000
,  // measure 107
0001
0100
0000
1000
0000
0100
0000
0001
0000
0001
0000
0010
0001
0000
0001
0010
,  // measure 108
0100
1000
0100
1000
0100
0010
0100
0010
0001
0010
0100
1000
0010
0100
0000
0010
,  // measure 109
0000
0000
0100
0000
0000
0000
0010
0000
0000
0000
0001
0010
0000
0000
0010
0000
0000
0000
0100
0000
0000
0000
1000
0000
0010
0000
0000
0000
0010
0000
0100
1000
,  // measure 110
0000
0000
1000
0000
0000
0000
0100
0010
0000
0000
0010
0000
0000
0000
0001
0000
0000
0000
0010
0000
0001
0000
0010
0000
0100
0000
1000
0000
0000
0000
0001
0000
,  // measure 111
0000
0000
1000
0000
0000
0000
0100
0000
0000
0000
1000
0000
0000
0000
0001
1000
0100
0000
0010
0000
0000
0000
0001
0000
1000
0000
0000
0000
0100
0000
0010
0000
,  // measure 112
0000
0000
0001
0010
0000
0000
0010
0000
0000
0000
0001
0000
0000
0000
1000
0000
0000
0000
0010
0000
0000
0000
0100
0000
0001
0000
0010
0000
0100
0000
1000
0000
,  // measure 113
0000
0000
0001
0000
0000
0000
1000
0100
0000
0000
0100
0010
0000
0000
0001
0000
0000
0000
0010
0000
0000
0000
0001
0000
1000
0000
0000
0000
1000
0000
0100
0000
,  // measure 114
0000
0000
0100
1000
0000
0000
1000
0001
0000
0000
0001
0000
0000
0000
0100
0000
0000
0000
0100
0000
0001
0000
0100
0000
0010
0000
0000
0000
0100
0000
0000
0000
,  // measure 115
0001
0100
0000
1000
0000
0100
0000
0010
0000
0001
0000
0010
0001
0000
0001
0010
,  // measure 116
0100
1000
0100
1000
0010
0100
0001
0010
0100
1000
2001
0000
3100
0010
0000
0001
,  // measure 117
0000
2001
0000
3000
0100
0000
1001
0000
1000
0010
0102
0000
1003
0010
0100
0000
,  // measure 118
0001
1020
0000
0030
0001
0000
1100
0000
0001
0000
1002
0000
0103
0010
0000
0000
,  // measure 119
0001
1200
0000
0300
0010
0000
0101
0000
1000
0000
1002
0000
0013
0100
0000
1000
,  // measure 120
0000
1002
0000
0003
0010
0000
1001
0000
0001
0100
2010
0000
3001
0100
0010
0000
,  // measure 121
1000
0201
0000
0300
1000
0000
0011
0000
1000
0000
0000
0011
0000
1000
0000
0000
,  // measure 122
0010
2001
0000
3000
0100
0000
1001
0000
1000
0010
0102
0000
1003
0010
0100
0000
,  // measure 123
0001
1020
0000
0030
0001
0000
1100
0000
0001
0000
0011
0000
1000
0000
0011
0000
,  // measure 124
0100
2010
3000
2002
0000
0000
0000
0000
,  // measure 125
3003
0000
0000
0000
;
