#TITLE:Please Listen With X-Rated Videos MIX;
#SUBTITLE:;
#ARTIST:VJOL;
#TITLETRANSLIT:;
#SUBTITLETRANSLIT:;
#ARTISTTRANSLIT:;
#CREDIT:;
#BANNER:xrated-bn.png;
#BACKGROUND:xrated-bg.png;
#LYRICSPATH:;
#CDTITLE:cdtitle.PNG;
#MUSIC:09 Highspeedstar - Please Listen with X-Rated Videos MIX.mp3;
#OFFSET:-0.718;
#SAMPLESTART:52.440;
#SAMPLELENGTH:15.000;
#SELECTABLE:YES;
#BPMS:0.000=241.240;
#STOPS:136.000=0.994
;
#BGCHANGES:;
// cache tags:
#FIRSTBEAT:48.000;
#LASTBEAT:516.000;
#SONGFILENAME:Songs/hard shit/Please Listen With X-Rated Videos MIX/X-rated.sm;
#HASMUSIC:1;
#HASBANNER:1;
#MUSICLENGTH:135.915;
// end cache tags

//---------------dance-single - ----------------
#NOTES:
     dance-single:
     :
     Hard:
     14:
     1.000,1.000,1.000,0.000,1.000,1121.000,231.000,0.000,0.000,0.000:
0000
0000
0000
0000
,
0000
0000
0000
0000
,
0000
0000
0000
0000
,
0000
0000
0000
0000
,
0000
0000
0000
0000
,
0000
0000
0000
0000
,
0000
0000
0000
0000
,
0000
0000
0000
0000
,
0000
0000
0000
0000
,
0000
0000
0000
0000
,
0000
0000
0000
0000
,
0000
0000
0000
0000
,
1001
0000
0010
0000
1001
0000
0010
0000
1001
0000
0010
0000
0100
0010
0100
0000
,
0001
0100
0001
0100
0001
0100
0001
0100
0001
0100
0011
0000
1001
0000
0000
0000
,
1001
0000
0100
0000
0010
0000
0100
0000
0010
0000
0100
0000
0010
0100
0010
0000
,
1000
0010
1000
0010
1000
0010
1000
0010
1000
0010
1100
0000
1010
0000
0101
0000
,
0110
0000
1000
0000
0001
0000
0100
0000
0010
0000
1000
0000
0010
0100
0010
0000
,
1000
0100
0010
0001
1000
0010
0100
0001
1100
0000
0101
0000
1001
0000
0101
0000
,
0011
1000
0011
1000
0011
0101
1001
0101
,
1001
0000
0101
0000
0110
0000
1010
0000
1000
0010
1000
0010
0100
0010
0100
0000
,
1001
0010
1001
0010
1001
0010
1001
0010
,
1001
0000
0110
0000
1001
0000
0110
0000
1000
0100
0010
0001
1000
0010
0100
0001
,
1100
0001
1100
0001
1100
0001
1100
0001
,
1100
0000
0011
0000
1100
0000
0011
0000
1000
0100
0010
0001
1000
0010
0100
0001
,
1010
0010
1010
0100
1010
0010
1010
0100
,
1010
0000
0110
0000
1010
0000
0110
0000
1000
0100
0010
0001
1000
0010
0100
0001
,
1000
0100
0010
0001
0100
0010
0100
0001
0010
0100
1000
0010
0100
0010
1000
0100
,
0010
0001
1000
0010
0100
0001
1000
0010
0100
0001
0010
0100
1000
0001
0100
0010
,
1000
0001
0100
0010
1000
0001
0010
0100
1000
0010
0100
0010
1000
0010
0100
0010
,
1000
0001
0100
0010
1000
0001
0100
0010
1000
0001
1000
0100
1000
0001
1000
0001
,
0010
0001
1000
0100
0010
0001
1000
0010
0100
0001
1000
0001
0100
0010
1000
0100
,
0010
0001
1000
0001
0100
0010
1000
0010
0100
0001
1000
0010
0100
0001
0100
0010
,
1000
0010
0100
0001
1000
0010
0100
0001
0010
0100
1000
0001
0100
0010
1000
0001
,
0010
0100
1000
0010
0100
0001
1000
0100
0010
0001
0100
0010
0100
0001
0010
0100
,
1001
0000
0000
0000
,
1001
0000
0101
1000
0110
0000
1010
0000
,
1001
0100
0011
0100
1001
0010
1100
0010
,
1100
0000
0110
0001
1010
0000
1001
0000
,
0101
0010
1010
0100
1001
0000
0110
0001
,
0110
0000
0011
1000
0110
0000
1010
0000
,
0110
1000
0110
0001
0110
1000
0110
0001
,
1001
0000
1010
0001
0110
0000
0101
0000
,
1001
0100
1001
0010
1001
0000
1001
0100
,
1001
0000
0101
0010
0101
0000
0101
0000
,
1010
0100
1001
0010
1001
0100
1001
0010
,
0101
0000
0110
1000
0110
0000
0110
0000
,
1010
0010
0101
0010
1001
0000
1001
0010
,
1001
0001
0101
0100
0110
0010
1010
1000
,
1001
0001
0101
0100
0110
0010
1010
1000
,
1001
0001
0101
0100
0110
0010
1010
1000
,
1001
0000
0010
0000
1000
0100
0010
0001
1000
0010
0100
0001
1000
0100
0010
0001
,
1000
0001
1000
0000
0001
1000
0001
0000
0010
0000
0100
0000
0100
0001
0100
0000
,
1000
0010
1000
0000
0001
0100
0001
0000
0010
0000
0100
0010
0100
0000
0010
0000
,
1000
0000
0001
0010
0100
1000
0010
0000
0100
0000
0001
0100
0010
0000
0100
0000
,
1000
0001
0010
0000
1000
0001
0010
0000
1000
0000
0010
0100
0010
0000
1000
0000
,
0010
0000
1000
0100
0010
0001
0100
0000
0010
0000
0100
0010
0100
0000
0010
0000
,
1000
0100
1000
0000
0001
0010
0001
0000
1000
0000
0001
0010
0001
0000
1000
0000
,
0010
0000
0100
0010
1000
0010
0100
0000
0001
0000
0010
1000
0010
0000
0100
0000
,
0010
1000
0010
0000
0100
0001
0100
0000
1000
0000
0100
0001
1000
0000
0100
0000
,
1001
1010
0101
0110
,
1010
0101
1010
0101
,
1001
0110
1001
1010
1001
0101
1001
1100
,
1001
0011
1001
0110
1001
1010
1001
0101
,
1001
1010
0101
0110
,
1001
0110
1010
0101
,
1001
1010
1100
1010
1001
0101
0011
0101
,
1000
0001
1000
0000
0010
0100
0010
0000
1000
0001
1000
0000
0010
0100
0010
0100
,
1001
0001
0001
0001
,
0001
0000
0001
0000
0001
0000
0001
0000
0001
0010
0100
1000
0001
0100
0010
1000
,
0001
0001
0001
0001
,
0001
0000
0001
0000
0001
0000
0001
0000
0001
0010
0100
1000
0001
0100
0010
1000
,
0100
0100
0100
0100
,
0100
0000
0100
0000
0100
0000
0100
0000
1000
0100
0010
0001
1000
0010
0100
0001
,
1000
0100
0010
0001
0100
0010
0100
0001
0010
0100
1000
0010
0100
0010
1000
0010
,
1000
0100
0010
0001
1000
0010
0100
0001
1000
0100
0010
0001
0100
0010
1000
0010
,
0100
0000
0010
0100
0001
0100
0010
0000
0010
0000
0010
0100
0010
0000
0001
0000
,
0010
0100
0010
0000
1000
0010
1000
0000
0010
0000
0100
0001
0010
0000
0010
0000
,
1000
0000
0100
0010
1000
0010
0100
0000
0010
0000
0100
0010
0100
0000
0100
0000
,
0001
0010
0001
0000
0100
0010
0100
0000
0001
0000
0001
0100
0001
1000
0001
0100
,
0001
0000
0100
0010
1000
0010
0100
0000
0001
0000
0001
0100
0001
0000
0001
0000
,
0010
0100
0010
0000
0100
0010
0100
0000
0010
0000
0010
0100
0010
0000
0010
0000
,
0100
0000
1000
0100
0010
0001
0100
0000
0100
0000
0010
0100
0010
0000
0010
0000
,
0001
1000
0001
0000
0001
1000
0001
0000
0001
0000
0001
0100
0001
1000
0001
0100
,
0001
0000
0100
0010
1000
0010
0100
0000
0010
0000
0100
0010
0100
0000
1000
0000
,
0100
0010
0100
0000
0001
0100
0001
0000
1000
0000
0010
1000
0001
0000
0100
0000
,
1000
0000
0010
0100
0001
0100
0010
0000
0100
0000
0010
0100
0010
0000
0100
0000
,
1001
0000
0010
0000
1001
0000
0010
0000
0000
0000
1000
0010
1000
0001
1000
0010
,
1000
0000
0010
0100
0001
0100
0010
0000
1000
0000
0100
0010
0100
0000
1000
0000
,
0100
0010
0100
0000
0010
0100
0010
0000
0100
0000
0100
0010
0100
0000
0010
0000
,
1000
0000
0001
0010
0100
1000
0010
0000
0001
0000
0100
0010
0100
0000
0010
0000
,
1001
0000
0010
0000
1001
0000
0010
0000
0000
0000
1000
0010
1000
0001
1000
0010
,
1001
0001
0001
0001
,
0001
0000
0001
0000
0001
0000
0001
0000
0001
0010
0100
1000
0001
0100
0010
1000
,
0001
0001
0001
0001
,
0001
0000
0001
0000
0001
0000
0001
0000
0001
0010
0100
1000
0001
0100
0010
1000
,
0001
0001
0001
0001
,
0001
0000
0001
0000
0001
0000
0001
0000
0001
0010
0100
1000
0001
0100
0010
1000
,
0001
0010
0100
1000
0001
0100
0010
1000
0001
0100
0010
1000
0001
0010
0100
1000
,
0001
0100
0010
1000
0001
0100
0010
1000
0001
0010
0100
1000
0001
0100
0010
1000
,
0010
0000
0000
0000
,
0000
0000
0000
0000
,
0001
1000
0001
0000
1000
0001
1000
0000
0100
0000
0010
0100
0010
0000
0100
0000
,
0001
0100
0001
0000
1000
0010
1000
0000
0100
0000
0010
0100
0010
0000
0100
0000
,
0001
0000
1000
0100
0010
0001
0100
0000
0010
0000
1000
0010
0100
0000
0010
0000
,
0001
1000
0100
0000
0001
1000
0100
0000
0001
0000
0100
0010
0100
0000
0001
0000
,
0100
0000
0001
0010
0100
1000
0010
0000
0100
0000
0010
0100
0010
0000
0100
0000
,
0001
0010
0100
0000
0010
0100
1000
0000
0001
0000
1000
0100
1000
0000
0001
0000
,
0100
0000
0010
0100
0001
0100
0010
0000
1000
0000
0100
0001
0100
0000
0010
0000
,
0100
0001
0100
0000
0010
1000
0010
0000
0001
0000
0010
1000
0001
0000
0010
0000
,
1001
1000
1001
0001
0101
0100
0110
0010
,
1010
1000
1001
0001
0101
0100
0110
0010
,
1010
1000
1001
0001
0101
0100
0110
0010
,
1010
0110
1001
0110
1001
1010
1001
0110
,
1001
1000
1001
0001
0101
0100
0110
0010
,
1010
1000
1001
0001
0101
0100
0110
0010
,
1010
0000
1000
0100
0010
0001
1000
0100
0010
0001
1000
0100
0010
0001
1000
0100
,
0010
0001
0010
0000
0001
0100
0001
0000
0010
0100
0010
0000
1000
0010
1000
0000
,
1001
1001
1001
1001
,
1001
1001
1001
1001
,
1000
0100
0010
0001
1000
0010
0100
0001
1000
0100
0010
0001
1000
0010
0100
0001
,
0110
0000
0000
0000
0000
0110
0000
0000
0000
0000
1001
0000
0000
0000
0000
0000
,
0101
1000
0110
0001
0110
1000
0011
0100
,
1010
0001
0110
1000
0101
0010
0101
1000
,
0110
0001
1100
0010
0110
0001
1010
0100
,
1001
0010
0101
0010
1100
0010
0101
0000
,
1001
0100
0011
1000
0110
0001
0110
1000
,
0101
0010
0101
1000
0110
0001
0110
1000
,
0110
0001
1010
0100
1001
0010
1100
0010
,
0101
0000
0110
0000
1010
0000
0110
0000
0101
0000
0110
0000
1000
0001
1000
0001
,
1100
0000
0000
0000
;

//---------------dance-single - ----------------
#NOTES:
     dance-single:
     :
     Challenge:
     16:
     1.000,1.000,1.000,0.000,1.000,1214.000,466.000,0.000,0.000,0.000:
0000
0000
0000
0000
,
0000
0000
0000
0000
,
0000
0000
0000
0000
,
0000
0000
0000
0000
,
0000
0000
0000
0000
,
0000
0000
0000
0000
,
0000
0000
0000
0000
,
0000
0000
0000
0000
,
0000
0000
0000
0000
,
0000
0000
0000
0000
,
0000
0000
0000
0000
,
0000
0000
0000
0000
,
1001
0000
0010
0000
1001
0000
0010
0000
1001
0000
0010
0000
0100
0010
0100
0000
,
0001
0010
0100
1000
0001
0010
0100
1000
0001
0010
0100
1000
0001
0010
0100
1000
0001
0010
0100
1000
0110
0000
0000
0000
1001
0000
0000
0000
0010
0000
0000
0000
,
1001
0000
0100
0000
0010
0000
0100
0000
0010
0000
0100
0000
0010
0100
0010
0000
,
1000
0100
0010
0001
1000
0100
0010
0001
1000
0100
0010
0001
1000
0100
0010
0001
1000
0100
0010
0001
0110
0000
0000
0000
1010
0000
0000
0000
0101
0000
0000
0000
,
0110
0000
1000
0000
0001
0000
0100
0000
0010
0000
1000
0000
0010
1000
0010
0000
,
0001
0010
0100
1000
0001
0010
0100
1000
0001
0010
0100
1000
0001
0010
0100
1000
0011
0000
0000
0000
0101
0000
0000
0000
1001
0000
0000
0000
0101
0000
0000
0000
,
0011
1000
0011
1000
0011
0101
1001
0101
,
1001
0000
0101
0000
0110
0000
1010
0000
1000
0010
1000
0010
0100
0010
0100
0000
,
1001
0010
1001
0010
1001
0010
1001
0010
,
1001
0000
0110
0000
1001
0000
0110
0000
1000
0100
0010
0001
1000
0010
0100
0001
,
1100
0001
1100
0001
1100
0001
1100
0001
,
1100
0000
0011
0000
1100
0000
0011
0000
1000
0100
0010
0001
1000
0010
0100
0001
,
1010
0010
1010
0100
1010
0010
1010
0100
,
1010
0000
0110
0000
1010
0000
0110
0000
1000
0100
0010
0001
1000
0010
0100
0001
,
1000
0100
0010
0001
0100
0010
0100
0001
0010
0100
1000
0010
0100
0010
1000
0100
,
0010
0001
1000
0010
0100
0001
1000
0010
0100
0001
0010
0100
1000
0001
0100
0010
,
1000
0001
0100
0010
1000
0001
0010
0100
1000
0010
0100
0010
1000
0010
0100
0010
,
1000
0001
0100
0010
1000
0001
0100
0010
1000
0001
1000
0100
1000
0001
1000
0001
,
0010
0001
1000
0100
0010
0001
1000
0010
0100
0001
1000
0001
0100
0010
1000
0100
,
0010
0001
1000
0001
0100
0010
1000
0010
0100
0001
1000
0010
0100
0001
0100
0010
,
1000
0010
0100
0001
1000
0010
0100
0001
0010
0100
1000
0001
0100
0010
1000
0001
,
0010
0100
1000
0010
0100
0001
1000
0100
0010
0001
0100
0010
0100
0001
0010
0100
,
1001
0000
0000
0000
,
1001
0000
0101
1100
0110
0000
1010
0000
,
1001
0101
0011
0101
1001
1010
1100
1010
,
1100
0000
0110
0101
1010
0000
1001
0000
,
0101
0110
1010
0110
1001
0000
0110
1001
,
0110
0000
0011
1001
0110
0000
1010
0000
,
0110
1010
0110
0101
0110
1010
0110
0101
,
1001
0000
1010
0101
0110
0000
0101
0000
,
1001
1010
1001
0101
1001
0000
1001
0110
,
1001
0000
0101
1100
0101
0000
0101
0000
,
1001
1010
1001
0101
1001
1010
1001
0101
,
0110
0000
0110
1001
0110
0000
0110
0000
,
1010
0110
0101
0011
1001
0000
1001
0110
,
1001
0001
0101
0100
0110
0010
1010
1000
,
1001
0001
0101
0100
0110
0010
1010
1000
,
1001
0001
0101
0100
0110
0010
1010
1000
,
1001
0000
0010
0000
1000
0100
0010
0001
1000
0010
0100
0001
1000
0100
0010
0001
,
1100
0001
1000
0000
0011
1000
0001
0000
0110
0000
0100
0000
0110
0001
0100
0000
,
1100
0010
1000
0000
0011
0100
0001
0000
1010
0000
0100
0010
0101
0000
0010
0000
,
1001
0000
0001
0010
0101
1000
0010
0000
0110
0000
0001
0100
1010
0000
0100
0000
,
1010
0001
0010
0000
1100
0001
0010
0000
1100
0000
0010
0100
0011
0000
1000
0000
,
0110
0000
1000
0100
1010
0001
0100
0000
0011
0000
0100
0010
1100
0000
0010
0000
,
1001
0100
0010
0000
0101
0010
0001
0000
1001
0000
0001
0010
0101
0000
1000
0000
,
0011
0000
0100
0010
1100
0010
0100
0000
0011
0000
0010
1000
0011
0000
0100
0000
,
0110
1000
0010
0000
0110
0001
0100
0000
1010
0000
0100
0001
1010
0000
0100
0000
,
1001
0000
0010
0100
1010
0000
0100
0010
0101
0000
1000
0001
0110
0000
0010
0001
,
1010
0000
0100
0010
0101
0000
0010
0100
1010
0000
0100
0010
0101
0000
0010
0100
,
1001
0010
0100
0010
1001
0100
0010
0100
1001
0010
0100
0010
1001
0100
0010
0100
,
1001
0010
0100
0010
1001
0100
0010
0100
1001
0010
0100
0010
1001
0100
0010
0100
,
1001
0000
0010
0100
1010
0000
0100
0010
0101
0000
0001
1000
0110
0000
0010
0100
,
1001
0000
0100
0001
0110
0000
0010
0001
1010
0000
0100
1000
0101
0000
0010
0100
,
1001
1010
1100
1010
1001
0101
0011
0101
,
1100
0011
1100
0000
0011
1100
0011
0000
1010
0101
1010
0000
1001
0110
1001
0110
,
1001
0001
0001
0001
,
0001
0000
0001
0000
0001
0000
0001
0000
0001
0010
0100
1000
0001
0100
0010
1000
,
0001
0001
0001
0001
,
0001
0000
0001
0000
0001
0000
0001
0000
0001
0010
0100
1000
0001
0100
0010
1000
,
0100
0100
0100
0100
,
0100
0000
0100
0000
0100
0000
0100
0000
1000
0100
0010
0001
1000
0010
0100
0001
,
1000
0100
0010
0001
0100
0010
0100
0001
0010
0100
1000
0010
0100
0010
1000
0010
,
1000
0100
0010
0001
1000
0010
0100
0001
1000
0100
0010
0001
0100
0010
1000
0010
,
1100
0000
0010
0100
0011
0100
0010
0000
0110
0000
0010
0100
1010
0000
0001
0000
,
1010
0100
0010
0000
1100
0010
1000
0000
0110
0000
0100
0001
0110
0000
0010
0000
,
1001
0000
0100
0010
1100
0010
0100
0000
0110
0000
0100
0010
1100
0000
0100
0000
,
0101
0010
0001
0000
1100
0010
0100
0000
1001
0000
0011
0100
0011
1000
0011
0100
,
0011
0000
0100
0010
1100
0010
0100
0000
0011
0000
0001
0100
0011
0000
0001
0000
,
1010
0100
0010
0000
1100
0010
0100
0000
1010
0000
0010
0100
0011
0000
0010
0000
,
0101
0000
1000
0100
1010
0001
0100
0000
0110
0000
0010
0100
0011
0000
0010
0000
,
0011
1000
0001
0000
0011
1000
0001
0000
0011
0000
0011
0100
0011
1000
0011
0100
,
0011
0000
0101
0010
1100
0010
0101
0000
0110
0000
1100
0010
1100
0000
1001
0000
,
0101
0010
1100
0000
0011
0100
0011
0000
1100
0000
0011
1000
0101
0000
0110
0000
,
1001
0000
1010
0100
0011
0100
1010
0000
0101
0000
1010
0100
0011
0000
0110
0000
,
1001
0000
0110
0000
1001
0000
0110
0000
0000
0000
1001
1010
1100
1010
1001
0110
,
1001
0000
0011
0100
0011
0100
0011
0000
1100
0000
1100
0010
1100
0000
1010
0000
,
0101
0010
1100
0000
0011
0100
1010
0000
0101
0000
0101
0010
0101
0000
0110
0000
,
1010
0000
0101
0010
0101
1000
0110
0000
0011
0000
1100
0010
1100
0000
0110
0000
,
1001
0000
0110
0000
1001
0000
0110
0000
0000
0000
1001
0101
0011
0101
1001
0110
,
1001
0001
0001
0001
,
0001
0000
0001
0000
0001
0000
0001
0000
0001
0010
0100
1000
0001
0100
0010
1000
,
0001
0001
0001
0001
,
0001
0000
0001
0000
0001
0000
0001
0000
0001
0010
0100
1000
0001
0100
0010
1000
,
0001
0001
0001
0001
,
0001
0000
0001
0000
0001
0000
0001
0000
0001
0010
0100
1000
0001
0100
0010
1000
,
0001
0010
0100
1000
0001
0100
0010
1000
0001
0100
0010
1000
0001
0010
0100
1000
,
0001
0100
0010
1000
0001
0100
0010
1000
0001
0010
0100
1000
0001
0100
0010
1000
,
0010
0000
0000
0000
,
0000
0000
0000
0000
,
0011
1000
0001
0000
1100
0001
1000
0000
0101
0000
0010
0100
0011
0000
0100
0000
,
0011
0100
0001
0000
1100
0010
1000
0000
0110
0000
0010
0100
1010
0000
0100
0000
,
0011
0000
1000
0100
1010
0001
0100
0000
0011
0000
1000
0010
1100
0000
0010
0000
,
0101
1000
0100
0000
0011
1000
0100
0000
0011
0000
0100
0010
1100
0000
0001
0000
,
0110
0000
0001
0010
0101
1000
0010
0000
0101
0000
0010
0100
1010
0000
0100
0000
,
1001
0010
0100
0000
0011
0100
1000
0000
0011
0000
1000
0100
1010
0000
0001
0000
,
0110
0000
0010
0100
0011
0100
0010
0000
1010
0000
0100
0001
1100
0000
0010
0000
,
0100
0001
0100
0000
0010
1000
0010
0000
0100
0000
0010
1000
0010
0000
0010
0000
,
1001
0110
1001
1100
1001
0011
1001
1010
,
0110
1010
0110
1001
0110
0101
0110
1010
,
1001
1010
1001
0101
1001
0011
1001
1100
,
1001
0100
0010
0100
1001
0010
0100
0010
1001
0100
0010
0100
1001
0010
0100
0010
,
1001
1010
1001
0101
1001
1010
1001
0101
,
1001
0110
1010
0110
0101
0110
1010
0110
,
0101
0000
1000
0100
0010
0001
1000
0100
0010
0001
1000
0100
0010
0001
1000
0100
,
0010
0100
0010
0100
0010
0000
0000
0000
0001
0100
0001
0100
0001
0000
0000
0000
0010
0100
0010
0100
0010
0000
0000
0000
1000
0010
1000
0010
1000
0000
0000
0000
,
1001
1001
1001
1001
,
1001
1001
1001
1001
,
1000
0100
0010
0001
1000
0010
0100
0001
1000
0100
0010
0001
1000
0010
0100
0001
,
0110
0000
0000
0000
0000
0110
0000
0000
0000
0000
1001
0000
0000
0000
0000
0000
,
0101
1010
0110
1001
0110
1010
0011
0101
,
1010
0101
0110
1010
0101
1010
0101
1010
,
0110
0101
1100
0110
1010
0101
1010
0110
,
1001
0110
0101
1010
1100
1010
0101
0000
,
1001
0110
0011
1100
0110
0101
0110
1001
,
0101
0110
0101
1001
0110
0101
0110
1010
,
0110
0101
1010
0101
1001
0110
1100
0110
,
0101
0000
0110
0000
1010
0000
0110
0000
0101
0000
0110
0000
1000
0100
0010
0001
,
0110
0000
0000
0000
;
