#TITLE:Kung-Fu(ck You !;
#SUBTITLE:- I'll Use My Sword);
#ARTIST:The Speed Freak;
#TITLETRANSLIT:;
#SUBTITLETRANSLIT:;
#ARTISTTRANSLIT:;
#CREDIT:;
#BANNER:use my sword bn.png;
#BACKGROUND:use my sword bg.png;
#LYRICSPATH:;
#CDTITLE:;
#MUSIC:06 - Kung-Fu(ck You ! - I'll Use My Sword).ogg;
#OFFSET:-0.894;
#SAMPLESTART:156.440;
#SAMPLELENGTH:12.000;
#SELECTABLE:YES;
#BPMS:0.000=150.970;
#STOPS:;
#BGCHANGES:;
// cache tags:
#FIRSTBEAT:4.000;
#LASTBEAT:456.000;
#SONGFILENAME:Songs/SSSC Pack 2/Kung-Fu(ck You ! - I'll Use My Sword) - [NIQ9]/Kung Fu.sm;
#HASMUSIC:1;
#HASBANNER:1;
#MUSICLENGTH:187.406;
// end cache tags

//---------------dance-single - NIQ9----------------
#NOTES:
     dance-single:
     NIQ9:
     Challenge:
     12:
     0.785,1.000,0.181,0.176,0.960,963.000,34.000,33.000,82.000,0.000:
0000
0000
0000
0000
,
0000
0000
0000
0000
,
2000
0000
0000
0000
,
3020
0000
0000
0000
,
0230
0000
0000
0000
,
0000
0000
0000
0000
,
0320
1000
0000
1000
0000
1000
0000
1000
,
0000
0100
0000
1000
0000
1000
0000
1000
,
0000
0100
0000
1000
0000
0100
0000
1000
,
0000
0100
0000
1000
0000
0100
0000
1030
,
0002
0010
0010
0013
,
0200
1000
1000
1300
,
0002
0100
0100
0100
,
1000
1000
1000
1003
,
0002
0010
0000
0010
0000
0010
0000
0013
,
0200
1000
0000
1000
0000
1000
0000
0310
,
0002
1000
0003
1001
0000
1100
0000
1001
,
0000
1001
0000
0101
0000
0110
0000
0010
,
1000
0000
1200
1000
0010
0000
1000
0000
,
2300
0000
0000
0000
0000
0000
0000
0020
0000
0000
0000
0000
0000
0000
3000
0000
,
0230
1000
0010
1000
,
0010
0001
0320
1000
,
1000
0100
1000
0100
,
0001
0100
1000
0230
,
0302
1000
0023
0100
,
1000
0100
0001
0100
,
0031
1100
0001
0011
,
0001
0101
0100
0110
,
0010
1001
0001
0011
,
0100
0000
0000
0000
0000
0000
0000
0000
1100
0000
0000
0000
0000
0000
0000
0000
1000
0100
1000
0100
1000
0100
1000
0100
1000
0000
0000
0000
0001
0000
0000
0000
,
0000
0100
0000
0010
0000
1000
0100
0010
,
0001
0010
0100
1000
0010
1000
0001
0100
,
0010
0100
0001
1000
0100
0010
0001
0010
,
0100
0000
0000
0000
1000
0000
0000
0000
0001
0000
0000
0000
0100
0000
0000
0000
0001
0100
0001
0100
0001
0100
0001
0100
0002
0000
0000
0000
0000
0000
0000
0000
,
1003
0000
0100
1000
0001
0000
0100
0001
1000
0000
0100
1000
0001
0000
0100
0001
,
1000
0000
0100
1000
0001
0000
0100
0001
1000
0000
0100
1000
0100
0010
0001
1000
,
0010
0000
1000
0001
0010
0000
0001
1000
0010
0000
1000
0001
0010
0000
0001
0100
,
0001
0000
0001
1000
0001
0000
1000
0010
1000
0000
0001
0100
0010
1000
0001
1000
,
0001
0000
0010
0100
1000
0000
0100
1000
0100
0010
0001
1000
0010
1000
0010
1000
,
0001
0000
0100
0001
1000
0000
0100
1000
0001
0000
0100
0010
0100
0001
1000
0100
,
1000
0000
0000
0100
0010
0000
0001
1000
0010
0000
0100
0001
1000
0000
1000
0100
,
0010
0001
0010
0001
0010
0001
1000
0000
0010
1000
0010
1000
0001
1000
0M10
010M
,
00M1
0000
1000
0001
0010
0000
0001
1000
0010
0000
1000
0001
0010
0000
0001
1000
,
0100
0000
1000
0001
0100
0000
0001
1000
0100
0000
1000
0001
0100
0010
0100
0001
,
1000
0000
0100
0010
0001
0000
0010
0100
1000
0000
0100
0010
0001
0000
0010
0100
,
1000
0000
0100
0010
0001
0000
0010
0100
1000
0000
0100
0010
0002
0000
0200
0003
,
0320
0000
0000
2030
,
0000
0000
3002
0000
,
0023
0000
0000
0000
0000
0000
0000
0000
0000
0000
0000
0000
0000
0000
0000
0000
0000
0000
0000
0000
0000
0000
0000
0000
003M
00M0
0M00
M000
0000
0000
0000
0000
,
0000
1100
1001
0101
,
1000
0000
0001
0010
0100
0000
1000
0001
1000
0000
0001
0100
0010
0000
1000
0010
,
1000
0000
0010
0100
0001
0000
1000
0001
1000
0000
0001
0010
0100
0000
1000
0001
,
1000
0000
1000
0010
0100
0000
0010
0100
0010
0000
0100
0001
1000
0000
0001
1000
,
0010
0000
0000
0000
0100
0001
0100
0001
0100
0001
0000
0000
0000
0000
0000
0000
1000
0000
0000
0000
0100
0000
0010
0000
0001
0000
0010
0000
0001
0000
0000
0000
,
1001
0000
1000
0010
0100
0000
0001
0100
0001
0000
0100
0010
1000
0000
0001
1000
,
0001
0000
1000
0100
0010
0000
0001
0010
0001
0010
0001
0010
0001
1000
0001
1000
,
0001
0000
1000
0010
0100
0000
0001
1000
0001
0000
1000
0100
0020
0000
0031
0000
,
0011
0000
1000
0000
0010
0000
1001
0000
0000
1000
0010
1000
0010
0000
0000
0100
0001
0100
0001
0000
0000
1001
0000
0000
,
1000
0000
0001
0010
0100
0010
0001
1000
0001
0000
1000
0010
0100
0010
1000
0001
,
1000
0000
0001
1000
0100
1000
0001
1000
0001
0000
0100
0010
0100
0001
1000
0010
,
1000
0000
0001
0100
0010
0100
0001
1000
0001
0000
1000
0100
0010
0001
1000
0100
,
1000
0000
0000
0000
0001
0000
0001
0000
0200
0000
0000
0000
0300
0000
0000
0000
0001
0100
0001
0100
0001
0100
0001
0100
0001
0000
1000
0000
0100
0000
0010
0000
,
0001
0000
0010
0100
1000
0001
1000
0010
0100
0000
0101
0000
0010
0000
1001
0000
,
1000
0000
1100
0000
0001
0000
0011
0000
1000
0100
0010
0001
0010
0100
1000
0001
,
1000
0010
0001
1000
0100
0001
1000
0100
,
1000
0100
1000
0100
1000
0000
0100
0000
1000
0000
0000
0000
0001
0000
0000
0000
0100
0001
0100
0001
0100
0000
0001
0000
0100
0000
0000
0000
MMMM
0000
0000
0000
,
1001
0000
0001
1000
0100
0000
0010
0001
1000
0000
0010
0100
0001
0000
1000
0100
,
0010
0000
0001
1000
0010
0000
0100
0001
1000
0000
0100
0010
0001
0000
1000
0010
,
0100
0000
0001
0010
0100
0000
1000
0100
0010
0000
0001
1000
0010
0000
0100
0001
,
1000
0000
0000
0000
0000
0000
0100
0000
0000
0010
0000
0000
0001
0000
0000
0000
0000
0000
1000
0000
0000
0010
0000
0000
0100
0000
0000
0000
0000
0000
0001
0000
0000
0010
0000
0000
0100
0000
1000
0000
0100
0000
1000
0000
0100
0000
1000
0000
,
0100
0000
1000
0100
0010
0000
0001
0100
0010
0000
1000
0001
0100
0000
0010
0100
,
0001
0000
1000
0100
0010
0000
0001
0010
0100
0000
1000
0010
0100
0000
0001
0100
,
0010
0000
0100
0010
1000
0000
0010
1000
0001
0000
1000
0010
0100
0000
0001
0000
,
0101
1000
0101
0010
0101
0001
0101
0101
,
1001
0000
1000
0100
0010
0000
0001
0010
0100
0000
1000
0010
0100
0000
0001
0100
,
0010
0000
1000
0001
0010
0000
0001
1000
0010
0000
1000
0001
0100
0000
0001
1000
,
0100
0000
1000
0100
0010
0000
0001
1000
0010
0000
0100
0001
1000
0000
0100
0010
,
0001
0000
0000
0000
0000
0000
1000
0000
0000
0010
0000
0000
0100
0000
0000
0000
0000
0000
0001
0000
0000
0100
0000
0000
0010
0000
0000
0000
0000
0000
1000
0000
0000
0001
0000
0000
0010
0000
0000
0000
0010
0000
0000
0000
0100
0000
0000
0000
,
0100
0000
1000
0100
0010
0000
0001
1000
0010
0000
0100
0001
0100
0000
0001
0100
,
0001
0000
0100
0010
1000
0000
0001
1000
0001
0000
1000
0100
0010
0000
0100
0010
,
0001
0000
0000
0010
0000
0000
0100
0000
1000
0010
0100
0001
0010
0100
1000
0001
,
0100
0001
0100
0000
0001
1000
0001
0000
1000
0000
0100
0000
0010
0000
0001
0000
1000
0000
0100
0000
0010
0000
0001
0000
1000
0001
1000
0001
1000
0000
0000
0000
,
0020
000M
0000
M000
,
0230
00M0
0000
M000
,
0302
0000
M000
0000
00M0
0000
0M00
0000
0M00
0000
M000
0000
00M0
0000
0M00
0000
M000
0000
00M0
0000
0M00
0000
M000
0000
0MM0
00M0
M000
0M00
M000
00M0
0M00
M000
,
00M0
0M00
00M0
M000
0M00
00M0
0M00
00M0
M000
0M00
M000
00M0
0M00
00M0
M000
0M00
00M0
M000
0M00
M000
00M0
0M00
M000
00M0
0M00
M000
0M00
00M0
M000
0M00
M000
0M00
,
0023
0000
0000
0000
0000
0000
0000
0000
0000
0000
0000
0000
MM00
0000
0000
0000
MM0M
0000
0000
0000
0000
0000
0000
0000
0000
0000
0000
0000
0000
0000
0000
M00M
,
0230
0000
00MM
0000
,
2300
0000
00M0
0M0M
,
000M
0000
0000
0000
,
3001
0000
0100
0010
0000
0000
1000
0000
,
0001
0000
0010
0100
0000
0000
1000
0000
,
0010
0000
0100
0001
0000
0000
1000
0000
,
0000
0100
0000
0010
,
0001
0000
1000
0010
0000
0000
0100
0000
,
0010
0000
1000
0100
0000
0000
0010
0000
,
0001
0000
0100
0010
0000
0000
0100
0000
,
0001
1000
0010
0000
0100
0001
1000
0000
,
0001
0100
0010
1000
0001
1000
0100
0010
0001
0010
0100
0010
0001
1000
0010
1000
,
0001
0100
0010
0100
0001
1000
0010
1000
0001
0010
0001
1000
0100
1000
0001
0010
,
0100
1000
0001
0010
0100
0010
0001
1000
0100
0010
0001
1000
0010
1000
0001
0100
,
0010
1000
0010
0100
0001
0100
0001
0100
0010
1000
0001
0010
0100
1000
0100
0010
,
0100
1000
0001
0010
0100
0010
0001
1000
0010
1000
0001
0100
0010
0100
0001
1000
,
0100
0010
0100
1000
0001
1000
0010
1000
0001
0100
0010
1000
0001
0010
0001
1000
,
0100
1000
0001
0010
0100
1000
0100
0010
0001
1000
0010
1000
0001
0100
0010
0100
,
M001
0101
1000
0100
,
001M
0000
0001
0010
0100
1000
0001
0000
1000
0001
0010
0100
1000
0001
0100
0000
,
0010
0000
1000
0001
0010
0001
1000
0000
0010
1000
0001
0010
0100
0010
0001
0000
,
1000
0000
0000
0000
0000
0000
0010
0000
0000
0100
0000
0000
0010
0000
0000
1000
0000
0000
0001
0000
0000
0000
0000
0000
1000
0000
0000
0100
0000
0000
0010
0000
0000
0100
0000
0000
0010
0000
0001
0000
1000
0000
0100
0000
0000
0000
0000
0000
,
1000
0100
0010
0001
0100
0010
1000
0100
0010
0000
0000
0000
1001
0000
0000
0000
,
1000
0000
0010
1000
0010
0100
0001
0000
1000
0100
0010
0001
0010
0100
1000
0000
,
0001
0100
0010
1000
0001
0010
0100
0000
1000
0100
0010
0001
1000
0010
0100
0000
,
0001
0000
0000
0000
0000
0000
0010
0000
0000
0100
0000
0000
1000
0000
0000
0100
0000
0000
0010
0000
0000
0000
0000
0000
0001
0000
0000
1000
0000
0000
0010
0000
0000
0100
0000
0000
0001
0000
0100
0000
0001
0000
0100
0000
0000
0000
0000
0000
,
0001
1000
0001
1000
0001
1000
0001
0010
0001
0100
0001
0100
0010
1000
0010
1000
,
0100
0000
0000
0000
;

//---------------dance-single - NIQ9----------------
#NOTES:
     dance-single:
     NIQ9:
     Hard:
     9:
     0.558,0.669,0.085,0.043,0.387,706.000,16.000,8.000,0.000,0.000:
0000
0000
0000
0000
,
0001
0000
0010
0000
,
0100
0000
0000
0000
,
0000
0010
0000
0010
0000
0010
0000
0010
0000
1000
0000
1000
0000
1000
0000
1000
,
0000
0001
0000
1000
0000
0001
0000
1000
0000
0001
0000
1000
0000
0001
0000
0000
,
0010
0000
0100
0000
,
0010
0000
0000
0000
,
0000
0001
0000
0010
0000
0001
0000
0010
0000
0001
0000
1000
0000
0001
0000
1000
,
0000
0100
0000
0010
0000
0001
0000
1000
0000
0100
0000
0010
0000
0001
0000
0000
,
1000
0000
0010
1000
0010
0000
0100
0000
0001
0000
0000
0000
0010
0000
0000
0000
,
0100
1000
0100
1000
0010
0100
0001
0010
,
0100
0000
1000
0000
0010
0100
0010
1000
,
0001
0000
0010
0000
0100
1000
0100
0000
,
0010
0001
1000
0010
0100
0010
1000
0001
,
0010
0000
0001
0000
1000
0000
0100
0000
0010
0000
0001
0000
1000
0001
1000
0000
,
0010
0100
0001
0010
0100
1000
0100
0010
,
0001
0000
1000
0000
0010
0000
0100
0000
0001
0000
0010
0000
0001
1000
0100
0000
,
1001
1000
0100
0010
,
0001
0000
0000
0000
1000
0000
0000
0000
0100
0000
0000
0000
1000
0001
1000
0001
,
1000
0010
0100
0001
,
0010
0000
0000
0000
0100
0000
0000
0000
1000
0000
0000
0000
0001
0000
1000
0001
,
1000
0000
0000
0000
0100
0000
0000
0000
0010
0001
0010
0001
0010
0001
0010
0001
,
1000
0000
0000
0000
0010
0000
0000
0000
0100
0000
0000
0000
0010
1000
0010
1000
,
0001
1000
0100
0010
,
0100
0000
0000
0000
1000
0000
0000
0000
0001
0000
0000
0000
1001
0000
1000
0100
,
0010
0001
0010
0100
,
1000
0000
0000
0000
0001
0000
0000
0000
0100
0000
0000
0000
0010
1000
0100
0010
,
0001
1000
0100
1000
,
0010
0000
0100
0001
1001
1000
0200
0000
,
0320
0000
0000
0032
,
0000
0000
2003
0000
,
3020
0000
0000
0000
,
0030
1000
0100
0010
,
0001
1000
0100
1000
0010
0100
0001
0100
,
0010
1000
0100
1000
0010
0100
0001
0100
,
0010
1000
0001
0010
0001
1000
0010
1000
,
0001
0000
0000
0000
0000
0000
1000
0000
0001
0000
1000
0000
0001
0000
0000
0000
0000
0000
0000
0000
0000
0000
0000
0000
0010
0000
0000
0000
0000
0000
0001
0000
0000
0000
0000
0000
1000
0000
0000
0001
0000
0000
1000
0000
0000
0000
0000
0000
,
0010
0100
0010
1000
0001
0010
0001
1000
,
0100
0010
0100
1000
0010
1000
0010
0100
,
0001
0100
0001
0010
0100
0010
0100
1000
,
0010
0000
1000
0000
0010
0000
1001
0000
0000
0004
0000
0000
1003
0000
0000
0400
0000
0000
0310
0000
0000
0001
0000
0000
,
1000
0100
1000
0010
0100
0010
1000
0001
,
0010
0001
0100
0001
1000
0100
1000
0001
,
0100
0001
0010
0001
1000
0100
1000
0010
,
0100
0000
0010
1000
0001
0000
0000
0000
1000
0000
0100
1000
0100
0000
0000
0000
,
1000
0001
0100
0010
0100
0001
1000
0010
,
1000
0001
0010
0100
1000
0100
0010
0001
,
2000
0010
0100
0010
,
3001
0000
1000
0000
0001
0000
1000
0000
0000
0001
0000
0000
1000
0000
0000
0000
0000
0000
0000
0000
0000
0000
0000
0000
0010
0000
0100
0000
0010
0000
0100
0000
0000
0010
0000
0000
0100
0000
0000
0000
0000
0000
0000
0000
0000
0000
0000
0000
,
0001
0000
1000
0010
1000
0000
0001
0100
0001
0000
1000
0000
0100
0000
0010
0000
,
0001
0010
0100
1000
0001
0100
0010
1000
,
0001
0000
0010
0001
0010
0000
0100
1000
0100
0000
0010
0000
0001
0000
0010
0000
,
0100
0000
1000
0000
0010
0000
0010
0000
0100
0000
0001
0010
0100
1000
0010
0100
,
0001
0000
1000
0010
1000
0000
0001
0100
0001
0000
1000
0000
0100
0000
0010
0000
,
0001
0010
0100
1000
0001
1000
0010
1000
,
0001
0000
0100
0001
0100
0000
0010
1000
0010
0000
1000
0000
0100
0000
0010
0000
,
0011
1001
1100
0110
,
1001
0000
0001
0100
0001
0000
1000
0010
1000
0000
0001
0010
0001
0000
1000
0100
,
1000
0100
0010
0001
0010
0100
1000
0001
,
0100
0000
0010
1000
0010
0000
0100
0001
0100
0000
0001
1000
0001
0000
1000
0100
,
1000
0001
0010
0100
1000
0010
0100
0010
,
1000
0000
0001
0010
0001
0000
1000
0100
1000
0000
0001
0100
0001
0000
1000
0010
,
1000
0000
0001
0010
0001
0000
1000
0100
1000
0000
0001
1000
0001
0000
0100
0010
,
0100
0000
0000
0010
0000
0000
1000
0000
0001
0010
0001
0010
0001
0010
0001
0010
,
0004
0000
4003
0000
3001
0100
0001
0100
0010
1000
0001
0010
0400
0000
0300
0000
,
1000
0000
0100
0000
0010
0001
1000
0000
,
0010
0000
0100
0000
0010
1000
0100
0000
,
0010
0000
0001
0000
1000
0001
0100
0000
,
0001
1000
0100
0000
1000
0001
0100
0000
,
0001
0000
1000
0000
0100
0010
0001
0000
,
1000
0000
0010
0000
0100
0010
1000
0000
,
0001
0000
0010
0000
0100
1000
0010
0000
,
0100
0001
0010
0000
0100
1000
0010
0000
,
0100
0000
0001
0000
1000
0001
0010
0000
,
0100
0000
1000
0000
0001
0100
0010
0000
,
1000
0000
0100
0000
0010
0001
1000
0000
,
0100
1000
0001
0000
0100
0001
1000
0000
,
0010
0000
1000
0000
0001
0100
0001
0000
,
1000
0000
0100
0000
0010
0001
0010
0000
,
0001
0000
1000
0000
0100
1000
0100
0000
,
1000
0000
0010
0000
0100
0001
0100
0000
,
0001
1000
0001
0000
1000
0010
1000
0000
0001
1000
0001
0000
1000
0100
1000
0000
,
0001
1000
0001
0000
0100
0001
0100
0000
0001
1000
0001
0000
1000
0010
1000
0000
,
0001
0010
0001
0000
1000
0100
1000
0000
0001
0100
0001
0000
1000
0010
1000
0000
,
0001
0010
0001
0000
1000
0001
1000
0000
0010
0100
0010
0000
1000
0001
1000
0000
,
0001
0010
0001
0000
1000
0001
1000
0000
0100
1000
0100
0000
1000
0001
1000
0000
,
0001
0100
0001
0000
0100
0010
0100
0000
0010
1000
0010
0000
1000
0001
1000
0000
,
0001
0010
0001
0000
0010
0100
0010
0000
0100
1000
0100
0000
1000
0001
1000
0000
,
0010
0000
0100
0000
0001
0100
0010
1000
0001
0010
0100
1000
0100
0010
0001
0000
,
1000
0000
0010
0000
0100
0000
0001
0000
1000
0010
1000
0001
0100
0010
0100
0000
,
0001
0000
1000
0000
0100
0000
0010
0000
0001
0010
0100
1000
0100
0010
0001
0000
,
0010
0000
0001
0000
2002
0000
3003
0000
0001
0100
0001
0100
0001
0100
0001
0100
,
0001
0000
1001
0000
1000
0100
0010
0001
,
0010
0100
1000
0100
0010
0001
0010
0000
0001
0000
1000
0000
0010
0000
0100
0000
,
0010
1000
0010
0100
0001
0100
0010
0000
1000
0000
0001
0000
0010
0000
0100
0000
,
1000
0100
1000
0100
4000
0000
0000
0000
3001
0000
0100
0000
0010
0000
0000
0000
,
0101
0010
1000
0000
;

//---------------dance-single - NIQ9----------------
#NOTES:
     dance-single:
     NIQ9:
     Medium:
     8:
     0.377,0.541,0.032,0.021,0.085,484.000,6.000,4.000,0.000,0.000:
0000
0000
0000
0000
,
0001
0000
0010
0000
,
0001
0000
0000
0000
,
0000
1000
0000
1000
0000
0000
0000
0010
0000
0010
0000
0010
0000
0000
0000
0100
,
0000
0100
0000
0001
0000
0001
0000
1000
0000
1000
0000
0001
0000
0000
0000
0000
,
1000
0100
0010
0001
,
1000
0010
0100
0001
,
0000
1000
0000
1000
0000
0000
0000
0001
0000
0001
0000
0001
0000
0000
0000
0010
,
0000
0010
0000
0100
0000
1000
0000
0010
0000
0100
0000
0001
0000
0000
0000
0000
,
1000
0000
0001
0010
0100
0000
0000
0000
1000
0000
0000
0000
0010
0000
0000
0000
,
0100
0001
1000
0100
0010
0001
1000
0100
,
1000
0010
0100
0001
0010
0001
0100
0001
,
1000
0100
1000
0010
0100
0001
1000
0100
,
1000
0000
0010
0000
0100
0010
1000
0100
,
0010
0000
0000
0000
0001
0000
0000
0000
0100
0000
0000
0000
0010
1000
0010
1000
,
0010
0100
0000
0001
0000
0010
0000
0100
,
0000
0000
1000
0000
0000
0000
0010
0000
0000
0000
0100
0000
0001
0100
0001
0000
,
1000
0100
0010
0001
,
1000
0000
0010
0000
0100
0000
0010
1000
,
0001
0100
1000
0010
,
0100
0000
0001
0000
1000
0000
0100
0010
,
0001
1000
0100
1000
,
0010
0000
0100
0000
0001
0100
0001
0000
,
1000
0100
0010
0001
,
1000
0000
0010
0000
0100
0000
0001
1000
,
0001
1000
0100
0010
,
0001
0000
1000
0000
0010
0000
0100
0010
,
1000
0001
0010
0100
,
1000
0000
0100
0000
0010
0001
1001
0000
,
2000
0000
0000
3020
,
0000
0000
0230
0000
,
0302
0000
0000
0000
,
0003
0000
0000
0000
,
0001
0000
1000
0000
0100
1000
0010
0000
,
0100
0000
0001
0000
1000
0001
0010
0000
,
0100
0000
1000
0000
0010
0100
0001
0000
,
1000
0001
1000
0001
1000
0000
0001
0000
,
0010
0000
0100
1000
0010
1000
0001
0000
,
0100
0000
0001
1000
0010
1000
0001
0000
,
0100
0000
0001
1000
0100
0010
0001
0000
,
1000
0100
1000
0010
,
0100
0010
1000
0001
0100
0000
0001
0000
,
1000
0100
0010
0000
0001
1000
0110
0000
,
0100
0000
0001
0000
1000
0100
0010
0000
,
0001
1000
0100
0000
1000
0000
0001
0000
,
0100
0001
1000
0100
,
0010
0001
0100
0000
0001
1000
0100
0000
,
1000
0010
0100
0001
,
1000
0100
1000
0000
0001
0100
0001
0000
,
1000
0100
0010
0001
1000
0100
1000
0000
,
0010
0100
0001
1000
,
0001
0010
0100
1000
0001
1000
0001
0000
,
1000
0110
0100
0001
,
1000
0100
0010
0001
1000
0100
0010
0000
,
0001
1000
0010
0100
,
0001
0100
0001
1000
0100
0000
1000
0000
,
0001
0100
0001
0000
1000
0100
1000
0000
,
0001
0010
0100
1000
,
0010
0100
0001
1000
,
0100
0010
0001
0000
1000
0000
0010
0000
,
0100
0010
1000
0000
0001
0000
0010
0000
,
0100
1000
0010
1000
,
0001
0100
0001
1000
,
0001
0010
0001
0000
1000
0100
1000
0000
,
0010
0010
0100
0100
,
1001
0000
0000
0001
,
0010
0100
0000
1000
,
0010
0100
0000
0001
,
0000
1000
0000
0100
,
0010
0001
0000
1000
,
0100
1000
0000
0010
,
1000
0010
0100
0010
,
1000
0010
0100
0010
,
1000
0001
0000
0010
,
0100
1000
0000
0010
,
0100
0001
0000
1000
,
0100
0010
0000
0001
,
0010
0100
0000
1000
,
0010
0100
0000
0001
,
1000
0100
0000
0100
,
0000
0100
0000
0100
,
0010
0001
1000
0100
1000
0001
0100
0001
,
1000
0010
1000
0001
0100
0001
0010
0001
,
1000
0100
1000
0001
1000
0001
0010
0001
,
0100
0001
1000
0100
1000
0010
0100
0001
,
1000
0001
0010
0001
1000
0100
1000
0001
,
0100
0001
1000
0010
1000
0001
0100
0001
,
1000
0100
0010
0001
1000
0100
0010
0001
,
1000
1001
0001
1001
1000
0100
0010
0001
,
1000
0100
0010
0001
1000
0010
0100
0001
,
1000
0010
0100
0001
1000
0001
1000
0001
,
0010
0000
0001
0000
0010
0000
0001
0000
1000
0001
1000
0001
1000
0001
1000
0001
,
1000
0000
0001
0000
0010
0001
1000
0100
,
0010
0001
1000
0100
1000
0010
1000
0001
,
1000
0010
1000
0001
0100
0001
1000
0001
,
0100
0001
1000
0001
1000
0000
0100
0000
,
0010
0000
0001
1000
1000
0000
0000
0000
;

//---------------dance-single - NIQ9----------------
#NOTES:
     dance-single:
     NIQ9:
     Easy:
     7:
     0.303,0.463,0.021,0.144,0.000,367.000,4.000,27.000,0.000,0.000:
0000
0000
0000
0000
,
2000
0000
3020
0000
,
0230
0000
0000
0000
,
0302
0000
0023
0000
,
0230
0000
0000
0000
,
2300
0000
3020
0000
,
0230
0000
0000
0000
,
0302
0000
2003
0000
,
3200
0000
2300
0000
,
3001
0010
0000
0000
0100
0000
1000
0000
,
0010
0100
0000
0010
1000
0001
0000
0000
,
0010
0001
0000
0000
1000
0100
0000
0000
,
1000
0010
0000
0000
0100
0001
0000
0000
,
1000
0100
1000
0100
0010
0001
0010
0001
,
1000
0010
1000
0010
0100
0001
1000
1001
,
0001
0010
0100
1000
0100
0010
0001
1000
,
0010
0100
0001
1000
0100
1000
1001
1001
,
0001
0100
0001
1000
,
0100
0010
0001
1000
,
1000
0001
0100
0001
,
1000
0100
0010
0001
,
0001
1000
0100
1000
,
0010
0100
0001
1000
,
1000
0100
0010
0001
,
1000
0100
0010
0001
,
1000
0010
1000
0001
,
0100
0001
1000
0100
,
0100
0010
0001
1000
,
0010
0000
0100
0000
0001
1000
0001
0000
,
1000
0000
0000
0100
,
0000
0000
0010
0000
,
0001
0000
0000
0000
,
0000
1000
0100
1000
,
0010
0010
0100
0100
,
0001
0001
1000
1000
,
0100
0100
0010
0010
,
0001
1000
0001
1000
,
0010
0010
0100
0100
,
0001
0001
0010
0010
,
0100
0100
1000
1000
,
0001
1000
0001
0100
,
0001
0001
0010
0010
,
0100
0100
1000
1000
,
0010
0010
0100
0100
,
0001
0100
0001
0000
1000
0000
0100
0000
,
0010
0010
0001
0001
,
1000
1000
0100
0100
,
0010
0001
0100
1000
,
0010
0001
1000
0001
,
1000
0100
1000
0000
0001
0000
0100
0000
,
0001
0010
0001
1000
,
0100
0010
0001
0000
1000
0000
0010
0000
,
0100
0010
1000
0001
,
0010
0001
1000
0000
0100
0000
1000
0000
,
0010
0100
0001
0010
,
0001
1000
0100
0000
1000
0000
0001
0000
,
0100
0100
0010
0010
,
1000
0001
0010
0001
1000
0000
0100
0000
,
1000
0010
0100
0001
,
0010
0100
1000
0100
,
0010
0001
1000
0010
,
0100
0010
1000
0001
0100
0000
0001
0000
,
1000
0100
0010
0001
,
1000
1000
0100
0100
,
0010
0001
1000
0100
,
2000
0000
0000
0000
,
3020
0000
0000
0000
,
0230
0000
0000
0000
,
0000
0000
0000
0000
,
0302
0000
0000
0000
,
2003
0000
0000
0000
,
3200
0000
0000
0000
,
0000
0000
0000
0000
,
0320
0000
0000
0000
,
0032
0000
0000
0000
,
2003
0000
0000
0000
,
0000
0000
0000
0000
,
3020
0000
0000
0000
,
0230
0000
0000
0000
,
0320
0000
0000
0000
,
0000
0000
0000
0000
,
1030
0100
0001
0100
1000
0010
0100
0010
,
0100
1000
0100
0010
1000
0100
0010
0001
,
0010
0100
0010
0001
0100
0010
1000
0100
,
0010
0001
1000
0100
0001
0100
1000
0000
,
0001
1000
0001
0100
1000
0100
0001
0000
,
1000
0010
1000
0001
0010
1000
0010
0000
,
0001
1000
0001
0000
1000
0100
1000
0000
,
0002
0003
2000
3000
0001
1000
0001
1000
,
0100
0000
1000
0000
0010
1000
0010
1000
,
0001
0000
0100
0000
0001
1000
0001
1000
,
0100
1000
0001
0100
,
1000
0000
0010
0000
0001
1000
0001
1000
,
0001
0000
1000
0000
0100
1000
0100
1000
,
0100
0000
1000
0000
0010
0100
0010
0100
,
0001
0100
0001
0100
0010
0000
1000
0000
,
0001
0010
1100
0000
;

//---------------dance-single - NIQ9----------------
#NOTES:
     dance-single:
     NIQ9:
     Beginner:
     1:
     0.135,0.231,0.005,0.000,0.000,176.000,1.000,0.000,0.000,0.000:
0000
0000
0000
0000
,
0000
0000
0000
0000
,
0000
0000
0000
0000
,
0000
0000
0000
0000
,
0000
0000
0000
0000
,
1000
0000
0010
0000
,
0100
0000
0000
0000
,
0010
0000
1000
0000
,
0001
0000
0010
0000
,
0100
1000
0010
0100
,
0001
0000
0000
1000
,
0000
0000
0000
0100
,
0010
0001
0000
0000
,
1000
0010
0100
0010
,
1000
0001
0010
0100
,
0100
1000
0010
0100
,
0010
1000
0001
0010
,
0010
0000
0000
0000
,
0001
0000
0000
1000
,
1000
0000
0000
0000
,
0010
0000
0000
0100
,
0100
0000
0000
0000
,
0010
0000
0000
0000
,
1000
0000
0000
0000
,
0001
0000
0000
0000
,
0010
0000
0000
0000
,
0100
0000
0000
1000
,
1000
0000
0000
0000
,
0001
0000
0000
1001
,
0000
0000
0000
1000
,
0000
0000
0010
0000
,
0100
0000
0000
0000
,
0000
0001
0001
0001
,
1000
0000
0100
0000
,
0010
0000
0001
0000
,
1000
0000
0010
0000
,
0100
0100
0000
0000
,
0010
0000
1000
0000
,
0001
0000
0010
0000
,
0001
0000
1000
0000
,
0010
0000
0000
0000
,
0100
0000
0100
0000
,
0010
0000
0010
0000
,
1000
0000
1000
0000
,
0001
0000
0001
0000
,
0010
0000
0010
0000
,
0100
0000
0100
0000
,
1000
0000
0000
0000
,
0010
0000
0000
0000
,
0100
0100
0000
0000
,
0000
0000
0000
0000
,
0010
0010
0000
0000
,
0000
0000
0000
0000
,
1000
1000
0000
0000
,
0000
0000
0000
0000
,
0001
0001
0000
0000
,
1000
0000
0100
0000
,
0010
0010
0010
0000
,
0001
0001
0001
0000
,
1000
1000
1000
0000
,
0010
0010
0010
0000
,
0100
0100
0100
0100
,
0100
0100
0100
0000
,
0001
0001
0001
0001
,
0001
0001
0001
0001
,
1000
0000
0000
0000
,
0000
0000
0000
0000
,
0010
0000
0000
0000
,
0000
0000
0000
0000
,
0100
0000
0000
0000
,
0010
0000
0000
0000
,
1000
0000
0000
0000
,
0000
0000
0000
0000
,
0001
0000
0000
0000
,
0010
0000
0000
0000
,
0100
0000
0000
0000
,
1000
0000
0000
0000
,
0001
0000
0000
0000
,
0010
0000
0000
0000
,
0001
0000
0000
0000
,
0000
0000
0000
0000
,
1000
1000
1000
1000
,
1000
1000
1000
1000
,
1000
1000
1000
1000
,
1000
1000
1000
0000
,
0001
0001
0001
0001
,
0001
0001
0001
0001
,
0001
0001
0001
0001
,
0001
0000
1000
0000
,
1000
0000
0100
0000
,
0100
0000
0010
0000
,
0010
0000
0001
0000
,
0001
0000
1000
0000
,
1000
0000
0010
0000
,
0010
0000
0100
0000
,
0100
0000
0010
0000
,
1000
0000
0000
0000
;
