#TITLE:Salieri Strikes Back;
#SUBTITLE:;
#ARTIST:Warmen;
#TITLETRANSLIT:;
#SUBTITLETRANSLIT:;
#ARTISTTRANSLIT:;
#CREDIT:DukAmok;
#BANNER:Salieri_Strikes_Back.png;
#BACKGROUND:Salieri_Strikes_Back-bg.png;
#LYRICSPATH:;
#CDTITLE:!duktitle.png;
#MUSIC:Salieri_Strikes_Back.mp3;
#OFFSET:0.820;
#SAMPLESTART:31.980;
#SAMPLELENGTH:12.000;
#SELECTABLE:YES;
#BPMS:0.000=241.250,1230.000=230.000,1231.000=220.000,1232.000=210.000,1233.000=200.000,1236.000=210.000,1241.000=200.000,1250.000=195.000,1255.000=140.000;
#STOPS:;
#BGCHANGES:;
// cache tags:
#FIRSTBEAT:4.000;
#LASTBEAT:1257.000;
#SONGFILENAME:Songs/IzzySM Keyboard Mega Pack/Salieri_Strikes_Back/Salieri_Strikes_Back.sm;
#HASMUSIC:1;
#HASBANNER:1;
#MUSICLENGTH:319.145;
// end cache tags

//---------------dance-single - Heavy----------------
#NOTES:
     dance-single:
     Heavy:
     Hard:
     11:
     1.000,1.000,0.504,0.169,0.588,2305.000,161.000,54.000,0.000,0.000:
0000
0000
0000
0000
,
1100
0000
0010
0001
1000
0000
1010
0000
,
1100
0110
0011
0110
,
1010
0000
0100
0010
1000
0000
1100
0000
,
1001
0101
0011
1100
,
1010
0000
0010
0100
0010
0000
1010
0000
,
1100
0101
0011
1001
,
0110
0000
1000
0001
0010
0000
1100
0000
,
0001
0100
0010
1000
0100
0010
0001
1000
,
0011
0000
0100
1000
0001
0000
0101
0000
,
0011
0110
1100
0110
,
0101
0000
0010
0100
0001
0000
0011
0000
,
1001
0100
0010
0100
0010
0100
0010
1000
,
0101
0000
0100
0010
0100
0000
0001
1000
,
0100
1000
0001
0100
0010
1000
0100
1000
,
0110
0000
0001
1000
0100
0000
0011
0000
,
1000
0010
0100
0001
0010
0100
1000
0001
,
0100
0010
1000
0010
0100
0010
0001
0010
,
1000
0010
0100
0010
1000
0010
0001
0010
,
1000
0001
0100
0001
0010
0001
0100
0001
,
1000
0001
0100
0001
0010
0001
0100
0010
,
1000
0100
0010
0100
1000
0100
0001
0100
,
1000
0100
0010
0100
1000
0100
0001
0100
,
1000
0010
0100
0010
1000
0010
0001
0010
,
1000
0001
0100
0010
0010
1000
0100
0010
,
0001
0100
0001
0100
0010
0100
1000
0100
,
0001
0100
0010
0100
0001
0100
1000
0100
,
0001
1000
0010
1000
0100
1000
0010
1000
,
0001
1000
0010
1000
0100
1000
0010
0100
,
0001
0010
0100
0010
0001
0010
1000
0010
,
0001
0010
0100
0010
0001
0010
1000
0010
,
0001
0100
0010
0100
0001
0100
1000
0100
,
0001
0010
0100
1000
1000
0010
0100
0001
,
1000
0000
0001
1000
0010
1000
0001
1000
,
0010
0100
0001
0100
0010
0100
0001
0100
,
0010
0000
0000
0000
1000
0100
0010
0000
0001
0000
0100
0000
0010
0100
0001
0000
,
0100
0000
0010
0000
1000
0010
0100
0000
0020
0000
0000
0000
0000
0000
0030
0000
,
0010
0000
0000
0000
0100
0001
0010
0000
0100
0000
0010
0100
0010
0000
0001
0000
,
0010
0001
1000
0010
0100
0010
1000
0100
0010
0001
0000
0000
,
0010
0000
0000
0000
0100
1000
0100
0000
1000
0100
1000
0000
0100
0010
0100
0000
,
0010
0001
0010
0001
0010
0001
0010
0001
0020
0000
0000
0000
0030
0000
0000
0000
,
1100
0000
0001
0100
0001
0010
0001
0100
,
0010
1000
0010
0100
0010
1000
0010
0100
,
0001
1000
0100
0010
0001
1000
0010
0100
,
0010
1000
0100
1000
0010
1000
0100
0010
,
0100
0000
0000
0000
0000
0000
0000
0000
0000
0000
0000
0000
0000
0000
0000
0000
0000
0000
0100
0000
0000
0010
0000
0000
0100
0000
0000
0000
1000
0000
0000
0000
0001
0000
0000
0000
0100
0000
0000
0000
0000
0000
0010
0000
0000
0000
0000
0000
,
0001
0100
0001
0000
1000
0100
1000
0000
0100
0010
0100
0000
0010
0001
0100
0000
,
0010
1000
0100
0000
0010
0100
0010
0000
0100
1000
0100
0000
0010
0001
0010
0000
,
0001
0010
0100
1000
0010
0100
0010
1000
,
0100
1000
0001
0100
0010
0100
0001
0100
,
0010
1000
0100
1000
0010
1000
0100
0010
,
0100
1000
0100
0010
0100
0010
0001
0100
,
0010
1000
0010
0100
0010
1000
0100
0010
,
0001
0010
0100
0010
0001
1000
0100
0010
,
0100
1000
0001
0100
0010
0100
0001
1000
,
0001
1000
0100
0010
0100
1000
0001
1000
,
0001
0100
0010
0100
0001
0010
0100
1000
,
0110
0001
1000
0010
0100
0010
1000
0010
,
0100
0001
0010
0001
0100
0001
0010
0100
,
0010
0001
0010
0100
0010
0100
1000
0010
,
0100
0001
0100
0010
0100
0001
0010
0100
,
1000
0100
0010
0100
1000
0001
0010
0100
,
0010
0001
1000
0010
0100
0010
1000
0001
,
1000
0001
0010
0100
0010
0001
1000
0001
,
1000
0010
0100
0010
1000
0100
0010
0001
,
1100
0000
0010
0001
1000
0000
1010
0000
,
1100
0110
0011
0110
,
1010
0000
0100
0010
1000
0000
1100
0000
,
1001
0010
0100
0010
0100
0010
0100
0001
,
1010
0000
0010
0100
0010
0000
1000
0001
,
0010
0001
1000
0010
0100
0001
0010
0001
,
0110
0000
1000
0001
0010
0000
1100
0000
,
0001
0100
0010
1000
0100
0010
0001
1000
,
0010
0100
0001
0100
0010
0100
1000
0100
,
0001
0100
0010
0100
0001
0100
1000
0100
,
0001
1000
0010
1000
0100
1000
0010
1000
,
0001
1000
0010
1000
0100
1000
0010
0100
,
0001
0010
0100
0010
0001
0010
1000
0010
,
0001
0010
0100
0010
0001
0010
1000
0010
,
0001
0100
0010
0100
0001
0100
1000
0100
,
0001
1000
0010
0100
0100
0001
0010
0100
,
2000
0000
0000
0000
0000
3000
0100
0010
,
0100
1000
0002
0000
0000
0003
0100
0010
,
2000
0000
0000
3002
0000
0003
0100
0010
,
2000
0000
0000
0000
0000
0000
3000
0100
,
0010
0001
0010
1000
0010
0001
0100
1000
,
0100
0001
0100
0010
1000
0100
0010
0100
,
0000
0000
1000
0000
0000
0000
0001
0000
0100
0010
0100
0000
0001
0000
1000
0000
,
0200
0000
0300
0000
,
1000
0100
0010
1000
0100
0010
0001
0100
,
0010
0100
0001
1000
0010
0100
0001
0010
,
0200
0000
0300
2000
0000
3000
0002
0000
,
0003
0000
0000
0000
0100
0000
0010
1000
,
0200
0000
0300
0000
2000
3000
0002
0000
,
0000
0003
1000
0010
0200
0000
0000
0300
,
0001
1000
0100
0010
1100
0000
0001
0100
,
0010
1000
0100
0010
0100
1000
0001
0100
,
0010
1000
0010
1000
0100
1000
0100
1000
,
0100
0010
0100
0010
0100
0010
0100
0010
,
0001
0010
0001
0010
0001
0100
0001
0100
,
0010
0100
0010
0100
0010
0100
0010
0100
,
0010
1000
0010
1000
0100
1000
0100
1000
,
0100
0010
0100
0010
0100
0010
0100
0010
,
0001
1000
0001
1000
0010
1000
0010
1000
,
0001
0100
0010
1000
0001
0010
0100
1000
,
0110
0001
0100
0001
1010
0001
0010
0001
,
1010
0100
0010
0100
0010
0100
0010
0100
,
1001
0100
1000
0100
1001
0010
1000
0010
,
1100
0010
0100
0010
0100
0010
0100
0010
,
1100
0001
0100
0001
1010
0001
0010
0001
,
1010
0100
0010
0100
0010
0100
0010
0100
,
1010
0001
1000
0001
1100
0001
0100
0001
,
1100
0010
0100
0001
1000
0100
0010
0001
,
1000
0100
0010
0001
0100
0010
1000
0100
0010
0001
0100
0010
,
1000
0010
0100
0001
0010
0100
1000
0010
0100
0001
0010
0100
,
1000
0100
1000
0001
0010
0001
1000
0100
1000
0001
0010
0001
,
0100
0001
0100
0010
1000
0010
0100
0001
0100
0010
1000
0010
,
0100
0010
0100
0001
1000
0001
0100
0010
0100
0001
1000
0001
,
1000
0100
0010
0100
1000
0001
0100
0010
1000
0010
0100
0001
,
0010
0100
1000
0001
0010
0100
1000
0100
0010
0100
1000
0001
,
0100
0010
1000
0001
0100
0010
1000
0001
0100
0010
1000
0001
,
0100
0001
0010
0100
1000
0001
0010
0100
1000
0001
0010
0100
,
1000
0100
0010
0001
1000
0100
0010
0001
1000
0100
0010
0001
,
0100
0001
1000
0010
0100
0001
1000
0100
1000
0001
0100
0010
,
1000
0100
0010
0100
1000
0001
0010
0100
0010
0001
0100
0010
,
0100
0001
1000
0001
1000
0100
0010
0100
1000
0001
0100
0010
,
0100
0010
1000
0100
1000
0010
0100
0010
0100
0001
0100
0001
,
0010
0001
0010
0100
0010
0100
1000
0100
1000
0010
0100
0001
,
0010
0100
1000
0100
0010
0001
0010
0100
1000
0100
0010
0001
,
2000
0000
0000
0000
0000
3000
0002
0003
,
0200
0000
0000
0320
0000
0030
2000
3000
,
0002
0000
0023
0000
0130
1000
0001
0100
,
0010
1000
0100
0020
0000
0030
0100
0000
,
2000
0000
0000
0000
0000
3000
0001
0100
,
0010
1000
0100
0010
0100
1000
0001
0010
,
0100
0010
0001
1000
0010
0100
0010
1000
,
0100
0010
0100
0010
0001
0100
0010
0100
,
0020
0000
0000
0000
0000
0030
1000
0100
,
1000
0010
1000
0001
1000
0100
0010
0100
,
1000
0100
0010
0001
0100
0010
1000
0100
,
0010
0001
0010
1000
0010
0001
0100
0010
,
2000
0000
0000
0000
0000
0000
3000
0000
0001
0100
0010
0000
0100
0001
0010
0000
,
0100
1000
0100
0000
0010
0001
0010
0000
0001
0100
0010
2000
0000
3000
0000
0000
,
0002
0003
0010
0100
0010
0001
0100
0010
,
1000
0100
0010
0001
1000
0100
0010
0100
,
0010
0100
1001
0010
0100
0010
1001
0100
,
0010
0100
0011
1000
0100
0010
0101
1000
,
0001
0100
1001
0010
0100
0001
1010
0100
,
0010
0100
1001
0010
0001
0010
1001
0100
,
1001
0000
0000
0000
0000
0000
0000
0000
0000
0000
0000
0000
0000
0000
0000
0000
0001
1000
0000
0000
0000
0000
0000
0000
0000
0000
0000
0000
1010
0000
0000
0000
,
0000
0000
0011
0000
0000
1100
0000
0000
,
1001
1010
0101
0011
,
0010
0100
1000
0100
0000
0000
1000
0100
0010
0100
0000
0000
,
0011
0011
0000
1100
,
1010
0000
1001
0000
,
0110
1010
0000
0101
,
0011
1000
0100
1000
,
0000
0011
0000
0100
,
1010
0000
0000
1010
,
2002
0000
0000
0000
,
3003
0010
0100
0010
,
0002
0003
2000
0000
,
3000
0001
0100
0010
,
2000
0000
0000
0000
,
3100
0000
0000
0010
0000
0100
0000
0000
,
1000
0000
0001
1000
,
0000
0000
0001
1000
0001
0000
0100
0000
,
0010
0000
0000
0010
,
1000
0000
0000
0000
0100
0000
0000
0001
0000
0000
0100
0000
0000
0010
0000
0000
,
0200
0000
0000
0000
,
0302
0000
0000
0000
0003
0010
0100
0010
,
0002
0000
0000
1003
,
0010
0100
0010
1000
,
0200
0000
0000
0000
0300
0000
1000
0001
,
0020
0000
0030
0100
,
1000
0001
0100
0010
1000
0100
0010
0100
,
1000
0001
0100
0010
1000
0001
0010
0100
,
1000
0000
0001
0100
0010
1000
0110
0000
,
0000
0000
0000
0000
0000
0000
1000
0000
0000
0001
0000
0000
0100
0000
0001
0000
1010
0000
0000
0000
0000
0000
0000
0000
,
0000
0000
0000
0000
0000
0000
0001
0000
0000
1000
0000
0000
0100
0000
0010
0000
1001
0000
0000
0000
0000
0000
0000
0000
,
0000
0000
0000
0000
0000
0000
0000
0000
0000
0000
0000
0000
0001
0000
0000
0010
0000
0000
0100
0000
0000
0000
0000
0000
1000
0000
0000
0000
0010
0000
0000
0000
0101
0000
0000
0000
0000
0000
0000
0000
0000
0000
0000
0000
0000
0000
0000
0000
,
2010
0000
0000
0000
0000
3000
0001
0010
,
0100
0000
0000
0000
0000
0110
0000
0000
,
1100
0000
0000
0000
0000
0000
0001
0100
,
0001
1000
0001
0000
1000
0001
1000
0000
,
0010
0000
0000
0000
0000
0000
0000
0000
0100
0000
0000
0000
0001
0000
0000
0010
0000
0000
0100
0000
0000
1000
0000
0000
0100
0000
0000
0000
0000
0000
1000
0000
0000
0010
0000
0000
0100
0000
0000
0001
0000
0000
0100
0000
0000
0010
0000
0000
,
1000
0001
0100
0010
0100
0001
0010
0100
1000
0100
0010
0001
,
2000
0000
0000
3001
,
0100
0010
1000
0100
0010
0001
1000
0010
,
1000
0000
0000
0000
0001
0000
0000
0000
0010
0000
0000
0000
0100
0000
0000
1000
0000
0000
0001
0000
0000
0010
0000
0000
0100
0000
0000
0000
0010
0000
0000
0000
0001
0000
0000
0000
0100
0000
0000
0010
0000
0000
1000
0000
0000
0001
0000
0000
,
0100
0000
0000
0000
0010
0000
0000
0000
1000
0000
0000
0000
0100
0000
0000
0010
0000
0000
0001
0000
0000
1000
0000
0000
0100
0000
0000
0000
1000
0000
0000
0000
0001
0000
0000
0000
0010
0000
0000
0100
0000
0000
1000
0000
0000
0001
0000
0000
,
0020
0000
0000
0000
0130
1000
0001
0000
,
0000
0000
0000
0000
0000
0000
0000
0000
0000
0000
0000
0000
1010
0000
0000
0000
0000
0000
0000
0000
0000
0000
0000
0000
0000
0000
0000
0000
0000
0000
0000
0000
0000
0100
0000
0000
0001
0000
0000
0000
0010
0000
0000
0000
0100
0000
0000
0000
,
1000
0000
0000
0100
0000
0000
0010
0000
0000
0001
0000
0000
1000
0000
0000
0000
0100
0000
0000
0000
0010
0000
0000
0000
0100
0000
0000
1000
0000
0000
0001
0000
0000
0010
0000
0000
0100
0000
0000
0000
1000
0000
0000
0000
0010
0000
0000
0000
,
0100
0000
0000
0001
0000
0000
1000
0000
0000
0010
0000
0000
0100
0000
0000
0000
0010
0000
0000
0000
1000
0000
0000
0000
0100
0000
0000
1000
0000
0000
0001
0000
0000
0010
0000
0000
0100
0000
0000
0000
0010
0000
0000
0000
0001
0000
0000
0000
,
1000
0010
0100
0000
0001
0100
0001
0000
0100
0010
0100
0000
0010
1000
0010
0000
,
1000
0100
0010
0000
0001
0100
0001
0000
0010
0100
1000
0000
0100
0010
0001
0000
,
0200
0300
0100
0010
,
1000
0000
0011
0000
0000
0000
1000
0100
,
1001
0000
0000
0100
,
0010
1000
0100
0010
,
0100
1010
0000
0100
,
0011
0000
0100
1010
,
0000
0100
0011
0000
,
0200
0000
0000
0000
0300
0000
1000
0001
,
0200
0000
0000
0300
0001
0000
1000
0000
,
0000
0000
0000
0000
0000
0000
0100
0000
1000
0000
0001
0000
0010
0000
0000
0100
0000
0000
1000
0000
0000
0001
0000
0000
,
0100
0000
0000
0001
,
1000
0100
0010
0100
0001
0100
1000
0010
,
0100
0000
0000
0000
0000
0001
0010
0100
,
0010
0000
0000
1010
,
1100
0000
0000
0011
,
0110
0000
0000
0001
1100
0000
0000
1000
,
0001
0000
0100
0001
0010
0100
0010
0001
0100
0010
1000
0100
,
0010
0001
0100
0010
1000
0010
0100
0001
0010
0001
0100
0010
,
1000
1000
0000
0001
0011
0000
0000
0100
,
1010
1000
0100
0010
1001
0001
0100
0010
,
2000
0000
0000
0000
0000
3000
2000
3000
,
2000
0000
3001
0010
0100
0010
0001
0100
,
0020
0000
0030
0000
1000
0100
0010
0000
0001
0010
0100
0000
0000
0000
0000
0000
,
0001
1000
0010
0000
1000
0100
0010
0001
1000
0000
0100
0000
0010
0100
1000
0000
,
0020
0000
0000
0000
0030
0000
0000
1000
0000
0100
1000
0010
0100
0001
0000
0100
,
0000
0000
0010
0000
0000
0000
2000
0000
0000
0000
0000
0000
3000
0000
0000
0000
0000
0000
0010
0000
0000
0000
0000
0000
1000
0000
0000
0010
0000
0000
1000
0000
0000
0000
0000
0000
0010
0000
0000
0100
0000
0000
0001
0000
0000
0000
0000
0000
,
1000
0100
1000
0000
0100
0010
0001
0000
0100
0010
0100
0000
0010
1000
0100
0000
,
0010
0100
1000
0000
0010
0100
0010
0000
0200
0000
0000
0000
0300
0000
0010
1000
,
0200
0000
0000
0000
0300
0000
0000
0000
1000
0100
0010
0000
0001
0010
0001
0100
,
0000
0000
0000
0010
0000
0000
0000
0000
0000
0000
0000
0000
0000
0000
0000
0000
0000
0000
0100
0000
0000
0010
0000
0000
1000
0000
0000
0000
0000
0000
0010
0000
0000
0000
0000
0000
0100
0000
0000
0000
0001
0000
0000
0000
0010
0000
0000
0000
,
0100
0000
0000
0000
1000
0000
0000
0000
0010
0000
0000
0000
0100
0000
0000
0001
0000
0000
0020
0000
0000
0000
0000
0000
0030
0000
0000
0000
0000
0000
0100
0000
0000
1000
0000
0000
0010
0000
0000
0100
0000
0000
0000
0000
0000
0001
0000
0000
,
0000
0000
1000
0100
0010
0100
0000
0010
0000
0000
0100
1000
0001
0000
1000
0010
,
0200
0000
0000
0000
0300
0000
0010
0000
0001
0100
0010
0000
1000
0010
0100
0000
,
0001
0100
0001
0000
0010
0100
0010
0000
0100
1000
0100
0000
0010
0001
0010
0000
,
0001
0000
0000
0000
0010
0000
0000
0000
0001
0000
0000
0000
0100
0000
0000
0001
0000
0000
0100
0000
0000
0000
0000
0000
0010
0000
0000
1000
0000
0000
0010
0000
0000
0000
0000
0000
0100
0000
0000
1000
0000
0000
0100
0000
0000
0000
0000
0000
,
0010
0000
0000
0001
0000
0000
0100
0000
0000
0000
0000
0000
0010
0000
0000
1000
0000
0000
0001
0000
0000
0000
0000
0000
1000
0000
0000
0001
0000
0000
0010
0000
0000
0000
0000
0000
0100
0000
0000
0000
1000
0000
0000
0000
0001
0000
0000
0000
,
1000
0001
1000
0000
0001
1000
0001
0000
1000
0001
1000
0000
0001
1000
0001
0000
,
1000
0001
1000
0000
0001
1000
0001
0000
1000
0001
1000
0000
0001
1000
0001
0000
,
0100
0001
0100
0000
0001
0100
0001
0000
0100
0001
0100
0000
0001
0100
0001
0000
,
0100
0001
0100
0000
0001
0100
0001
0000
0100
0001
0100
0000
0001
0100
0001
0000
,
0100
0010
0100
0000
0010
0100
0010
0000
0100
0010
0100
0000
0010
0100
0010
0000
,
0100
0010
0100
0000
0010
0100
0010
0000
0100
0010
0100
0000
0010
0100
0010
0000
,
1000
0010
1000
0000
0010
1000
0010
0000
1000
0010
1000
0000
0010
1000
0010
0000
,
1000
0010
1000
0000
0010
1000
0010
0000
1000
0010
1000
0000
0010
1000
0010
0000
,
1000
0100
0010
0000
0001
0100
0010
0000
1000
0100
0010
0000
0001
0100
0010
0000
,
1000
0100
0010
0000
0001
0100
0010
0000
1000
0100
0010
0000
0001
0100
0010
0000
,
0100
0001
0010
0000
0100
1000
0010
0000
0100
0001
0010
0000
0100
1000
0010
0000
,
0100
0001
0010
0000
0100
1000
0010
0000
0100
0001
0010
0000
0100
1000
0010
0000
,
0100
0001
1000
0000
0100
1000
0001
0000
0100
0001
1000
0000
0100
1000
0001
0000
,
0100
0001
0010
0000
0001
1000
0010
0000
1000
0001
0010
0000
0001
1000
0010
0000
,
1000
0001
0010
0000
0001
0100
0010
0000
1000
0010
1000
0000
0010
0100
0010
0000
,
0100
0001
0100
0000
0001
0010
0001
0000
0010
0100
0010
0000
0100
1000
0100
0000
,
1001
0000
0010
0001
1000
0000
1010
0000
,
1100
0110
0011
0110
,
1010
0000
0100
0010
1000
0000
1100
0000
,
1001
0010
0100
0010
0100
0010
0100
0001
,
1010
0000
0010
0100
0010
0000
1000
0001
,
0010
0001
1000
0010
0100
0001
0010
0001
,
0110
0000
1000
0001
0010
0000
1100
0000
,
0001
0100
0010
1000
0100
0010
0001
1000
,
0010
0100
0001
0100
0010
0100
1000
0100
,
0001
0100
0010
0100
0001
0100
1000
0100
,
0001
1000
0010
1000
0100
1000
0010
1000
,
0001
1000
0010
1000
0100
1000
0010
0100
,
0001
0010
0100
0010
0001
0010
1000
0010
,
0001
0010
0100
0010
0001
0010
1000
0010
,
0001
0100
0010
0100
0001
0100
1000
0100
,
0001
1000
0010
0100
0100
0001
0010
0100
,
1000
0010
1000
0010
0100
0010
0001
0010
,
1000
0010
0100
0010
1000
0010
0001
0010
,
1000
0001
0100
0001
0010
0001
0100
0001
,
1000
0001
0100
0001
0010
0001
0100
0010
,
1000
0100
0010
0100
1000
0100
0001
0100
,
1000
0100
0010
0100
1000
0100
0001
0100
,
1000
0010
0100
0010
1000
0010
0001
0010
,
1000
0100
0010
0001
0001
0100
0010
1000
,
0001
0010
0001
0010
0100
0010
0100
0010
,
0100
1000
0100
1000
0100
1000
0100
1000
,
0010
1000
0010
1000
0001
1000
0001
1000
,
0001
0100
0001
0100
0001
0100
0001
0100
,
0010
0100
0010
0100
0010
1000
0010
1000
,
0100
1000
0100
1000
0100
1000
0100
1000
,
0100
0010
0100
0010
0001
1000
0001
1000
,
0010
1000
0010
1000
0010
1000
0010
1000
,
0101
0010
0001
0010
0101
0010
0100
0010
,
0101
1000
0100
1000
0100
1000
0100
1000
,
0011
1000
0010
1000
0101
1000
0001
1000
,
0011
0100
0001
0100
0001
0100
0001
0100
,
1010
0100
0010
0100
0011
1000
0010
1000
,
0101
1000
0100
1000
0100
1000
0100
1000
,
0101
0010
0100
0010
0101
1000
0001
1000
,
0011
1000
0010
1000
0010
1000
0010
1000
,
0001
0010
0100
0010
0001
0100
0010
1000
,
0100
0010
0100
1000
0010
0100
0010
1000
,
0100
0010
0001
0100
0010
1000
0001
0100
,
0001
0100
0010
0100
0010
1000
0100
0010
,
0100
1000
0010
0100
0010
0100
0001
0010
,
0100
0010
0001
0100
1000
0100
0001
0010
,
0100
1000
0100
0010
0001
1000
0100
1000
,
0010
0100
0001
0010
1000
0010
0001
0100
,
1001
0100
1010
0100
1000
0010
1100
0001
,
0010
0100
1010
0001
0100
0010
1100
0001
,
0010
0100
1001
0010
0100
0001
1100
0010
,
1000
0010
0101
0010
0100
0001
1010
0100
,
0010
0001
1100
0010
0100
0010
1001
0100
,
0010
0100
1001
0010
0001
0010
1001
0100
,
0010
0001
0010
0001
0100
0010
1000
0100
,
0010
0100
1000
0001
0100
0010
1000
0100
,
0110
0000
0001
1000
0010
0000
0011
0000
,
0110
0101
1001
0101
,
0011
0000
0100
0001
0010
0000
0110
0000
,
1010
1100
1001
0110
,
0011
1000
0001
0100
0010
1000
0100
0010
,
0001
0100
0010
0100
0001
0010
0100
1000
,
0100
1000
0010
1000
0001
0010
0100
1000
,
0001
0100
0010
0100
0010
0100
0010
0100
0010
0000
0000
0000
0000
0000
0000
0000
,
0000
0000
1000
0001
,
1001
0010
0100
0000
0000
0000
0000
0000
;

//---------------dance-single - Challenge----------------
#NOTES:
     dance-single:
     Challenge:
     Challenge:
     13:
     1.000,1.000,0.504,0.172,0.796,2439.000,161.000,55.000,0.000,0.000:
0000
0000
0000
0000
,
0011
0000
0100
1000
0001
0000
0101
0000
,
0011
0110
1100
0110
,
0101
0000
0010
0100
0001
0000
0011
0000
,
1001
1010
1100
0011
,
0101
0000
0100
0010
0100
0000
0101
0000
,
0011
1010
1100
1001
,
0110
0000
0001
1000
0100
0000
0011
0000
,
1000
0010
0100
0001
0010
0100
1000
0001
,
1100
0000
0010
0001
1000
0000
1010
0000
,
1100
0110
0011
0110
,
1010
0000
0100
0010
1000
0000
1100
0000
,
1001
0010
0100
0010
0100
0010
0100
0001
,
1010
0000
0010
0100
0010
0000
1000
0001
,
0010
0001
1000
0010
0100
0001
0010
0001
,
0110
0000
1000
0001
0010
0000
1100
0000
,
0001
0100
0010
1000
0100
0010
0001
1000
,
0010
0100
0001
0100
0010
0100
1000
0100
,
0001
0100
0010
0100
0001
0100
1000
0100
,
0001
1000
0010
1000
0100
1000
0010
1000
,
0001
1000
0010
1000
0100
1000
0010
0100
,
0001
0010
0100
0010
0001
0010
1000
0010
,
0001
0010
0100
0010
0001
0010
1000
0010
,
0001
0100
0010
0100
0001
0100
1000
0100
,
0001
1000
0010
0100
0100
0001
0010
0100
,
1000
0010
1000
0010
0100
0010
0001
0010
,
1000
0010
0100
0010
1000
0010
0001
0010
,
1000
0001
0100
0001
0010
0001
0100
0001
,
1000
0001
0100
0001
0010
0001
0100
0010
,
1000
0100
0010
0100
1000
0100
0001
0100
,
1000
0100
0010
0100
1000
0100
0001
0100
,
1000
0010
0100
0010
1000
0010
0001
0010
,
1000
0100
0010
0001
0001
0100
0010
1000
,
0001
0000
1000
0001
0100
0001
1000
0001
,
0100
0010
1000
0010
0100
0010
1000
0010
,
0100
0000
0000
0000
0001
0010
0100
1000
0001
0100
0010
0100
0001
0010
0100
1000
,
0001
1000
0010
0100
0001
0100
0010
1000
0200
0000
0000
0000
0000
0000
0300
0000
,
0010
0000
0000
0000
0001
0100
0010
1000
0100
0010
0001
0010
0001
1000
0100
0010
,
0100
1000
0001
0100
0010
0100
0001
0010
0100
1000
0000
0000
,
0100
0000
0000
0000
0010
0001
1000
0001
0100
0010
1000
0010
0100
0001
1000
0001
,
0100
0000
0000
0010
0000
0000
1000
0000
0000
0001
0000
0000
0100
0000
0000
0001
0000
0000
0010
0000
0001
0000
1000
0000
0200
0000
0000
0000
0000
0000
0000
0000
0000
0000
0000
0000
0300
0000
0000
0000
0000
0000
0000
0000
0000
0000
0000
0000
,
0011
0000
1000
0010
1000
0100
1000
0010
,
0100
0001
0100
0010
0100
0001
0100
0010
,
1000
0001
0010
0100
1000
0001
0100
0010
,
0100
0001
0010
0001
0100
0001
0010
0100
,
0010
0000
0000
0000
0000
0000
0000
0000
0000
0000
0000
0000
0000
0000
0000
0001
0000
0000
0010
0000
0000
0100
0000
0000
0010
0000
0000
0000
0001
0000
0000
0000
1000
0000
0000
0000
0010
0000
0000
0000
0000
0000
0100
0000
0000
0001
0000
0000
,
0100
0010
1000
0100
0010
0001
1000
0001
0100
0010
1000
0001
0100
0010
1000
0100
,
0010
0100
1000
0010
0100
0001
0010
0100
0010
0001
1000
0100
0010
0001
0010
0100
,
1000
0100
0010
0001
0100
0010
0100
0001
,
0010
0001
1000
0010
0100
0010
1000
0010
,
0100
0001
0010
0001
0100
0001
0010
0100
,
0010
0001
0010
0100
0010
0100
1000
0010
,
0100
0001
0100
0010
0100
0001
0010
0100
,
1000
0100
0010
0100
1000
0001
0010
0100
,
0010
0001
1000
0010
0100
0010
1000
0001
,
1000
0001
0010
0100
0010
0001
1000
0001
,
1000
0010
0100
0010
1000
0100
0010
0001
,
0110
1000
0001
0100
0010
0100
0001
0100
,
0010
1000
0100
1000
0010
1000
0100
0010
,
0100
1000
0100
0010
0100
0010
0001
0100
,
0010
1000
0010
0100
0010
1000
0100
0010
,
0001
0010
0100
0010
0001
1000
0100
0010
,
0100
1000
0001
0100
0010
0100
0001
1000
,
0001
1000
0100
0010
0100
1000
0001
1000
,
0001
0100
0010
0100
0001
0010
0100
1000
,
0011
0000
0100
1000
0001
0000
0101
0000
,
0011
0110
1100
0110
,
0101
0000
0010
0100
0001
0000
0011
0000
,
1001
0100
0010
0100
0010
0100
0010
1000
,
0101
0000
0100
0010
0100
0000
0001
1000
,
0100
1000
0001
0100
0010
1000
0100
1000
,
0110
0000
0001
1000
0100
0000
0011
0000
,
1000
0010
0100
0001
0010
0100
1000
0001
,
0100
0010
1000
0010
0100
0010
0001
0010
,
1000
0010
0100
0010
1000
0010
0001
0010
,
1000
0001
0100
0001
0010
0001
0100
0001
,
1000
0001
0100
0001
0010
0001
0100
0010
,
1000
0100
0010
0100
1000
0100
0001
0100
,
1000
0100
0010
0100
1000
0100
0001
0100
,
1000
0010
0100
0010
1000
0010
0001
0010
,
1000
0001
0100
0010
0010
1000
0100
0010
,
0002
0000
0000
0000
0000
0003
0010
0100
,
0010
0001
2000
0000
0000
3000
0010
0100
,
0002
0000
0000
2003
0000
3000
0010
0100
,
0002
0000
0000
0000
0000
0000
0003
0010
,
0100
1000
0100
0001
0100
1000
0010
0001
,
0010
1000
0010
0100
0001
0010
0100
0010
,
0000
0000
0001
0000
0000
0000
1000
0000
0010
0100
0010
0000
1000
0000
0001
0000
,
0020
0000
0030
0000
,
0001
0010
0100
0001
0010
0100
1000
0010
,
0100
0010
1000
0001
0100
0010
1000
0100
,
0020
0000
0030
0002
0000
0003
2000
0000
,
3000
0000
0000
0000
0010
0000
0100
0001
,
0020
0000
0030
0000
0002
0003
2000
0000
,
0000
3000
0001
0100
0020
0000
0000
0030
,
1000
0001
0010
0100
0011
0000
1000
0010
,
0100
0001
0010
0100
0010
0001
1000
0010
,
0100
0001
0100
0001
0010
0001
0010
0001
,
0010
0100
0010
0100
0010
0100
0010
0100
,
1000
0100
1000
0100
1000
0010
1000
0010
,
0100
0010
0100
0010
0100
0010
0100
0010
,
0100
0001
0100
0001
0010
0001
0010
0001
,
0010
0100
0010
0100
0010
0100
0010
0100
,
1000
0001
1000
0001
0100
0001
0100
0001
,
1000
0010
0100
0001
1000
0100
0010
0001
,
0110
1000
0010
1000
0101
1000
0100
1000
,
0101
0010
0100
0010
0100
0010
0100
0010
,
1001
0010
0001
0010
1001
0100
0001
0100
,
0011
0100
0010
0100
0010
0100
0010
0100
,
0011
1000
0010
1000
0101
1000
0100
1000
,
0101
0010
0100
0010
0100
0010
0100
0010
,
0101
1000
0001
1000
0011
1000
0010
1000
,
0011
0100
0010
1000
0001
0010
0100
1000
,
0001
0010
0100
1000
0010
0100
0001
0010
0100
1000
0010
0100
,
0001
0100
0010
1000
0100
0010
0001
0100
0010
1000
0100
0010
,
0001
0010
0001
1000
0100
1000
0001
0010
0001
1000
0100
1000
,
0010
1000
0010
0100
0001
0100
0010
1000
0010
0100
0001
0100
,
0010
0100
0010
1000
0001
1000
0010
0100
0010
1000
0001
1000
,
0001
0010
0100
0010
0001
1000
0010
0100
0001
0100
0010
1000
,
0100
0010
0001
1000
0100
0010
0001
0010
0100
0010
0001
1000
,
0010
0100
0001
1000
0010
0100
0001
1000
0010
0100
0001
1000
,
0010
1000
0100
0010
0001
1000
0100
0010
0001
1000
0100
0010
,
0001
0010
0100
1000
0001
0010
0100
1000
0001
0010
0100
1000
,
0010
1000
0001
0100
0010
1000
0001
0010
0001
1000
0010
0100
,
0001
0010
0100
0010
0001
1000
0100
0010
0100
1000
0010
0100
,
0010
1000
0001
1000
0001
0010
0100
0010
0001
1000
0010
0100
,
0010
0100
0001
0010
0001
0100
0010
0100
0010
1000
0010
1000
,
0100
1000
0100
0010
0100
0010
0001
0010
0001
0100
0010
1000
,
0100
0010
0001
0010
0100
1000
0100
0010
0001
0010
0100
1000
,
0002
0000
0000
0000
0000
0003
2000
3000
,
0020
0000
0000
0230
0000
0300
0002
0003
,
2000
0000
3200
0000
0310
0001
1000
0010
,
0100
0001
0010
0200
0000
0300
0010
0000
,
0002
0000
0000
0000
0000
0003
1000
0010
,
0100
0001
0010
0100
0010
0001
1000
0100
,
0010
0100
1000
0001
0100
0010
0100
0001
,
0010
0100
0010
0100
1000
0010
0100
0010
,
0200
0000
0000
0000
0000
0300
0001
0010
,
0001
0100
0001
1000
0001
0010
0100
0010
,
0001
0010
0100
1000
0010
0100
0001
0010
,
0100
1000
0100
0001
0100
1000
0010
0100
,
0002
0000
0000
0000
0000
0000
0003
0000
1000
0010
0100
0001
1000
0100
0010
0001
,
0010
0100
0010
0001
1000
0100
0010
0100
1000
0010
0100
0002
0000
0003
0000
0000
,
2000
3000
0100
0010
0100
1000
0010
0100
,
0001
0010
0100
1000
0001
0010
0100
0010
,
0100
0010
1001
0100
0010
0100
1001
0010
,
0100
0010
1100
0001
0010
0100
1010
0001
,
1000
0010
1001
0100
0010
1000
0101
0010
,
0100
0010
1001
0100
1000
0100
1001
0010
,
1001
0000
0000
0000
0000
0000
0000
0000
0000
0000
0000
0000
0000
0000
0000
0000
1000
0001
0000
0000
0000
0000
0000
0000
0000
0000
0000
0000
0101
0000
0000
0000
,
0000
0000
1100
0000
0000
0011
0000
0000
,
1001
0101
1010
1100
,
0100
0010
0001
0010
0000
0000
0001
0010
0100
0010
0000
0000
,
1100
1100
0000
0011
,
0101
0000
1001
0000
,
0110
0101
0000
1010
,
1100
0001
0010
0001
,
0000
1100
0000
0010
,
0101
0000
0000
0101
,
2002
0000
0000
0000
,
3003
0100
0010
0100
,
2000
3000
0002
0000
,
0003
1000
0010
0100
,
0002
0000
0000
0000
,
0013
0000
0000
0100
0000
0010
0000
0000
,
0001
0000
1000
0001
,
0000
0000
1000
0001
1000
0000
0010
0000
,
0100
0000
0000
0100
,
0001
0000
0000
0000
0010
0000
0000
1000
0000
0000
0010
0000
0000
0100
0000
0000
,
0020
0000
0000
0000
,
2030
0000
0000
0000
3000
0100
0010
0100
,
2000
0000
0000
3001
,
0100
0010
0100
0001
,
0020
0000
0000
0000
0030
0000
0001
1000
,
0200
0000
0300
0010
,
0001
1000
0010
0100
0001
0010
0100
0010
,
0001
1000
0010
0100
0001
1000
0100
0010
,
0001
0000
1000
0010
0100
0001
0110
0000
,
0000
0000
0000
0000
0000
0000
0001
0000
0000
1000
0000
0000
0010
0000
1000
0000
0101
0000
0000
0000
0000
0000
0000
0000
,
0000
0000
0000
0000
0000
0000
1000
0000
0000
0001
0000
0000
0010
0000
0100
0000
1001
0000
0000
0000
0000
0000
0000
0000
,
0000
0000
0000
0000
0000
0000
0000
0000
0000
0000
0000
0000
1000
0000
0000
0100
0000
0000
0010
0000
0000
0000
0000
0000
0001
0000
0000
0000
0100
0000
0000
0000
1010
0000
0000
0000
0000
0000
0000
0000
0000
0000
0000
0000
0000
0000
0000
0000
,
0102
0000
0000
0000
0000
0003
1000
0100
,
0010
0000
0000
0000
0000
0110
0000
0000
,
0011
0000
0000
0000
0000
0000
1000
0010
,
1000
0001
1000
0000
0001
1000
0001
0000
,
0100
0000
0000
0000
0000
0000
0000
0000
0010
0000
0000
0000
1000
0000
0000
0100
0000
0000
0010
0000
0000
0001
0000
0000
0010
0000
0000
0000
0000
0000
0001
0000
0000
0100
0000
0000
0010
0000
0000
1000
0000
0000
0010
0000
0000
0100
0000
0000
,
0001
1000
0010
0100
0010
1000
0100
0010
0001
0010
0100
1000
,
0002
0000
0000
1003
,
0010
0100
0001
0010
0100
1000
0001
0100
,
0001
0000
0000
0000
1000
0000
0000
0000
0100
0000
0000
0000
0010
0000
0000
0001
0000
0000
1000
0000
0000
0100
0000
0000
0010
0000
0000
0000
0100
0000
0000
0000
1000
0000
0000
0000
0010
0000
0000
0100
0000
0000
0001
0000
0000
1000
0000
0000
,
0010
0000
0000
0000
0100
0000
0000
0000
0001
0000
0000
0000
0010
0000
0000
0100
0000
0000
1000
0000
0000
0001
0000
0000
0010
0000
0000
0000
0001
0000
0000
0000
1000
0000
0000
0000
0100
0000
0000
0010
0000
0000
0001
0000
0000
1000
0000
0000
,
0200
0000
0000
0000
0310
0001
1000
0000
,
0000
0000
0000
0000
0000
0000
0000
0000
0000
0000
0000
0000
0101
0000
0000
0000
0000
0000
0000
0000
0000
0000
0000
0000
0000
0000
0000
0000
0000
0000
0000
0000
0000
0010
0000
0000
1000
0000
0000
0000
0100
0000
0000
0000
0010
0000
0000
0000
,
0001
0000
0000
0010
0000
0000
0100
0000
0000
1000
0000
0000
0001
0000
0000
0000
0010
0000
0000
0000
0100
0000
0000
0000
0010
0000
0000
0001
0000
0000
1000
0000
0000
0100
0000
0000
0010
0000
0000
0000
0001
0000
0000
0000
0100
0000
0000
0000
,
0010
0000
0000
1000
0000
0000
0001
0000
0000
0100
0000
0000
0010
0000
0000
0000
0100
0000
0000
0000
0001
0000
0000
0000
0010
0000
0000
0001
0000
0000
1000
0000
0000
0100
0000
0000
0010
0000
0000
0000
0100
0000
0000
0000
1000
0000
0000
0000
,
0001
0100
0010
0100
0001
1000
0100
1000
0010
0100
0001
0010
0100
1000
0100
0010
,
0100
0010
0001
1000
0100
1000
0001
0010
0100
0010
0001
1000
0010
0100
0001
0010
,
0002
0003
0010
0100
,
0001
0000
1100
0000
0000
0000
0001
0010
,
1001
0000
0000
0010
,
0100
0001
0010
0100
,
0010
0101
0000
0010
,
1100
0000
0010
0101
,
0000
0010
1100
0000
,
0020
0000
0000
0000
0030
0000
0001
1000
,
0020
0000
0000
0030
1000
0000
0001
0000
,
0000
0000
0000
0000
0000
0000
0010
0000
0001
0000
1000
0000
0100
0000
0000
0010
0000
0000
0001
0000
0000
1000
0000
0000
,
0010
0000
0000
1000
,
0001
0010
0100
0010
1000
0010
0001
0100
,
0010
0000
0000
0000
0000
1000
0100
0010
,
0100
0000
0000
0101
,
0011
0000
0000
1100
,
0110
0000
0000
1000
0011
0000
0000
0001
,
1000
0000
0010
1000
0100
0010
0100
1000
0010
0100
0001
0010
,
0100
1000
0010
0100
0001
0100
0010
1000
0100
1000
0010
0100
,
0001
0001
0000
1000
1100
0000
0000
0010
,
0101
0001
0010
0100
1001
1000
0010
0100
,
0002
0000
0000
0000
0000
0003
0002
0003
,
0002
0000
1003
0100
0010
0100
1000
0010
,
0200
0000
0300
0000
0001
0010
0100
1000
0010
0100
0001
0000
0000
0000
0000
0010
,
0001
1000
0100
0010
0100
1000
0010
0100
0002
0003
1000
0100
1000
0100
0010
0001
,
0200
0000
0000
0000
0300
0000
0000
0001
0000
0010
0001
0100
0010
1000
0000
0010
,
0000
0000
0100
0000
0000
0000
0002
0000
0000
0000
0000
0000
0003
0000
0000
0010
0000
0000
0100
0000
0000
1000
0000
0000
0001
0000
0000
0100
0000
0000
0001
0000
0000
1000
0000
0000
0010
0000
0000
1000
0000
0000
0100
0000
0000
0010
0000
0000
,
0001
0010
0001
0100
0010
1000
0100
0010
0001
1000
0010
0100
0001
0100
0010
1000
,
0100
0010
0001
1000
0100
0010
0100
1000
0020
0000
0000
0000
0030
0000
0100
0001
,
0020
0000
0000
0000
0030
0000
0000
0010
0001
0010
0100
1000
0001
0100
0001
1000
,
0000
0000
0000
0100
0000
0000
0000
0000
0000
0000
0000
0000
0000
0000
0000
0000
0000
0000
0010
0000
0000
0001
0000
0000
1000
0000
0000
0000
0000
0000
0100
0000
0000
0000
0000
0000
0010
0000
0000
0000
0001
0000
0000
0000
1000
0000
0000
0000
,
0010
0000
0000
0000
0100
0000
0000
0000
0001
0000
0000
0000
0010
0000
0000
0001
0000
0000
0200
0000
0000
0000
0000
0000
0300
0000
0000
0000
0000
0000
0010
0000
0000
1000
0000
0000
0100
0000
0000
0010
0000
0000
0000
0000
0000
0001
0000
0000
,
0000
0000
1000
0010
0100
0001
0000
1000
0000
0100
0010
0001
1000
0010
0100
0001
,
2000
0000
0000
3000
0000
0000
0100
0010
0001
1000
0010
0100
0001
0010
0100
1000
,
0100
0010
0001
0010
0100
0010
0001
1000
0010
0100
0001
0100
0010
1000
0001
0010
,
0100
0000
0000
0000
1000
0000
0100
0000
0010
0000
0001
0000
0100
0000
0000
0001
0000
0000
1000
0000
0000
0001
0000
0000
1000
0000
0000
0100
0000
0000
0010
0000
0000
0001
0000
0000
1000
0000
0000
0100
0000
0000
0010
0000
0000
0001
0000
0000
,
0010
0000
0000
0100
0000
0000
1000
0000
0000
0001
0000
0000
0010
0000
0000
0100
0000
0000
1000
0000
0000
0010
0000
0000
0100
0000
0000
0001
0000
0000
1000
0000
0000
0100
0000
0000
0010
0000
0000
0000
0001
0000
0000
0000
1000
0000
0000
0000
,
0001
1000
0100
1000
0001
1000
0010
1000
0001
1000
0100
1000
0001
1000
0010
1000
,
0001
0100
0010
0100
0001
0100
0010
0100
0001
0100
0010
0100
0001
0100
0010
0100
,
0001
0010
0100
0010
0001
0010
0100
0010
0001
0010
0100
0010
0001
0010
0100
0010
,
0001
1000
0100
1000
0001
1000
0100
1000
0001
1000
0100
1000
0001
1000
0100
1000
,
0010
0100
0001
0010
0100
0010
0001
0100
0010
0100
0001
0010
0100
0010
0001
0100
,
0010
1000
0100
0010
0100
1000
0010
0100
0010
1000
0100
0010
0100
1000
0010
0100
,
0001
0010
0100
1000
0010
0100
0001
0010
0100
1000
0010
0100
0001
0010
0100
1000
,
0010
0100
0001
0100
0001
0010
0001
0010
0100
0010
0100
1000
0100
1000
0010
0100
,
0010
0100
0001
0010
0100
0010
0001
1000
0100
0010
0001
1000
0010
0100
0001
0010
,
0100
1000
0010
0100
0010
1000
0001
0010
0100
0010
0001
1000
0100
0010
0100
1000
,
0001
0010
0100
0010
0001
1000
0010
0100
0001
0100
0010
1000
0010
1000
0001
0100
,
0010
1000
0100
0010
0001
0010
0001
1000
0100
0010
0001
0100
0010
0100
0010
1000
,
0100
0010
0100
1000
0001
0010
0100
1000
0001
0010
0001
0010
0100
0010
0100
1000
,
0010
0100
0001
0010
0100
0010
0001
1000
0010
0100
0010
1000
0100
0010
0001
0100
,
0001
1000
0100
0010
0100
1000
0010
0100
0001
0010
0100
1000
0001
0010
0100
0010
,
0001
1000
0010
0100
0001
0100
0010
1000
0001
0100
0010
1000
0001
1000
0100
0000
,
1001
0000
0100
1000
0001
0000
0101
0000
,
0011
0110
1100
0110
,
0101
0000
0010
0100
0001
0000
0011
0000
,
1001
0100
0010
0100
0010
0100
0010
1000
,
0101
0000
0100
0010
0100
0000
0001
1000
,
0100
1000
0001
0100
0010
1000
0100
1000
,
0110
0000
0001
1000
0100
0000
0011
0000
,
1000
0010
0100
0001
0010
0100
1000
0001
,
0100
0010
1000
0010
0100
0010
0001
0010
,
1000
0010
0100
0010
1000
0010
0001
0010
,
1000
0001
0100
0001
0010
0001
0100
0001
,
1000
0001
0100
0001
0010
0001
0100
0010
,
1000
0100
0010
0100
1000
0100
0001
0100
,
1000
0100
0010
0100
1000
0100
0001
0100
,
1000
0010
0100
0010
1000
0010
0001
0010
,
1000
0001
0100
0010
0010
1000
0100
0010
,
0001
0100
0001
0100
0010
0100
1000
0100
,
0001
0100
0010
0100
0001
0100
1000
0100
,
0001
1000
0010
1000
0100
1000
0010
1000
,
0001
1000
0010
1000
0100
1000
0010
0100
,
0001
0010
0100
0010
0001
0010
1000
0010
,
0001
0010
0100
0010
0001
0010
1000
0010
,
0001
0100
0010
0100
0001
0100
1000
0100
,
0001
0010
0100
1000
1000
0010
0100
0001
,
1000
0100
1000
0100
0010
0100
0010
0100
,
0010
0001
0010
0001
0010
0001
0010
0001
,
0100
0001
0100
0001
1000
0001
1000
0001
,
1000
0010
1000
0010
1000
0010
1000
0010
,
0100
0010
0100
0010
0100
0001
0100
0001
,
0010
0001
0010
0001
0010
0001
0010
0001
,
0010
0100
0010
0100
1000
0001
1000
0001
,
0100
0001
0100
0001
0100
0001
0100
0001
,
1010
0100
1000
0100
1010
0100
0010
0100
,
1010
0001
0010
0001
0010
0001
0010
0001
,
1100
0001
0100
0001
1010
0001
1000
0001
,
1100
0010
1000
0010
1000
0010
1000
0010
,
0101
0010
0100
0010
1100
0001
0100
0001
,
1010
0001
0010
0001
0010
0001
0010
0001
,
1010
0100
0010
0100
1010
0001
1000
0001
,
1100
0001
0100
0001
0100
0001
0100
0001
,
1000
0100
0010
0100
1000
0010
0100
0001
,
0010
0100
0010
0001
0100
0010
0100
0001
,
0010
0100
1000
0010
0100
0001
1000
0010
,
1000
0010
0100
0010
0100
0001
0010
0100
,
0010
0001
0100
0010
0100
0010
1000
0100
,
0010
0100
1000
0010
0001
0010
1000
0100
,
0010
0001
0010
0100
1000
0001
0010
0001
,
0100
0010
1000
0100
0001
0100
1000
0010
,
1001
0010
0101
0010
0001
0100
0011
1000
,
0100
0010
0101
1000
0010
0100
0011
1000
,
0100
0010
1001
0100
0010
1000
0011
0100
,
0001
0100
1010
0100
0010
1000
0101
0010
,
0100
1000
0011
0100
0010
0100
1001
0010
,
0100
0010
1001
0100
1000
0100
1001
0010
,
0100
1000
0100
1000
0010
0100
0001
0010
,
0100
0010
0001
1000
0010
0100
0001
0010
,
0110
0000
1000
0001
0100
0000
1100
0000
,
0110
1010
1001
1010
,
1100
0000
0010
1000
0100
0000
0110
0000
,
0101
0011
1001
0110
,
1100
0001
1000
0010
0100
0001
0010
0100
,
1000
0010
0100
0010
1000
0100
0010
0001
,
0010
0001
0100
0001
1000
0100
0010
0001
,
1000
0010
0100
0010
0100
0010
0100
0010
0100
0000
0000
0000
0000
0000
0000
0000
,
0000
0000
0001
1000
,
1001
0100
0010
0000
0000
0000
0000
0000
;
