#TITLE:Sakura Blue Sky;
#SUBTITLE:;
#ARTIST:DJ.Utaemon;
#TITLETRANSLIT:;
#SUBTITLETRANSLIT:;
#ARTISTTRANSLIT:;
#CREDIT:;
#BANNER:sakurabluesky.png;
#BACKGROUND:sakurabluesky-bg.png;
#LYRICSPATH:;
#CDTITLE:CDTITLE.jpg;
#MUSIC:sakurabluesky.mp3;
#OFFSET:-8.023;
#SAMPLESTART:43.810;
#SAMPLELENGTH:12.000;
#SELECTABLE:YES;
#BPMS:0.000=180.970;
#STOPS:;
#BGCHANGES:;
// cache tags:
#FIRSTBEAT:0.000;
#LASTBEAT:300.000;
#SONGFILENAME:Songs/Definitive Keyboard Megapack/Sakura Blue Sky(Leone510)/sakurabluesky.sm;
#HASMUSIC:1;
#HASBANNER:1;
#MUSICLENGTH:109.800;
// end cache tags

//---------------dance-single - ----------------
#NOTES:
     dance-single:
     :
     Hard:
     9:
     0.792,0.683,0.965,0.128,0.000,489.000,106.000,14.000,0.000,0.000:
0001
0000
1000
0010
1000
0000
1001
0000
,
0100
0001
0100
0001
0100
0010
0100
0010
,
2000
3002
2003
3020
,
1030
0001
1000
0010
0001
1000
0110
0000
,
0001
1000
0001
0100
1000
0001
0110
0000
,
1000
0001
1000
0001
0010
0100
1010
0000
,
0101
1000
0101
0010
1100
0010
1001
0000
,
0100
0010
0100
1000
0001
1000
0110
0000
,
0001
1000
0001
0100
0010
0001
0101
0000
,
1000
0001
1000
0001
0100
0001
1010
0000
,
1001
0100
0011
0100
1010
0001
1010
0000
,
1000
0001
1000
0010
0001
1000
0110
0000
,
0001
1000
0001
0100
1000
0001
0110
0000
,
1000
0001
1000
0001
0010
0100
1010
0000
,
0101
1000
0101
0010
1100
0010
1001
0000
,
0100
0010
0100
1000
0001
1000
0110
0000
,
0001
1000
0001
0100
0010
0001
0101
0000
,
1000
0001
1000
0001
0100
0001
1010
0000
,
1001
0100
0011
0100
1010
0001
1010
0000
,
1001
1000
0001
0010
,
0001
0100
0010
0010
,
1000
0100
0010
0100
,
1000
0000
0001
0000
0100
0000
0100
0010
,
1000
0001
0010
0001
,
0100
0010
1000
1000
,
0002
0203
2300
3002
,
0203
2300
3001
0001
,
1000
0001
1000
0010
0001
1000
0110
0000
,
0001
1000
0001
0100
1000
0001
0110
0000
,
1000
0001
1000
0001
0010
0100
1010
0000
,
0101
1000
0101
0010
1100
0010
1001
0000
,
0100
0010
0100
1000
0001
1000
0110
0000
,
0001
1000
0001
0100
0010
0001
0101
0000
,
1000
0001
1000
0001
0100
0001
1010
0000
,
1001
0100
0011
0100
1010
0001
1010
0000
,
1000
0001
1000
0010
0001
1000
0110
0000
,
0001
1000
0001
0100
1000
0001
0110
0000
,
1000
0001
1000
0001
0010
0100
1010
0000
,
0101
1000
0101
0010
1100
0010
1001
0000
,
0100
0010
0100
1000
0001
1000
0110
0000
,
0001
1000
0001
0100
0010
0001
0101
0000
,
1000
0001
1000
0001
0100
0001
1010
0000
,
1001
0100
0011
0100
1010
0001
1010
0000
,
1000
0001
1000
0010
0001
1000
0110
0000
,
0001
1000
0001
0100
1000
0001
0110
0000
,
1000
0001
1000
0001
0010
0100
1010
0000
,
0101
1000
0101
0010
1100
0010
1001
0000
,
0100
0010
0100
1000
0001
1000
0110
0000
,
0001
1000
0001
0100
0010
0001
0101
0000
,
1000
0001
1000
0001
0100
0001
1010
0000
,
1001
0100
0011
0100
1010
0001
1010
0000
,
1000
0001
1000
0010
0001
1000
0110
0000
,
0001
1000
0001
0100
1000
0001
0110
0000
,
1000
0001
1000
0001
0010
0100
1010
0000
,
0101
1000
0101
0010
1100
0010
1001
0000
,
0100
0010
0100
1000
0001
1000
0110
0000
,
0001
1000
0001
0100
0010
0001
0101
0000
,
1000
0001
1000
0001
0100
0001
1010
0000
,
1001
0100
0011
0100
1010
0001
1010
0000
,
1000
0001
1000
0010
0001
1000
0110
0000
,
0001
1000
0001
0100
1000
0001
0110
0000
,
1000
0001
1000
0001
0010
0100
1010
0000
,
0101
1000
0101
0010
1100
0010
1001
0000
,
0100
0010
0100
1000
0001
1000
0110
0000
,
0001
1000
0001
0100
0010
0001
0101
0000
,
1000
0001
1000
0001
0100
0001
1010
0000
,
1001
0100
0011
0100
1010
0001
1010
0000
,
0001
0002
0100
0103
,
1000
2000
0010
3010
,
0001
0002
0010
0013
,
1000
2000
0100
3100
,
1000
0001
1000
0010
0001
1000
0010
0100
,
0001
1000
0001
0100
1000
0001
0100
0001
,
1000
0001
1000
0001
0010
0100
1010
0000
,
0101
1000
0101
0010
1100
0010
1001
0000
,
0110
0000
0000
0000
;

//---------------dance-single - ----------------
#NOTES:
     dance-single:
     :
     Challenge:
     12:
     1.000,1.000,1.000,0.383,0.246,629.000,396.000,42.000,0.000,91.000:
0102
0000
1103
1001
1011
0000
0202
0000
,
1313
1000
1000
1000
1000
1000
1000
0100
,
0100
0000
0000
0010
0000
0000
0001
0000
0000
0010
0000
0000
0100
0000
0000
1000
0000
0000
0010
0000
0000
0001
0000
0000
0100
0000
0010
0000
0001
0000
0010
0000
0100
0000
1000
0000
0100
0000
0001
0000
0010
0000
0100
0000
1000
0000
0010
0000
,
0101
1011
0100
0110
0101
1000
0011
1001
,
1010
1101
0010
1010
0011
0100
1001
0101
,
1010
0111
1000
0101
0110
0010
1001
0101
,
1001
1011
0010
1100
0101
0001
1010
0101
,
0101
1011
0100
0110
0101
1000
0011
1001
,
1010
1101
0010
1010
0011
0100
1001
0101
,
1010
0111
1000
0101
0110
0010
1001
0101
,
1001
1011
0010
1100
0101
0001
1010
0101
,
0101
1011
0100
0110
0101
1000
0011
1001
,
1010
1101
0010
1010
0011
0100
1001
0101
,
1010
0111
1000
0101
0110
0010
1001
0101
,
1001
1011
0010
1100
0101
0001
1010
0101
,
1100
0000
0002
0000
1103
0000
0020
0000
1031
0000
0020
0000
1130
0000
1020
0001
,
1130
0101
1001
1010
1001
0101
1001
0011
,
1011
0100
1101
0010
1101
0010
1011
0100
,
0010
0000
0000
0001
0000
0000
0010
0000
0000
0100
0000
0000
1000
0000
0000
0010
0000
0000
0001
0000
0000
0010
0000
0000
0100
0000
0000
1000
0000
0000
0100
0000
0000
0001
0000
0000
0010
0000
0100
0000
1000
0000
0001
0000
0010
0000
1000
0000
,
0102
0000
0100
1100
0003
0101
1001
0000
,
0101
0000
0100
0101
0000
1001
0101
0000
,
1100
0000
0010
1010
0000
1001
0011
0000
,
0011
0000
0100
0101
0000
0011
1001
0100
,
0101
0000
0100
1100
0000
0101
1001
0000
,
0101
0000
0100
0101
0000
1001
0101
0000
,
2200
0000
0000
0000
0000
0000
0000
3300
2002
0000
0000
0000
0000
0000
0000
3003
2200
0000
0000
0000
0000
0000
0000
0000
3322
0000
0000
0000
0000
0000
0000
0033
,
0202
0000
0000
0000
0000
0000
0000
0000
0000
0000
0000
0000
0000
0000
0000
0000
0000
0000
0000
0000
0000
0000
0000
0000
0000
0000
0000
0000
0000
0000
0000
0000
0000
0000
0000
0000
0000
0000
0000
0000
0000
0000
0303
0000
0000
0000
0000
0000
2002
0000
0000
0000
0000
0000
0000
0000
0000
0000
0000
0000
0000
0000
0000
0000
0000
0000
0000
0000
0000
0000
0000
0000
0000
0000
0000
0000
0000
0000
0000
0000
0000
0000
0000
0000
0000
0000
0000
0000
0000
0000
0000
0000
0000
0000
0000
0000
3013
0000
0000
0000
0000
0000
0000
0000
0100
0000
0000
0000
0000
0000
0000
0000
1000
0000
0000
0000
0000
0000
0000
0000
0001
0000
0000
0000
0000
0000
0000
0000
0010
0000
0000
0000
0000
0000
0000
0000
1000
0000
0000
0000
0000
0000
0000
0000
0100
0000
0000
0000
0000
0000
0000
0000
0010
0000
0000
0000
0000
0000
0000
0000
0100
0000
0000
0000
0000
0000
0000
0000
0001
0000
0000
0000
0000
0000
0000
0000
0010
0000
0000
0000
0000
0000
0000
0000
1000
0000
0000
0000
0000
0000
0000
0000
,
0101
1011
0100
0110
0101
1000
0011
1001
,
1010
1101
0010
1010
0011
0100
1001
0101
,
1010
0111
1000
0101
0110
0010
1001
0101
,
1001
1011
0010
1100
0101
0001
1010
0101
,
0101
1011
0100
0110
0101
1000
0011
1001
,
1010
1101
0010
1010
0011
0100
1001
0101
,
1010
0111
1000
0101
0110
0010
1001
0101
,
1001
1011
0010
1100
0101
0001
1010
0101
,
0101
1011
0100
0110
0101
1000
0011
1001
,
1010
1101
0010
1010
0011
0100
1001
0101
,
1010
0111
1000
0101
0110
0010
1001
0101
,
1001
1011
0010
1100
0101
0001
1010
0101
,
1100
0000
0002
0000
1103
0000
0020
0000
1031
0000
0020
0000
1130
0000
1020
0001
,
1130
0101
1001
1010
1001
0101
1001
0011
,
1011
0100
1101
0010
1101
0010
1011
0100
,
0010
0000
0000
0001
0000
0000
0010
0000
0000
0100
0000
0000
1000
0000
0000
0010
0000
0000
0001
0000
0000
0010
0000
0000
0100
0000
0000
1000
0000
0000
0100
0000
0000
0001
0000
0000
0010
0000
0100
0000
1000
0000
0001
0000
0010
0000
1000
0000
,
0101
1011
0100
0110
0101
1000
0011
1001
,
1010
1101
0010
1010
0011
0100
1001
0101
,
1010
0111
1000
0101
0110
0010
1001
0101
,
1001
1011
0010
1100
0101
0001
1010
0101
,
0101
1011
0100
0110
0101
1000
0011
1001
,
1010
1101
0010
1010
0011
0100
1001
0101
,
1010
0111
1000
0101
0110
0010
1001
0101
,
1001
1011
0010
1100
0101
0001
1010
0101
,
0101
1011
0100
0110
0101
1000
0011
1001
,
1010
1101
0010
1010
0011
0100
1001
0101
,
1010
0111
1000
0101
0110
0010
1001
0101
,
1001
1011
0010
1100
0101
0001
1010
0101
,
0101
1011
0100
0110
0101
1000
0011
1001
,
1010
1101
0010
1010
0011
0100
1001
0101
,
1010
0111
1000
0101
0110
0010
1001
0101
,
1001
0000
0200
0000
0311
0000
2000
0000
3101
0000
0101
1000
0011
0000
0101
0000
,
0101
1011
0100
0110
0101
1000
0011
1001
,
1010
1101
0010
1010
0011
0100
1001
0101
,
1010
0111
1000
0101
0110
0010
1001
0101
,
1001
1011
0010
1100
0101
0001
1010
0101
,
0101
1011
0100
0110
0101
1000
0011
1001
,
1010
1101
0010
1010
0011
0100
1001
0101
,
1010
0111
1000
0101
0110
0010
1001
0101
,
1001
1011
0010
1100
0101
0001
1010
0101
,
0101
2000
3101
2000
3011
2000
3110
0101
,
1010
0002
1013
0002
1103
0002
0113
1010
,
0110
0002
1013
2000
3101
0002
0113
2000
,
3101
0002
1013
2000
3110
1010
1001
0101
,
1100
0000
0002
0000
1103
0000
0020
0000
1031
0000
0020
0000
1130
0000
1020
0001
,
1130
0101
1001
1010
1001
0101
1001
0011
,
1011
0100
1101
0010
1101
0010
1011
0100
,
0010
0000
0000
0001
0000
0000
0010
0000
0000
0100
0000
0000
1000
0000
0000
0010
0000
0000
0001
0000
0000
0010
0000
0000
0100
0000
0000
1000
0000
0000
0100
0000
0000
0001
0000
0000
0010
0000
0100
0000
1000
0000
0001
0000
0010
0000
1000
0000
,
0101
0000
0000
0000
;
