#TITLE:VerTex;
#SUBTITLE:;
#ARTIST:ZiGZaG;
#TITLETRANSLIT:;
#SUBTITLETRANSLIT:;
#ARTISTTRANSLIT:;
#CREDIT:;
#BANNER:vertex-bn.png;
#BACKGROUND:VerTex-bg.png;
#LYRICSPATH:;
#CDTITLE:../CDTitleBRAEDEN.png;
#MUSIC:VerTex.ogg;
#OFFSET:0.007;
#SAMPLESTART:40.370;
#SAMPLELENGTH:11.590;
#SELECTABLE:YES;
#BPMS:0.000=250.000,160.000=118.980,168.000=250.000,176.000=118.980,184.000=250.000,193.000=214.500,195.000=172.500,198.000=138.000,200.000=126.620,201.000=85.499,201.500=60.499,202.000=257.920,204.000=250.000,302.000=239.960,302.500=237.720,303.000=249.500,304.000=112.001,336.000=254.000,340.000=254.500,344.000=254.203,346.000=254.582,349.000=256.003,352.000=263.702,354.000=267.001,356.000=268.001,360.000=268.502,361.000=269.502,362.000=271.602,364.000=273.501,366.000=275.002,368.000=280.003,372.000=281.503,376.000=283.503,380.000=284.003,382.000=285.003,384.000=291.502,388.000=296.002,392.000=299.502,396.000=301.502,404.000=302.001,416.000=306.001,432.000=306.000,466.708=611.999;
#STOPS:202.000=0.378
;
#BGCHANGES:;
// cache tags:
#FIRSTBEAT:0.000;
#LASTBEAT:466.000;
#SONGFILENAME:Songs/Index Fusion - Part 2/VerTex - [Braeden]/VerTex.sm;
#HASMUSIC:1;
#HASBANNER:1;
#MUSICLENGTH:126.559;
// end cache tags

//---------------dance-single - K. Ward----------------
#NOTES:
     dance-single:
     K. Ward:
     Challenge:
     20:
     1.000,1.000,0.348,0.324,1.000,1104.000,44.000,41.000,0.000,0.000:
1000
0000
0100
0000
0010
0000
0001
0000
0010
0000
0100
0000
1000
0000
0001
1000
,
0001
0000
0100
0000
0010
0000
1000
0000
0100
0000
0010
0000
0001
0000
1000
0010
,
1000
0000
0100
0000
0010
0000
0100
0000
1000
0000
0001
0000
0100
0000
0010
1000
,
0010
0000
0100
0000
0001
0000
0100
0000
0010
0000
1000
0000
0100
0000
0010
0001
,
1000
0000
0100
0000
0010
0000
0100
0000
1000
0000
0001
0000
0100
0000
0010
1000
,
0010
0000
0100
0000
0001
0000
0010
0000
0001
0000
1000
0000
0100
0000
0010
0001
,
0010
0000
0100
0000
1000
0000
0001
0000
0100
0000
0010
0000
0100
0000
0001
1000
,
0002
0203
0320
2030
3002
2003
3100
0010
,
0012
0000
0000
0000
0103
0000
0010
0000
1000
0000
0100
0000
0010
0000
0001
1000
,
0002
0000
0000
0000
0103
0000
0010
0000
0100
0000
0001
0000
0010
0000
0001
1000
,
0010
0000
0100
0000
0001
0000
0100
0000
0010
0000
0010
0000
1000
0000
0001
0100
,
0001
0000
0001
0000
0000
0000
0010
0000
0010
0000
0000
0000
0110
0000
0100
1000
,
0001
0000
0010
0000
0100
0000
0100
0000
0100
0000
0000
0000
1100
0000
1000
0001
,
0100
0000
0100
0000
0000
0000
0010
0000
0010
0000
0000
0000
1010
0000
1000
0001
,
0100
0000
0100
0000
0010
0000
1000
0000
1000
0000
0100
0000
0010
0000
0010
0100
,
1000
0000
0001
0000
0100
0000
0010
0000
1000
0000
0001
0000
0000
0000
0100
0010
,
0100
0000
0000
0000
0010
0000
1000
0000
0010
0000
0100
0000
0001
0000
1000
0100
,
1000
0000
0000
0000
0001
0000
0100
0000
0010
0000
0000
0000
1010
0000
1000
0001
,
0100
0000
0010
0000
0000
0000
0010
0000
0100
0000
0000
0000
0001
0000
1000
0001
,
0100
0000
0010
0000
1000
0000
0200
0000
0310
0000
0001
0000
1000
0000
0001
1000
,
0001
0000
0010
0000
0001
0000
0100
0000
0010
0000
1000
0000
0001
0000
1000
0001
,
1000
0000
0100
0000
0010
0000
0010
0000
0001
0000
0100
0000
0010
0000
1000
0100
,
0010
0000
0010
0000
0000
0000
0001
0000
0001
0000
0000
0000
1001
0000
1000
0001
,
0100
0000
0010
0000
1000
0100
1000
0000
0001
0000
0100
0010
0100
0000
0001
0000
,
0200
0000
0320
0000
2030
0000
3002
0000
0203
0000
0320
0000
1030
0100
0010
0001
,
0010
0100
1000
0001
0010
0001
0100
0010
0100
0001
1000
0100
0010
0000
0001
1000
,
0002
0000
0203
0000
0310
0000
2000
0000
3200
0000
0310
0000
0002
0000
0103
0010
,
0100
0000
0000
0000
0000
0000
1010
0000
1000
0000
0000
0000
1001
0000
0001
0100
,
0020
0000
2030
0000
3200
0000
0320
0000
0031
0000
0100
0000
0010
0000
1000
0001
,
1000
0000
0100
0000
0010
0000
0100
0000
1000
0000
0001
0000
0100
0000
0010
1000
,
0010
0000
0100
0000
0001
0000
0010
0000
0001
0000
1000
0000
0100
0000
0010
0001
,
0010
0000
0000
0011
0000
0000
1001
1000
,
0100
0000
0010
0000
0001
0100
0010
1000
0010
0100
0001
0100
0010
1000
0001
0010
,
0100
1000
0001
0010
0001
1000
0100
0010
0100
1000
0001
0100
0010
0100
0001
0010
,
0001
1000
0100
0010
0001
0010
0100
1000
0001
0100
0010
0100
0001
1000
0100
0010
,
0004
0000
0000
0000
0000
0000
0403
0000
0000
0000
0000
0000
0310
0000
1000
0001
,
0100
0000
0010
0000
1000
0000
0100
0000
0010
0000
0001
0000
0100
0000
0010
1000
,
0010
0000
0100
0000
0001
0000
1000
0000
0100
0000
0010
0000
0100
0000
1000
0001
,
0200
0000
0320
0000
2030
0000
3002
0000
0103
0000
0010
0000
1000
0000
0001
1000
,
0010
0010
0100
0100
0001
0000
0000
0010
,
1001
0000
0010
0000
1001
0000
0010
0100
0101
0000
0010
1000
0010
0000
0100
0001
,
0101
0000
0000
0000
0000
0000
0010
0000
0000
1000
0000
0000
1010
0000
0000
0100
0000
0000
0001
0000
0000
0100
0000
0000
1010
0000
0000
0000
0000
0000
1000
0000
0100
0000
0010
0000
0001
0000
0000
0000
0000
0000
1001
0000
0000
0000
0000
0000
,
1000
0000
0100
0000
0010
0000
0100
0000
1000
0000
0001
0000
0100
0000
0010
1000
,
0010
0000
0100
0000
0001
0000
0010
0000
0001
0000
1000
0000
0100
0000
0010
0001
,
1000
0000
0000
0000
0000
0000
0001
0000
0100
0000
0010
0000
1000
0000
0000
0000
0000
0000
0001
0000
0000
0100
0000
0000
0101
0000
0000
0000
0000
0000
0010
0000
1000
0000
0001
0000
0100
0000
0000
0000
0000
0000
0010
0000
0000
1000
0000
0000
,
0001
0000
0000
0000
0000
0000
1000
0000
0000
0001
0000
0000
0100
0000
0000
0000
0000
0000
0010
0000
0000
1000
0000
0000
0001
0000
0000
0000
0000
0000
0100
0000
0010
0000
1000
0000
0001
0000
0000
0000
0000
0000
0000
0000
0000
0000
0000
0000
,
1000
0000
0100
0000
0010
0000
0001
0000
0010
0000
0100
0000
1000
0000
0001
0100
,
0010
0000
0000
0000
0000
0000
1010
0000
0000
0000
0000
0000
1010
0000
1000
0001
,
0200
0000
0000
0000
,
0000
0000
0000
0000
,
0000
0300
0000
0000
,
1001
0000
0000
0000
1000
0100
0010
0001
0010
0000
0100
0000
1000
0001
0100
0010
,
0100
0000
0001
0000
1000
0100
0010
0100
1000
0000
0001
0000
0100
0010
0100
0001
,
0100
0000
0010
0000
1000
0100
0010
0001
0100
0000
0010
0000
1000
0000
0100
0010
,
0100
1000
0000
0001
0100
0000
0101
0000
,
0010
0100
0001
0100
0010
0000
1000
0000
0100
0010
0001
0010
0100
0000
1000
0000
,
0001
0100
0010
0100
0001
0000
1000
0000
0100
0010
0100
1000
0001
0000
0100
0000
,
0101
0000
0000
0000
0000
0000
0110
0000
0000
0000
0000
0000
1010
0000
1000
0001
,
0100
0010
1000
0001
0100
0000
1010
0000
,
2001
0000
0000
0000
3001
0100
0001
0100
0002
0000
0000
0000
1003
0010
1000
0010
,
1000
0000
0001
0000
0100
0000
0010
0000
1000
0000
0001
0000
1000
0100
1000
0100
,
2000
0000
0000
0000
3001
0100
0001
0100
0002
0000
0000
0000
0103
0010
0100
0010
,
1000
0000
0001
0000
0010
0000
0010
0000
0100
1000
0001
0100
0010
1000
0100
0010
,
0002
0000
0000
0000
1003
0100
0010
0001
1000
0000
0010
0000
0100
0001
0010
0001
,
1000
0000
0010
0000
0100
0001
0100
0010
1000
0000
0001
0000
0010
0100
1000
0001
,
0100
0000
0010
0000
1000
0100
0010
0001
0100
0000
0010
0000
1000
0100
0010
0001
,
0100
0000
0010
0000
1000
0000
0100
0000
0010
0100
1000
0001
0100
0010
1000
0001
,
2000
0000
0000
0000
3010
0000
0010
0000
0110
0000
0000
0000
0100
0001
0100
0001
,
1000
0000
0000
0000
0001
0000
0001
0000
1001
0000
0000
0000
1000
0100
1000
0100
,
1000
0000
0000
0000
0001
1000
0001
1000
0001
0000
0000
0000
1000
0100
1000
0100
,
1000
0000
0000
0000
0010
0000
0010
0000
0100
0001
0100
0010
1000
0100
0010
0100
,
1000
0000
0000
0000
0001
0000
0001
0000
1001
0000
0000
0000
1000
0001
1000
0001
,
1000
0000
0000
0000
0001
0100
0001
0100
0001
0000
0000
0000
1000
0001
1000
0001
,
1000
0010
0100
0001
0100
0000
0010
1000
,
2020
0000
0000
3030
,
2002
0000
3003
0000
,
1000
0000
0100
0000
0010
0000
0001
0000
0000
0000
0000
0000
1001
0000
0000
0000
0000
0000
1000
0000
0000
0000
0000
0000
1010
0000
0000
0000
0000
0000
0100
0000
0000
0001
0000
0000
0100
0000
0000
0000
0000
0000
0010
0000
0000
0000
0000
0000
,
1000
0001
1000
0001
1000
0000
0000
0000
0110
0000
0000
0000
0100
0000
0001
0000
0100
0000
0000
0000
0010
0000
1000
0000
0001
0000
0000
0000
1000
0000
0000
0000
,
0004
0000
0000
0000
0403
0000
0000
0000
0340
0000
0000
0000
1030
0000
0000
0100
,
0010
0000
0000
0001
0100
0000
0010
0000
1000
0000
1001
0000
0001
0000
0000
0000
,
1001
0001
0001
0100
0100
0100
0010
0010
0010
1000
0000
0000
,
0001
0001
0001
0100
0100
0100
0010
0010
0010
1000
0000
0000
,
0001
0001
0001
0100
0100
0100
0010
0010
0010
1010
0000
0000
,
0001
0001
0001
0100
0100
0100
1010
0000
0000
1001
0000
0000
,
1000
0000
0100
0000
0010
0000
0001
0000
0100
0000
0010
0000
1000
0100
0010
0100
,
1000
0000
0001
0000
0100
0000
0010
0000
1000
0100
0010
0100
1000
0001
0100
0010
,
1000
0000
0100
0000
0010
0000
0001
0000
0100
0010
0100
0001
1000
0100
0010
0001
,
0100
0000
0010
0000
1000
0000
0010
0000
0100
0001
0010
0001
1000
0100
0010
0001
,
1000
0000
0100
0000
0010
0000
0100
0000
1000
0001
0100
0010
1000
0100
0010
0100
,
1000
0000
0010
0000
0100
0000
0001
0000
1000
0100
0010
0100
1000
0001
0100
0010
,
1000
0000
0100
0000
0010
0000
0001
0000
0100
0010
0100
0001
1000
0100
1000
0001
,
0100
0000
0010
0000
1000
0000
0100
0000
0010
0001
0010
0100
1000
0001
0100
0010
,
1000
0000
0010
0000
0100
0000
0001
0000
1000
0100
0010
0100
1000
0001
0100
0010
,
1000
0000
0100
0000
0010
0000
0001
0000
0100
0010
1000
0001
0010
0100
1000
0001
,
1000
0000
0100
0000
0010
0000
0001
0000
0100
0010
1000
0001
0010
0100
1000
0001
,
0100
0000
0010
0000
1000
0000
0100
0000
0010
0001
0010
0100
1000
0001
0100
0010
,
1000
0000
0010
0000
0100
0000
0001
0000
1000
0100
0010
0100
1000
0001
0010
0100
,
1000
0000
0001
0000
0100
0000
0010
0000
1000
0100
0010
0100
1000
0001
0100
0010
,
1000
0000
0100
0000
0010
0000
0001
0000
0010
0100
1000
0001
0100
0010
1000
0001
,
0100
0000
0010
0100
0010
0000
0000
0000
1000
0001
0100
0010
1000
0100
0010
0001
,
1000
0000
0100
0000
0010
0000
0001
0000
0100
0010
0100
0001
1000
0100
0010
0001
,
0100
0000
0010
0000
1000
0000
0100
0000
0010
0001
0100
0010
1000
0001
0010
0100
,
1000
0000
0001
0000
0100
0000
0010
0000
1000
0100
0010
0100
1000
0001
0100
0010
,
1000
0000
0100
0000
0010
0000
0100
0000
1000
0001
0100
0010
1000
0001
0010
0100
,
1000
0000
0001
0000
0100
0000
0010
0000
1000
0100
0010
0001
0010
0100
1000
0001
,
0100
0000
0010
0000
1000
0000
0100
0000
0010
0100
1000
0001
0100
0010
1000
0100
,
1000
0000
0010
0000
0100
0000
0001
0000
1000
0100
0010
0001
0010
0100
1000
0001
,
0100
0010
1000
0001
4000
0000
0000
0000
,
3001
0000
0100
0000
0010
0000
1000
0000
0100
0010
0100
1000
0001
0100
0010
1000
,
0001
0000
0100
0000
0010
0000
1000
0000
0100
0010
0100
1000
0001
0100
0010
1000
,
0001
0000
0010
0000
0100
0000
1000
0000
0001
0100
0010
0100
0001
0010
0001
1000
,
0010
0000
0100
0000
0001
0000
1000
0000
0010
0100
0001
0100
0010
1000
0001
0100
,
0010
0000
1000
0000
0100
0000
0010
0000
0001
0010
0100
1000
0001
0100
0010
0100
,
0001
0000
1000
0000
0100
0000
0010
0000
0100
1000
0001
0100
0010
0100
0001
1000
,
0100
0000
0010
0000
0001
0000
0100
0000
0010
1000
0001
0010
0100
1000
0001
0100
,
0010
1000
0001
0100
0010
0000
0100
0100
,
2002
0000
3003
0000
;

//---------------lights-cabinet - ----------------
#NOTES:
     lights-cabinet:
     :
     Easy:
     1:
     0.862,1.000,1.000,0.142,0.095,506.000,210.000,18.000,0.000,24.000:

000000
000000
000000
000000
,
000000
000000
000000
000000
,
000000
000000
000000
000000
,
000000
000000
000000
000000
,
001000
010000
100100
000000
,
001000
000100
100100
000000
,
011000
000000
100100
000000
,
010000
001000
100000
000000
,
100000
001000
010000
001000
,
100000
000100
010000
001000
,
100000
000100
010000
000100
,
100000
000100
100000
000100
100000
000000
000000
000000
,
000100
100000
000100
010000
,
000100
010000
001000
100000
,
000100
010000
001000
010000
,
000100
010000
001000
010000
001000
000000
000000
000100
,
100000
001000
010000
001000
,
100000
000100
010000
000100
,
100000
001000
010000
010000
,
000100
100000
000100
100000
000100
000000
000000
000000
,
100000
001000
010000
001000
,
100000
001000
100000
000100
,
010000
001000
100000
010000
,
100000
000100
001000
000000
000100
000000
000000
000000
,
000100
100000
000100
000000
000100
100000
000100
000000
,
011000
100100
011000
000000
,
100000
000100
100000
000000
100000
000100
100000
000000
,
100100
011000
100100
000000
,
000100
100000
000100
000000
000100
100000
000100
000000
,
100000
000100
010000
001000
,
100000
000100
100000
000000
100000
000100
100000
000000
,
100000
011000
100100
000000
,
010100
101000
101000
010100
,
010100
101000
101000
100100
,
011000
100100
011000
100100
,
011000
000000
000000
100100
000000
000000
110000
000000
,
010100
101000
010100
101000
,
010100
101000
010100
100000
,
011000
100100
011000
100100
,
100100
011000
100100
011000
100100
000000
000000
011000
,
100110
010010
001001
000100
100010
010010
001001
100100
,
001010
010010
001001
000100
011011
000100
100011
011000
,
011000
100100
011000
110000
,
100100
011000
100100
010100
,
001001
100001
000110
010000
001001
010001
000110
010000
,
000101
100001
001010
010000
001011
100100
011011
100100
,
011000
100000
100100
001000
,
011000
100000
100100
011000
,
200200
000000
000000
000000
,
300300
000000
000010
000001
,
000010
000000
000000
000000
000000
000000
000000
000000
000001
000000
000000
000000
000000
000000
000000
000022
000000
000000
222200
000000
000000
000000
000000
000000
333300
000000
000000
000000
000000
000000
000000
000000
,
111133
001000
010000
001000
,
100000
010000
001000
100100
,
100000
011000
010000
101000
,
100100
000000
000000
011000
000000
000000
100100
000000
,
010100
011000
101000
011000
,
100100
011000
011000
100100
,
100100
000000
000000
011000
000000
000000
011000
000000
,
100100
000000
011000
011000
,
100000
000100
100000
000100
,
100000
000100
100100
011000
,
100100
000000
000000
000000
011000
000000
000000
011000
,
000000
000000
000000
000000
,
000100
100000
000100
100000
,
000100
100000
000100
100000
,
000100
000000
000000
000000
011000
000000
000000
100100
,
000000
000000
000000
000000
,
100000
001000
010000
000100
,
001000
000100
010000
001000
,
100000
000000
010000
000000
100000
000000
100100
011000
,
000000
000000
000000
000000
,
000100
010000
001000
010000
,
001000
100000
000100
010000
,
100100
000000
000000
000000
011000
000000
000000
100100
,
000000
000000
100100
000000
,
011000
000100
010000
200200
,
301310
000001
010010
000001
001010
000001
100010
000000
,
000101
001010
000101
000010
100001
000010
001001
000000
,
010010
010001
000110
000001
100010
100001
000110
000000
,
010001
010010
001001
011010
000001
100110
100101
000000
,
100010
010001
001010
000101
100010
001001
010010
000101
100010
001001
000000
000000
,
100010
000101
010010
001001
100010
000101
010010
001001
100010
000101
000000
000000
,
100010
001001
010010
000101
100010
001001
010010
000101
100010
001001
000000
000000
,
100010
000101
010010
001001
100000
000100
011011
000000
000000
011011
000000
000000
,
000100
001000
100000
010000
,
000100
001000
010000
010000
,
100000
001000
000100
100000
,
001000
000100
100000
011000
100100
000000
000000
000000
,
010000
100000
000100
001000
,
100000
010000
000100
001000
,
000100
010000
001000
100000
,
110000
000000
001100
000000
,
010000
000100
010000
000100
,
100000
010100
001000
000100
,
100000
001000
010000
000100
,
110000
000000
000000
001100
000000
000000
111100
000000
,
100000
000100
010000
000100
,
100000
000100
100000
000100
,
010000
001000
100000
000100
,
110000
000000
001100
000000
,
100000
001000
010000
000100
,
001000
000100
010000
001000
,
100000
000100
010000
000100
,
100000
010000
100000
000000
,
110000
110000
001100
001100
,
100100
011000
100100
011000
,
110000
001100
110010
011001
,
100110
000000
011001
000000
022010
000001
000010
000001
,
133110
001000
010000
000100
,
100000
001000
010000
010000
,
001000
100000
000100
001000
,
100000
000100
010000
001000
,
000100
100000
001000
010000
,
100000
000100
010000
000100
,
001000
010000
100000
000100
,
001000
100000
001000
010000
,
100000
000100
100000
001000
,
000100
100000
000100
001000
,
010000
100000
010000
000100
,
001000
010000
001000
000100
,
100000
010000
100000
001000
,
000100
100000
000100
010000
,
100000
001000
000000
100100
,
011000
100100
011000
000000
,
222222
000000
000000
000000
,
000000
000000
000000
000000
,
333333
000000
000000
000000
;
