#TITLE:Neutral Moon;
#SUBTITLE:;
#ARTIST:Enhanced Lights;
#TITLETRANSLIT:;
#SUBTITLETRANSLIT:;
#ARTISTTRANSLIT:;
#CREDIT:;
#BANNER:../BN.png;
#BACKGROUND:../BG.png;
#LYRICSPATH:;
#CDTITLE:../CDTitleJoseNEW.png;
#MUSIC:Enhanced Lights - Neutral Moon.ogg;
#OFFSET:-0.233;
#SAMPLESTART:33.833;
#SAMPLELENGTH:10.971;
#SELECTABLE:YES;
#BPMS:0.000=175.000;
#STOPS:;
#BGCHANGES:;
// cache tags:
#FIRSTBEAT:2.750;
#LASTBEAT:329.000;
#SONGFILENAME:Songs/Index Gradation/Neutral Moon - [Jose Varela]/Enhanced Lights - Neutral Moon.sm;
#HASMUSIC:1;
#HASBANNER:1;
#MUSICLENGTH:116.812;
// end cache tags

//---------------dance-single - Jose_Varela----------------
#NOTES:
     dance-single:
     Jose_Varela:
     Challenge:
     14:
     0.991,1.000,0.300,0.625,1.000,701.000,35.000,73.000,107.000,0.000:
0000
0000
0000
0000
0000
0000
0000
0000
0000
0000
0000
00M0
0000
0000
0M00
0000
,
000M
0000
0000
M000
0000
0000
00M0
0000
0M00
0000
0000
000M
0000
0000
0M00
0000
,
000M
0000
0000
0M00
0000
0000
M000
0000
00M0
0000
0000
0M00
0000
0000
M000
0000
,
0M00
0000
0000
00M0
0000
0000
000M
0000
0M00
0000
0000
00M0
0000
0000
M000
0000
,
000M
0000
0000
0M00
0000
0000
000M
0000
M000
0000
0000
0M00
0000
0000
00M0
0000
,
000M
0000
0000
M000
0000
0000
00M0
0000
0M00
0000
0000
000M
0000
0000
00M0
0000
,
000M
0000
0000
00M0
0000
0000
0M00
0000
M000
0000
0000
00M0
0000
M000
0000
000M
,
0000
0000
0000
0M00
0000
0000
000M
0000
0M00
0000
0000
000M
0000
0000
M000
0000
,
00M0
0000
0000
0M00
0000
0000
000M
0000
1000
0000
0000
0010
0100
0000
0001
0000
,
1000
0000
0000
0100
0000
0000
0010
0000
0001
0000
0000
1000
0010
0000
0100
0000
,
0001
0010
0100
1000
0001
0000
0100
0000
0010
0000
0000
1000
0010
0000
0100
0000
,
0001
0000
0000
0010
0100
1000
0010
0100
0001
0000
1000
0001
2000
3000
0010
0100
,
0001
0000
0000
1000
0100
0010
0001
1000
0010
0000
0010
0000
0100
0000
0100
0000
,
0001
0001
1000
1000
0100
0010
0001
1000
,
0010
0000
0100
0000
0001
0000
0010
0000
0100
1000
0010
0100
0001
0010
0100
1000
,
0010
0000
0000
0100
0000
0000
0001
0000
0000
1000
0000
0000
0010
0000
0000
0100
0000
0000
0001
0000
0000
0010
0000
0000
0100
0000
1000
0000
0100
0000
0010
0000
0001
0000
0010
0000
0100
0000
1000
0000
0010
0000
0100
0000
0001
0000
0010
0000
,
M100
000M
000M
000M
1100
0100
0010
0001
,
1000
0000
0010
0000
0100
0000
0001
0000
0010
0100
1000
0100
0010
0000
0001
0100
,
0010
1000
0100
0000
0010
0001
1000
0010
0100
0010
1000
0100
0010
0001
1000
0010
,
M100
0001
0010
M001
0100
0000
M010
0000
1010
0000
1000
0100
1000
0000
0010
0100
,
0001
0010
0200
0300
2000
3000
0020
0030
1000
0000
0100
0010
0001
1000
0010
0100
,
0001
0000
0010
0000
0100
0000
0000
0000
1000
0000
0010
0000
0100
0000
0001
0000
2000
3000
0020
0030
0200
0300
0002
0003
0020
0030
0200
0300
2000
3000
0200
0300
,
0020
0030
0002
0003
2000
3000
0020
0030
0200
0300
0002
0003
0200
0300
0000
0000
0101
0000
0000
0000
0010
0000
1000
0000
0010
0000
0100
0000
0001
0000
0010
0000
,
0100
1000
0100
1000
0400
0000
0000
0000
0301
0000
0000
0010
0000
0000
0001
0000
,
0100
0000
0000
0010
1000
0010
1000
0010
1000
0000
0100
0010
0002
0000
1003
0000
,
0100
0000
0010
0001
1000
0000
0010
0000
0100
0001
0010
0000
0100
0000
1000
0100
,
0010
0001
0100
0010
1000
0100
0010
0001
M000
M000
M000
0000
0002
0003
1000
0000
,
0100
0010
0100
0010
0100
0000
0010
0000
0012
0000
0003
0000
0010
0000
0100
0000
,
0010
0000
0000
0000
0001
0000
0000
0000
1000
0000
0000
0000
0010
0000
0000
0000
2000
3000
0020
0030
0200
0300
0002
0003
0020
0030
0200
0300
2000
3000
0000
0000
,
0001
1000
0002
0003
0010
0100
1000
0001
1000
0000
0100
0000
0010
0001
0100
0000
,
0020
0030
2000
3000
0200
0300
0020
0030
0002
0003
2000
3000
0002
0003
0000
0000
1000
0000
0000
0000
0100
0000
0010
0000
0001
0000
0000
0000
1000
0000
0000
0000
,
0010
1000
0010
0000
0100
0001
0100
0001
0100
0000
0000
0001
1000
0000
0010
0000
,
1000
0100
0010
0001
1000
0001
0010
0100
1000
0000
0010
0000
0200
0000
0300
0000
,
0001
0000
0010
0100
1000
0010
1000
0100
0010
0000
0001
0000
2000
0000
3000
0000
,
0010
0000
0100
0001
0010
0100
1000
0100
0010
0000
0001
0000
0200
0000
0300
0000
,
0010
0000
1000
0010
0100
0001
0010
0100
1000
0000
0010
0000
0200
0000
0300
0000
,
0001
0000
1000
0010
0100
0001
0010
0001
0100
0000
0010
0000
2000
0000
3000
0000
,
0001
0000
0100
0010
1000
0010
0100
0001
0100
0000
0010
0000
2000
0000
3000
0000
,
0100
0000
0010
0001
1000
0010
0100
0001
1000
0000
0010
0000
2000
0000
3000
0000
,
0100
0000
0010
0001
0010
0100
1000
0010
0100
0000
0001
0000
2000
0000
3000
0000
,
0001
0000
0100
0010
1000
0010
0100
0001
1000
0000
0000
1000
0000
0000
1000
0000
,
0001
0000
0000
0001
0000
0000
0001
0000
0010
0000
0000
0010
0000
0000
0010
0000
,
0100
0000
0000
0100
0000
0000
0100
0000
1000
0000
0000
1000
0000
0000
1000
0000
,
0010
0000
0000
0010
0000
0000
0010
0000
0100
0000
0000
0100
0000
0000
0100
0000
,
0001
0000
0000
0001
0000
0000
0001
0000
1000
0000
0001
0000
0010
0000
0100
0000
,
1000
0001
0010
0100
1000
0010
0100
0001
,
0010
0000
0100
0000
1000
0000
0001
0000
0010
0100
1000
0001
0100
0010
1000
0001
,
0010
0000
0000
0100
0000
0000
1000
0000
0000
0001
0000
0000
0100
0000
0000
0010
0000
0000
1000
0000
0000
0001
0000
0000
0100
0000
0001
0000
0010
0000
0100
0000
1000
0000
0010
0000
0100
0000
0001
0000
1000
0000
0100
0000
0010
0000
0001
0000
,
0100
0000
0000
0000
0000
0000
0000
0000
1010
0000
0000
0101
0000
0000
0110
0000
,
1001
0000
0000
1010
0000
0000
0101
0000
1100
0000
0000
0101
0000
0000
0011
0000
,
1000
0100
0010
0001
1000
0010
0100
0001
0100
0000
0000
1010
0000
0000
0101
0000
,
1100
0000
0000
0101
0000
0000
0110
0000
1001
0000
0000
1100
0000
0000
0011
0000
,
1000
0100
0010
0001
4000
0000
3000
0000
0101
0000
0000
1010
0000
0000
0110
0000
,
1001
0000
0000
0101
0000
0000
1010
0000
0011
0000
0000
1010
0000
0000
1100
0000
,
0001
0010
0100
1000
0001
0100
0010
1000
0M10
0M00
0M00
0000
1000
0100
0010
0001
,
1000
0010
0200
0301
0010
0100
1000
0001
2000
3000
0000
0010
0000
0000
0100
0000
,
0001
0000
1000
0000
0010
0100
0001
0100
0010
0000
1000
0100
0010
0000
0001
0000
,
1000
0000
0010
0000
0100
0000
0001
0000
1000
0010
0100
0001
0010
0000
0100
1000
,
0010
0100
0001
0000
1000
0010
0100
0001
0010
0000
0100
0000
1000
0000
0010
0000
,
0100
0000
0001
0000
0100
0000
0010
0000
1000
0000
0010
0000
0100
0000
0001
0000
0020
0030
0200
0300
2000
3000
0020
0030
0200
0300
0002
0003
0200
0300
0000
0000
,
0010
1000
0100
0010
0001
1000
0010
0100
0001
0000
0000
1000
0010
0000
0100
0001
,
0010
0000
0100
0000
1000
0000
0000
0000
0001
0000
0100
0000
0010
0000
1000
0000
0020
0030
0200
0300
0002
0003
0020
0030
0200
0300
2000
3000
0020
0030
0200
0300
,
0002
0003
0200
0300
0020
0030
2000
3000
0200
0300
0020
0030
0002
0003
0000
0000
1000
0000
0000
0000
0001
0000
0000
0000
1001
0000
0000
0000
0100
0000
0000
0000
,
0001
0000
0101
0000
0001
0100
0001
0100
0001
0000
0000
1000
0000
0000
0010
0000
,
0100
0000
0000
0004
0000
0000
0000
0000
1003
0000
0010
0000
0200
0000
0300
0000
,
0001
0000
0010
0100
1000
0010
1000
0100
0010
0000
0001
0000
2000
0000
3000
0000
,
0010
0000
0100
0001
0010
0100
1000
0100
0010
0000
0001
0000
0200
0000
0300
0000
,
0010
0000
1000
0010
0100
0001
0010
0100
1000
0010
0100
0001
1000
0000
0010
0000
,
0100
0001
0010
0000
0100
1000
0100
0010
0001
1000
0010
0100
0001
1000
0100
0010
,
0001
0100
0010
1000
0100
0010
0001
1000
0100
0010
0001
0100
0010
1000
0100
0010
,
0001
1000
0010
0100
0001
1000
0010
0100
0001
1000
0100
0010
0001
0100
0010
1000
,
0100
0000
0000
0010
0000
0000
0001
0000
0000
0010
0000
0000
0100
0000
0000
1000
0000
0000
0100
0000
0000
0010
0000
0000
0001
0000
0100
0000
0010
0000
1000
0000
0100
0000
0010
0000
0001
0000
0100
0000
0010
0000
1000
0000
0100
0000
0010
0000
,
0001
0010
0100
1000
0001
0000
0010
0000
0011
0000
0000
00M0
0000
0000
0M00
0000
,
000M
0000
0000
M000
0000
0000
00M0
0000
0M00
0000
0000
000M
0000
0000
0M00
0000
,
100M
0000
0000
0M00
0010
0000
M000
0000
01M0
0000
0000
0M00
0000
0000
M001
0M00
,
0000
0000
00M0
0000
0000
0000
000M
0000
0M00
0000
0000
00M0
0000
0000
M000
0000
,
000M
0000
0000
0M00
0000
0000
000M
0000
M010
0000
0000
0M00
0000
0000
00M0
0000
,
000M
0000
0000
M000
0000
0000
00M0
0000
0M00
0000
0000
000M
0000
0000
00M0
0000
,
010M
0000
0000
00M0
1000
0000
0M00
0000
M001
0000
0000
00M0
0000
M000
0010
000M
,
0000
0000
0000
0M00
0000
0000
000M
0000
0M00
0000
0000
00M0
0000
0000
M000
0000
,
010M
0000
1000
000M
0010
0000
020M
0000
0000
0000
0000
0000
0000
0000
0000
0000
,
0000
0000
0000
0000
,
0000
0300
0000
0000
;
