#TITLE:Miracle Moon;
#SUBTITLE:~L.E.D.LIGHT STYLE MIX~;
#ARTIST:Togo Project feat. Sana;
#TITLETRANSLIT:;
#SUBTITLETRANSLIT:;
#ARTISTTRANSLIT:;
#CREDIT:;
#BANNER:Miracle Moon-bn.png;
#BACKGROUND:Miracle Moon-bg.png;
#LYRICSPATH:;
#CDTITLE:;
#MUSIC:Togo Project feat. Sana - Miracle Moon ~L.E.D.LIGHT STYLE MIX~.ogg;
#OFFSET:-0.283;
#SAMPLESTART:33.300;
#SAMPLELENGTH:12.000;
#SELECTABLE:YES;
#DISPLAYBPM:138.000;
#BPMS:0.000=138.000,40.000=69.000,48.500=138.000,91.500=69.000,99.500=138.000,199.500=69.000;
#STOPS:40.000=1.304
,60.500=0.420
;
#BGCHANGES:;
// cache tags:
#FIRSTBEAT:8.000;
#LASTBEAT:201.000;
#SONGFILENAME:Songs/Rodd's Rad Christmas Pack/Miracle Moon ~L.E.D.LIGHT STYLE MIX~ (Rodd Steps)/Miracle Moon ~L.E.D.LIGHT STYLE MIX~ (Rodd Steps).sm;
#HASMUSIC:1;
#HASBANNER:1;
#MUSICLENGTH:99.422;
// end cache tags

//---------------dance-single - R. Farias----------------
#NOTES:
     dance-single:
     R. Farias:
     Challenge:
     9:
     0.714,1.000,0.091,0.151,0.780,473.000,9.000,15.000,4.000,1.000:

0000
0000
0000
0000
,
0000
0000
0000
0000
,
0001
0000
0000
0000
0100
0000
0010
0000
1000
0000
0000
0001
0000
0000
1000
0000
,
0100
0000
0000
0000
0010
0000
0001
0000
0100
0000
0000
0010
0000
0000
1000
0001
,
1000
0000
0000
0000
0100
0000
0010
0000
0001
0000
0000
0100
0000
0000
0010
0000
,
1010
0100
0101
1000
0001
0001
0001
0001
,
0011
0000
0001
0000
0100
0000
0010
1000
0001
0000
1000
0100
0000
0010
0001
0000
,
0100
0000
0010
0000
1000
0000
0100
0010
0100
0000
0010
0001
0000
0100
0010
1000
,
0010
0000
1000
0000
0100
0000
1000
0100
0010
0000
0001
0100
0000
0010
1000
0000
,
0001
1000
0100
0010
0001
0010
0100
1000
0001
0100
0010
1000
0001
0100
0010
1000
,
0MM2
0000
0000
0000
10M3
0000
0100
0000
0010
0000
0001
0000
0100
0000
0010
0000
1000
0000
0001
0000
1001
0000
1000
0000
0100
0000
0010
0002
0000
0003
0100
0000
,
0010
0000
1000
0001
1000
0000
0100
0000
0010
0000
0001
0100
0010
0000
0100
0000
0001
0000
1000
0100
0010
0000
0001
0100
0010
0000
0100
0010
1000
0000
0001
1000
,
0100
0010
0001
0100
0010
0000
0000
0000
1000
0000
0000
0000
0100
0000
0000
0000
0010
0000
0001
0000
0000
0000
0100
0000
0010
0000
0000
0000
1000
0000
0001
0000
,
0000
0000
1000
0000
0100
0000
0010
0000
0001
0100
0000
0010
1000
0000
0001
0000
,
1000
0200
0000
0000
0001
0000
0000
0000
1000
0000
0000
0000
0010
0000
0000
0000
,
1300
0100
002M
0000
0032
0000
0000
0000
0003
0100
0010
0000
1001
0000
1000
0000
,
0100
0000
0010
0000
0001
0100
0000
0010
1000
0000
0100
0000
0010
0000
0001
0000
,
0100
0000
0010
0000
1000
0100
0000
1000
0010
0000
0100
0000
0001
1000
0100
0000
,
0010
0001
0100
0010
0000
1000
0000
0200
0000
0300
0010
0000
0010
0000
0100
0000
,
1000
0100
0010
0001
0000
0200
0000
0310
1000
0000
1001
0000
0001
0000
0100
0000
,
0010
0000
1000
0000
0100
0010
0000
0001
0100
0000
0010
1000
0000
0000
0001
0000
,
1000
0000
0100
0000
0010
0001
0000
0001
0100
0000
0010
0000
0100
0001
1000
0100
,
1000
0001
0100
0001
1000
0100
1000
0001
0100
0001
0100
0010
1000
0100
0020
0000
,
0000
0000
0000
0000
0000
0000
0031
0100
0010
1000
0001
2000
0000
3100
0020
0000
,
0000
0000
0000
0000
0000
0000
0000
0000
0000
0000
0000
0000
0031
0000
0100
0000
0010
0000
1000
0000
0100
0000
0010
0001
0100
0000
0010
0000
1001
0000
0000
0000
,
1000
0100
0010
0000
0001
0100
0010
0000
1000
0100
0010
0000
0001
0100
0010
0000
,
0100
0001
1000
0000
0100
0010
0100
0000
0010
0001
1000
0000
0001
0100
0010
0000
,
0100
0010
0100
0000
0010
1000
0001
0000
1000
0001
1000
0000
0100
0010
0100
0000
,
0010
0001
0100
0010
1000
0001
1000
0100
,
0010
0000
0010
0000
0001
0000
1000
0000
1000
0000
0001
0100
0010
1000
0001
0000
,
1000
0000
0100
0000
0010
0000
0001
0100
0001
0100
0010
1000
0010
1000
0010
0000
,
1000
0000
0001
0000
1000
0000
0100
0000
0000
0010
0000
0000
0001
0000
0100
0000
,
0010
0000
1000
0000
1000
0001
1000
0000
0100
0010
0000
0100
0010
0001
0100
0000
,
0010
0000
1000
0000
0100
0000
0010
0000
0000
0001
0000
0000
1000
0001
0100
0000
,
0010
0000
1000
0000
0100
0020
0000
0000
0031
0000
0100
0000
0010
0000
1010
0000
,
1000
0000
0001
0000
1000
0000
0100
0000
0000
0010
0000
0001
0100
0010
1000
0000
,
1000
0000
0100
0000
1000
0000
0010
0000
1000
0100
0000
0100
0010
0100
0010
0000
,
0001
0100
0010
0000
1000
0100
0010
0000
0001
0010
0100
0000
1000
0100
0010
0000
,
0001
0000
0100
0000
0100
0020
0000
0000
1030
0001
1000
0001
1000
0001
1000
0000
,
0100
0000
0010
0000
0001
0000
0100
0000
0000
0010
0000
0000
1000
0000
0001
0000
,
1000
0000
0100
0000
0010
0000
0001
0000
0100
0010
0000
0100
0010
1000
0001
0000
,
1000
0000
0100
0000
1000
0000
0001
0000
0000
0100
0000
0000
0010
0000
1000
0000
,
0100
0000
0010
0000
0001
0100
0000
0001
0100
0010
1000
0000
0100
0000
0110
0000
,
0010
0000
0001
0000
1000
0000
0001
0000
0000
1000
0000
0000
0001
0000
0100
0000
,
0010
0000
1000
0000
0100
0000
0010
0000
0010
0001
0000
0010
0001
0100
0010
0000
,
0100
0000
0010
0000
0100
0000
0001
0000
0000
1000
0000
0000
0100
0000
0010
0000
,
0100
0000
1000
0000
0001
0100
0000
0000
0010
0000
0100
0000
0010
0000
1000
0000
,
0100
0010
0001
0000
0100
0010
1000
0000
1000
0100
0000
0100
0010
0000
0001
0000
,
0100
0010
1000
0000
0001
1000
0001
0000
1000
0100
0000
1000
0010
0100
0001
0000
,
1000
0000
0100
0000
0010
0000
0002
0000
0000
0200
0000
0000
0020
0000
0000
0000
,
0000
0333
0000
0000
;
