#TITLE:Got To Be Better;
#SUBTITLE:(Step Off Mix);
#ARTIST:D-Noiser;
#TITLETRANSLIT:;
#SUBTITLETRANSLIT:;
#ARTISTTRANSLIT:;
#CREDIT:owenviau1;
#BANNER:BN.png;
#BACKGROUND:BG.png;
#LYRICSPATH:;
#CDTITLE:../CDTitleOV1.png;
#MUSIC:Got To Be Better (Step Off Mix).ogg;
#OFFSET:-0.380;
#SAMPLESTART:37.577;
#SAMPLELENGTH:29.999;
#SELECTABLE:YES;
#DISPLAYBPM:157.847;
#BPMS:0.000=157.847,1.000=315.694,3.000=157.847,17.000=631.388,19.000=157.847;
#STOPS:1.000=0.190
,2.000=0.190
,17.000=0.280
,18.000=0.280
;
#BGCHANGES:;
// cache tags:
#FIRSTBEAT:1.000;
#LASTBEAT:902.000;
#SONGFILENAME:Songs/owenviau1 Simfiles 07_final/Got To Be Better - [owenviau1] v1.0.3/Got To Be Better.sm;
#HASMUSIC:1;
#HASBANNER:1;
#MUSICLENGTH:345.182;
// end cache tags

//---------------dance-single - 14.52 (14+) (owenvia----------------
#NOTES:
     dance-single:
     14.52 (14+) (owenvia:
     Challenge:
     14:
     1.000,1.000,0.151,0.032,1.000,3211.000,52.000,11.000,10.000,2.000:
0000
0000
0000
0000
0000
0000
0000
0000
0000
0000
0000
0000
0000
0000
0000
0000
0000
0000
0000
0000
0000
0000
0000
0000
0000
0000
0000
0000
0000
0000
0000
0000
0000
0000
0000
0000
0000
0000
0000
0000
0000
0000
0000
0000
0000
0000
0000
0000
0002
0000
0000
0000
0000
0000
0000
0000
0000
0000
0000
0000
0000
0000
0000
0000
0000
0000
0000
0000
0000
0000
0000
0000
0000
0000
0000
0000
0000
0000
0000
0000
0000
0000
0000
0000
0000
0000
0000
0000
0000
0000
0000
0000
0003
0000
0000
0000
0002
0000
0000
0000
0000
0000
0000
0000
0000
0000
0000
0000
0000
0000
0000
0000
0000
0000
0000
0000
0000
0000
0000
0000
0000
0000
0000
0000
0000
0000
0000
0000
0000
0000
0000
0000
0000
0000
0000
0000
0000
0000
0000
0000
0000
0000
0000
0000
0000
0000
0003
0000
0000
0000
0000
0000
0000
0000
0000
0000
0000
0000
0000
0000
0000
0000
0000
0000
0000
0000
0000
0000
0000
0000
0000
0000
0000
0000
0000
0000
0000
0000
0000
0000
0000
0000
0000
0000
0000
0000
0000
0000
0000
0000
0000
0000
,
0000
0000
0000
0000
,
0000
0000
0000
0000
,
0000
0000
0000
0000
,
0000
0000
0000
0000
0000
0000
0000
0000
0000
0000
0000
0000
0000
0000
0000
0000
0000
0000
0000
0000
0000
0000
0000
0000
0000
0000
0000
0000
0000
0000
0000
0000
0000
0000
0000
0000
0000
0000
0000
0000
0000
0000
0000
0000
0000
0000
0000
0000
2000
0000
0000
0000
0000
0000
0000
0000
0000
0000
0000
0000
0000
0000
0000
0000
0000
0000
0000
0000
0000
0000
0000
0000
0000
0000
0000
0000
0000
0000
0000
0000
0000
0000
0000
0000
0000
0000
0000
0000
0000
0000
0000
0000
3000
0000
0000
0000
2000
0000
0000
0000
0000
0000
0000
0000
0000
0000
0000
0000
0000
0000
0000
0000
0000
0000
0000
0000
0000
0000
0000
0000
0000
0000
0000
0000
0000
0000
0000
0000
0000
0000
0000
0000
0000
0000
0000
0000
0000
0000
0000
0000
0000
0000
0000
0000
0000
0000
3000
0000
0000
0000
0000
0000
0000
0000
0000
0000
0000
0000
0000
0000
0000
0000
0000
0000
0000
0000
0000
0000
0000
0000
0000
0000
0000
0000
0000
0000
0000
0000
0000
0000
0000
0000
0000
0000
0000
0000
0000
0000
0000
0000
0000
0000
,
0000
0000
0000
0000
,
0000
0000
0000
0000
,
0000
0000
0000
0000
,
0000
0000
0000
0000
100M
0100
0010
0001
M100
0010
1000
0001
0100
0010
1000
0100
,
0010
0001
0100
0010
1000
0001
0010
0100
1000
0010
0100
0010
1000
0001
0010
0001
,
0100
0010
1000
0100
0010
0001
0100
0010
1000
0001
0100
0001
1000
0100
0010
0001
,
0100
0010
0100
0001
1000
0010
0100
0001
1000
0100
0010
0001
0100
0010
1000
0001
,
0100
0001
1000
0010
100M
0100
0010
0001
M100
0010
1000
0001
0010
0001
1000
0100
,
0010
0001
1000
0010
1000
0100
0010
0001
0100
0010
1000
0001
0010
0100
1000
0100
,
0010
0001
0100
0010
0100
0001
1000
0001
0100
0010
1000
0100
0010
0001
0100
0010
,
1000
0001
0100
0001
1000
0100
0010
0001
0100
0010
1000
0001
0010
0100
1000
0010
,
0100
0001
1000
0100
100M
0010
0100
0001
M010
0100
1000
0001
1000
0100
0010
0001
,
0100
0010
1000
0001
0100
0010
1000
0100
0010
0001
0100
0010
1000
0001
0010
0100
,
1000
0010
0100
0010
1000
0001
0010
0001
0100
0010
1000
0100
0010
0001
0100
0010
,
1000
0001
0100
0001
1000
0100
0010
0001
0100
0010
0100
0001
1000
0010
0100
0001
,
1000
0100
0010
0001
M100
0010
1000
0001
01M0
0001
1000
0010
1000
0100
0010
0001
,
0100
0010
1000
0001
0010
0001
1000
0100
0010
0001
1000
0010
1000
0100
0010
0001
,
0100
0010
1000
0001
0010
0100
1000
0100
0010
0001
0100
0010
0100
0001
1000
0001
,
0100
0010
1000
0100
0010
0001
0100
0010
1000
0001
0100
0001
1000
0100
0010
0001
,
0100
0010
1000
0001
0010
0100
1000
0010
0100
0001
1000
0100
1000
0010
0100
0001
,
1000
0100
0010
0001
0100
0001
0010
0100
1000
0010
0100
0001
0100
0010
1000
0001
,
0100
0000
0010
0000
1000
0100
0010
0001
0100
0010
1000
0001
0010
0001
1000
0100
,
0010
0001
0100
0010
1000
0001
0100
0001
0010
0100
1000
0010
0100
0001
0100
0010
,
1000
0100
0010
0001
1000
0010
0100
0001
1000
0100
0010
0001
0100
0010
1000
0001
,
0010
0100
1000
0010
0100
0001
1000
0100
0010
0001
1000
0001
0100
0010
1000
0001
,
0100
0000
0010
0000
1000
0100
0010
0001
1000
0010
1000
0100
0010
0001
0100
0010
,
1000
0001
0010
0100
1000
0001
0010
0001
1000
0100
0010
0001
0100
0010
0100
0001
,
1000
0100
0010
0001
0100
0010
1000
0001
0100
0001
1000
0100
0010
0001
0100
0010
,
1000
0001
0010
0001
0100
0010
1000
0100
0010
0001
1000
0010
1000
0100
0010
0001
,
0100
0000
0010
0000
1000
0001
0010
0100
1000
0010
0100
0010
1000
0100
0010
0001
,
0100
0010
1000
0001
0010
0001
0100
0010
1000
0100
0010
0001
0100
0001
1000
0010
,
0100
0001
1000
0100
0010
0001
0100
0010
0100
0001
1000
0001
0100
0010
1000
0100
,
0010
0001
1000
0010
1000
0100
0010
0001
0100
0010
1000
0001
0010
0100
1000
0010
,
0100
0000
0001
0000
1000
0100
0010
0001
0100
0010
1000
0001
0010
0001
1000
0100
,
0010
0001
1000
0010
1000
0100
0010
0001
0100
0010
1000
0001
0010
0100
1000
0100
,
0010
0001
0100
0010
0100
0001
1000
0001
0100
0010
1000
0100
0010
0001
0100
0010
,
1000
0001
0100
0001
1000
0100
0010
0001
0100
0010
1000
0001
0010
0100
1000
0010
,
0100
0001
1000
0100
1000
0010
0100
0001
1000
0100
0010
0001
0100
0001
0010
0100
,
1000
0010
0100
0001
0100
0010
1000
0001
1000
0100
0010
0001
0100
0010
1000
0001
,
0010
0001
1000
0100
0010
0001
1000
0010
1000
0100
0010
0001
0100
0010
1000
0001
,
0010
0100
1000
0100
0010
0001
0100
0010
0100
0001
1000
0001
0100
0010
1000
0100
,
0010
0001
0100
0010
1000
0001
0100
0001
1000
0100
0010
0001
0100
0010
1000
0001
,
0010
0100
1000
0010
0100
0001
1000
0100
1000
0010
0100
0001
1000
0100
0010
0001
,
0100
0010
1000
0001
0100
0000
0010
0000
1000
0000
0100
0000
0010
0000
0001
0000
,
1000
0010
1000
0100
0010
0001
0100
0010
,
1000
0001
0010
0100
1000
0010
0100
0001
,
1000
0100
0010
0001
1000
0010
1000
0001
,
0010
0100
1000
0001
0100
0001
1000
0100
,
0010
0001
0100
0010
1000
0001
0010
0001
,
1000
0100
1000
0010
0100
0001
1000
0100
,
0010
0001
0100
0010
1000
0010
0100
0001
,
1000
0000
0100
0000
0010
0001
0100
0010
1000
0100
0010
0001
0100
0010
1000
0001
,
0010
0001
1000
0100
0010
0001
1000
0010
1000
0100
0010
0001
0100
0010
1000
0001
,
0010
0100
1000
0100
0010
0001
0100
0010
0100
0001
1000
0001
0100
0010
1000
0100
,
0010
0001
0100
0010
1000
0001
0100
0001
1000
0100
0010
0001
0100
0010
1000
0001
,
0010
0100
1000
0010
0100
0001
1000
0100
1000
0010
0100
0001
1000
0100
0010
0001
,
0100
0001
0010
0100
1000
0010
0100
0001
0100
0010
1000
0001
0100
0010
1000
0100
,
0010
0001
0100
0010
1000
0000
0010
0000
0100
0001
0010
0100
1000
0010
0100
0000
,
0001
0000
0000
1000
0010
0000
0100
0000
0001
0000
1000
0000
0100
0000
0010
0000
,
0001
0000
0100
0000
0001
1000
0010
0100
0001
0010
0001
1000
0100
0010
0001
1000
,
0010
1000
0100
0010
0001
0100
0010
1000
0001
0010
0100
1000
0100
0010
0001
0100
,
0010
0100
0001
1000
0001
0100
0010
1000
0100
0010
0001
0100
0010
1000
0001
0100
,
0001
1000
0100
0010
0001
0100
0010
1000
0001
0010
0100
1000
0010
0100
0001
1000
,
0100
1000
0010
0100
0001
1000
0100
0010
0001
0100
0001
0010
0100
1000
0010
0100
,
0001
0100
0010
1000
0001
1000
0100
0010
0001
0100
0010
1000
0001
0010
0001
1000
,
0100
0010
0001
1000
0010
1000
0100
0010
0001
0100
0010
1000
0001
0010
0100
1000
,
0100
0010
0001
0100
0010
0100
0001
1000
0001
0100
0010
1000
0100
0010
0001
0100
,
0010
1000
0001
0100
0001
1000
0100
0010
0001
0100
0010
1000
0001
0010
0100
1000
,
0010
0100
0001
1000
0100
1000
0010
0100
0001
1000
0100
0010
0001
0100
0010
1000
,
0001
0100
0010
1000
0001
0010
0001
1000
0100
0010
0001
1000
0010
1000
0100
0010
,
0001
0100
0010
1000
0001
0010
0100
1000
0100
0010
0001
0100
0010
0100
0001
1000
,
0001
0100
0010
1000
0100
0010
0001
0100
0010
1000
0001
0100
0001
1000
0100
0010
,
0001
0100
0010
1000
0001
0010
0100
1000
0010
0100
0001
1000
0100
1000
0010
0100
,
0001
1000
0100
0010
0001
0100
0001
0010
0100
1000
0010
0100
0001
0100
0010
1000
,
0001
1000
0100
0010
0001
0100
0010
1000
0001
0010
0001
1000
0100
0010
0001
1000
,
0010
1000
0100
0010
0001
0100
0010
1000
0001
0010
0100
1000
0100
0010
0001
0100
,
0010
0100
0001
1000
0001
0100
0010
1000
0100
0010
0001
0100
0010
1000
0001
0100
,
0001
1000
0100
0010
0001
0100
0010
1000
0001
0010
0100
1000
0010
0100
0001
1000
,
0100
1000
0010
0100
0001
1000
0100
0010
0001
0100
0010
1000
0001
0100
0010
1000
,
0001
0010
0001
1000
0100
0010
0001
1000
0010
1000
0100
0010
0001
0100
0010
1000
,
0001
0010
0100
1000
0100
0010
0001
0100
0010
0100
0001
1000
0001
0100
0010
1000
,
0100
0010
0001
0100
0010
1000
0001
0100
0001
1000
0100
0010
0001
0100
0010
1000
,
0001
0010
0100
1000
0010
0100
0001
1000
0100
1000
0010
0100
0001
1000
0100
0010
,
0001
0100
0001
0010
0100
1000
0010
0100
0001
0100
0010
1000
0001
1000
0100
0010
,
0001
0100
0010
1000
0001
0010
0001
1000
0100
0010
0001
1000
0010
1000
0100
0010
,
0001
0100
0010
1000
0001
0010
0100
1000
0100
0010
0001
0100
0010
0100
0001
1000
,
0001
0100
0010
1000
0100
0010
0001
0100
0010
1000
0001
0100
0001
1000
0100
0010
,
0001
0100
0010
1000
0001
0010
0100
1000
0010
0100
0001
1000
0100
1000
0010
0100
,
0001
1000
0100
0010
0001
0100
0010
1000
0001
0100
0010
1000
0001
0010
0001
1000
,
0100
0010
0001
1000
0010
1000
0100
0010
0001
0100
0010
1000
0001
0010
0100
1000
,
0100
0010
0001
0100
0010
0100
0001
1000
0001
0100
0010
1000
0100
0010
0001
0100
,
0010
1000
0001
0100
0001
1000
0100
0010
0001
0100
0010
1000
0001
0010
0100
1000
,
0010
0100
0001
1000
0100
1000
0010
0100
0001
1000
0100
0010
0001
0100
0001
0010
,
0100
1000
0010
0100
0001
0100
0010
1000
0001
1000
0100
0010
0001
0100
0010
1000
,
0001
0010
0001
1000
0100
0010
0001
1000
0010
1000
0100
0010
0001
0100
0010
1000
,
0001
0010
0100
1000
0100
0010
0001
0100
0010
0100
0001
1000
0001
0100
0010
1000
,
0100
0010
0001
0100
0010
1000
0001
0100
0001
1000
0100
0010
0001
0100
0010
1000
,
0001
0010
0100
1000
0010
0100
0001
1000
0100
1000
0010
0100
0001
1000
0100
0010
,
0001
0100
0010
1000
0001
0010
0001
1000
0100
0010
0001
1000
0010
1000
0100
0010
,
0001
0100
0010
1000
0001
0010
0100
1000
0100
0010
0001
0100
0010
0100
0001
1000
,
0001
0100
0010
1000
0100
0010
0001
0100
0010
1000
0001
0100
0001
1000
0100
0010
,
0001
0100
0010
1000
0001
0010
0100
1000
0010
0100
0001
1000
0100
1000
0010
0100
,
0001
1000
0100
0010
0001
0100
0001
0010
0100
1000
0010
0100
0001
0100
0010
1000
,
0001
1000
0100
0010
0001
0100
0010
1000
0001
0010
0001
1000
0100
0010
0001
1000
,
0010
1000
0100
0010
0001
0100
0010
1000
0001
0010
0100
1000
0100
0010
0001
0100
,
0010
0100
0001
1000
0001
0100
0010
1000
0100
0010
0001
0100
0010
1000
0001
0100
,
0001
1000
0100
0010
0001
0100
0010
1000
0001
0010
0100
1000
0010
0100
0001
1000
,
0100
1000
0010
0100
0001
1000
0100
0010
0001
0100
0010
1000
0001
0100
0010
1000
,
0001
0010
0001
1000
0100
0010
0001
1000
0010
1000
0100
0010
0001
0100
0010
1000
,
0001
0010
0100
1000
0100
0010
0001
0100
0010
0100
0001
1000
0001
0100
0010
1000
,
0100
0010
0001
0100
0010
1000
0001
0100
0001
1000
0100
0010
0001
0100
0010
1000
,
0001
0010
0100
1000
0010
0100
0001
1000
0100
1000
0010
0100
0001
1000
0100
0010
,
0001
0100
0001
0010
0100
1000
0010
0100
0001
0100
0010
1000
0001
1000
0100
0010
,
0001
0100
0010
1000
0001
0010
0001
1000
0100
0010
0001
1000
0010
1000
0100
0010
,
0001
0100
0010
1000
0001
0010
0100
1000
0100
0010
0001
0100
0010
0100
0001
1000
,
0001
0100
0010
1000
0100
0010
0001
0100
0010
1000
0001
0100
0001
1000
0100
0010
,
0001
0100
0010
1000
0001
0010
0100
1000
0010
0100
0001
1000
0100
1000
0010
0100
,
0001
1000
0100
0010
0001
0100
0010
1000
0001
0100
0010
1000
0001
0010
0001
1000
,
0100
0010
0001
1000
0010
1000
0100
0010
0001
0100
0010
1000
0001
0010
0100
1000
,
0100
0010
0001
0100
0010
0100
0001
1000
0001
0100
0010
1000
0100
0010
0001
0100
,
0010
1000
0001
0100
0001
1000
0100
0010
0001
0100
0010
1000
0001
0010
0100
1000
,
0010
0100
0001
1000
0100
1000
0010
0100
0001
1000
0100
0010
0001
0100
0001
0010
,
0100
1000
0010
0100
0001
0100
0010
1000
0001
1000
0100
0010
0001
0100
0010
1000
,
0001
0010
0001
1000
0100
0010
0001
1000
0010
1000
0100
0010
0001
0100
0010
1000
,
0001
0010
0100
1000
0100
0010
0001
0100
0010
0100
0001
1000
0001
0100
0010
1000
,
0100
0010
0001
0100
0010
1000
0001
0100
0001
1000
0100
0010
0001
0100
0010
1000
,
0001
0010
0100
1000
0010
0100
0001
1000
0100
1000
0010
0100
0001
1000
0100
0010
,
0001
0100
0010
1000
0001
0100
0010
1000
0001
0010
0001
1000
0100
0010
0001
1000
,
0010
1000
0100
0010
0001
0100
0010
1000
0001
0010
0100
1000
0100
0010
0001
0100
,
0010
0100
0001
1000
0001
0100
0010
1000
0100
0010
0001
0100
0010
1000
0001
0100
,
0001
1000
0100
0010
0001
0100
0010
1000
0001
0010
0100
1000
0010
0100
0001
1000
,
0100
1000
0010
0100
0001
1000
0100
0010
0001
0100
0001
0010
0100
1000
0010
0100
,
0001
0100
0010
1000
0001
1000
0100
0010
0001
0100
0010
1000
0001
0010
0001
1000
,
0100
0010
0001
1000
0010
1000
0100
0010
0001
0100
0010
1000
0001
0010
0100
1000
,
0100
0010
0001
0100
0010
0100
0001
1000
0001
0100
0010
1000
0100
0010
0001
0100
,
0010
1000
0001
0100
0001
1000
0100
0010
0001
0100
0010
1000
0001
0010
0100
1000
,
0010
0100
0001
1000
0100
1000
0010
0100
0001
1000
0010
0100
0001
0010
0001
1000
,
0100
0010
0001
1000
0010
1000
0100
0010
0001
0100
0010
1000
0001
0010
0100
1000
,
0100
0010
0001
0100
0010
0100
0001
1000
0001
0100
0010
1000
0100
0010
0001
0100
,
0010
1000
0001
0100
0001
1000
0100
0010
0001
0100
0010
1000
0001
0010
0100
1000
,
0010
0100
0001
1000
0100
1000
0010
0100
0001
1000
0100
0010
0001
0100
0001
0010
,
0100
1000
0010
0100
0001
0100
0010
1000
0001
1000
0100
0010
0001
0100
0010
1000
,
0001
0010
0001
1000
0100
0010
0001
1000
0010
1000
0100
0010
0001
0100
0010
1000
,
0001
0010
0100
1000
0100
0010
0001
0100
0010
0100
0001
1000
0001
0100
0010
1000
,
0100
0010
0001
0100
0010
1000
0001
0100
0001
1000
0100
0010
0001
0100
0010
1000
,
0001
0010
0100
1000
0010
0100
0001
1000
0100
1000
0010
0100
0001
1000
0100
0010
,
0001
0100
0010
1000
0001
0100
0010
1000
0001
0010
0001
1000
0100
0010
0001
1000
,
0010
0000
1000
0000
0100
0000
0010
0000
0002
0000
0000
0000
0000
0000
0000
0000
0000
0000
0000
0000
0000
M000
0000
0000
0003
0000
M000
0000
0000
0000
0000
0000
,
0000
0220
1331
1010
,
0110
1001
1100
0110
,
0011
0101
1010
0110
,
1001
0101
1100
0110
,
0011
2002
3113
1010
,
0110
1001
1100
0011
,
0110
1001
1010
0101
,
0110
1001
1100
0011
,
0110
0000
1010
0100
0010
0001
0100
0010
,
1000
0001
0101
0010
0100
1000
0001
0100
,
0001
1000
0110
0100
0001
1000
0100
0010
,
0001
0100
1010
1000
0001
0100
0010
1000
,
0100
0010
1001
0001
0100
0010
0110
1000
,
0001
0100
0101
0010
1000
0100
1010
0100
,
0001
1000
1010
0100
0110
0001
0101
1000
,
1001
0010
1100
0110
0011
1001
0101
0110
,
1010
0000
0101
0000
1000
0100
0010
0001
0100
0010
1000
0001
0010
0001
1000
0100
,
0010
0001
1000
0010
1000
0100
0010
0001
0100
0010
1000
0001
0010
0100
1000
0100
,
0010
0001
0100
0010
0100
0001
1000
0001
0100
0010
1000
0100
0010
0001
0100
0010
,
1000
0001
0100
0001
1000
0100
0010
0001
0100
0010
1000
0001
0010
0100
1000
0010
,
0100
0001
1000
0100
1000
0010
0100
0001
1000
0100
0010
0001
0100
0001
0010
0100
,
1000
0010
0100
0001
0100
0010
1000
0001
0100
0010
1000
0100
0010
0001
0100
0010
,
1000
0100
0010
0001
0100
0010
1000
0001
0010
0001
1000
0100
0010
0001
1000
0010
,
1000
0100
0010
0001
0100
0010
1000
0001
0010
0100
1000
0100
0010
0001
0100
0010
,
0100
0001
1000
0001
0100
0010
1000
0100
0010
0001
0100
0010
1000
0001
0100
0001
,
1000
0100
0010
0001
0100
0010
1000
0001
0010
0100
1000
0010
0100
0001
1000
0100
,
1000
0010
0100
0001
1000
0100
0010
0001
0100
0001
0010
0100
1000
0010
0100
0001
,
0100
0010
1000
0001
0100
0010
1000
0100
0010
0001
0100
0010
1000
0100
0010
0001
,
0100
0010
1000
0001
0010
0001
1000
0100
0010
0001
1000
0010
1000
0100
0010
0001
,
0100
0010
1000
0001
0010
0100
1000
0100
0010
0001
0100
0010
0100
0001
1000
0001
,
0100
0010
1000
0100
0010
0001
0100
0010
1000
0001
0100
0001
1000
0100
0010
0001
,
0100
0010
1000
0001
0010
0100
1000
0010
0100
0001
1000
0100
1000
0010
0100
0001
,
1000
0100
0010
0001
0100
0001
0010
0100
1000
0010
0100
0001
0100
0010
1000
0001
,
0100
0010
1000
0100
0010
0001
0100
0010
1000
0100
0010
0001
0100
0010
1000
0001
,
0010
0001
1000
0100
0010
0001
1000
0010
1000
0100
0010
0001
0100
0010
1000
0001
,
0010
0100
1000
0100
0010
0001
0100
0010
0100
0001
1000
0001
0100
0010
1000
0100
,
0010
0001
0100
0010
1000
0001
0100
0001
1000
0100
0010
0001
0100
0010
1000
0001
,
0010
0100
1000
0010
0100
0001
1000
0100
1000
0010
0100
0001
1000
0100
0010
0001
,
0100
0001
0010
0100
1000
0010
0100
0001
0100
0010
1000
0001
0100
0010
1000
0100
,
0010
0001
0100
0010
1000
0100
0010
0001
0100
0010
1000
0001
0010
0001
1000
0100
,
0010
0001
1000
0010
1000
0100
0010
0001
0100
0010
1000
0001
0010
0100
1000
0100
,
0010
0001
0100
0010
0100
0001
1000
0001
0100
0010
1000
0100
0010
0001
0100
0010
,
1000
0001
0100
0001
1000
0100
0010
0001
0100
0010
1000
0001
0010
0100
1000
0010
,
0100
0001
1000
0100
1000
0010
0100
0001
1000
0100
0010
0001
0100
0001
0010
0100
,
1000
0010
0100
0001
0100
0010
1000
0001
0100
0010
1000
0100
0010
0001
0100
0010
,
1000
0100
0010
0001
0100
0010
1000
0001
0010
0001
1000
0100
0010
0001
1000
0010
,
1000
0100
0010
0001
0100
0010
1000
0001
0010
0100
1000
0100
0010
0001
0100
0010
,
0100
0001
1000
0001
0100
0010
1000
0100
0010
0001
0100
0010
1000
0001
0100
0001
,
1000
0100
0010
0001
0100
0010
1000
0001
0010
0100
1000
0010
0100
0001
1000
0100
,
1000
0010
0100
0001
1000
0100
0010
0001
0100
0001
0010
0100
1000
0010
0100
0001
,
0100
0010
1000
0001
0100
0010
1000
0100
0010
0001
0100
0010
1000
0100
0010
0001
,
0100
0010
1000
0001
0010
0001
1000
0100
0010
0001
1000
0010
1000
0100
0010
0001
,
0100
0010
1000
0001
0010
0100
1000
0100
0010
0001
0100
0010
0100
0001
1000
0001
,
0100
0010
1000
0100
0010
0001
0100
0010
1000
0001
0100
0001
1000
0100
0010
0001
,
0100
0010
1000
0001
0010
0100
1000
0010
0100
0001
1000
0100
1000
0010
0100
0001
,
1000
0100
0010
0001
0100
0001
0010
0100
1000
0010
0100
0001
0100
0010
1000
0001
,
0100
0010
1000
0100
0010
0001
0100
0010
1000
0100
0010
0001
0100
0010
1000
0001
,
0010
0001
1000
0100
0010
0001
1000
0010
1000
0100
0010
0001
0100
0010
1000
0001
,
0010
0100
1000
0100
0010
0001
0100
0010
0100
0001
1000
0001
0100
0010
1000
0100
,
0010
0001
0100
0010
1000
0001
0100
0001
1000
0100
0010
0001
0100
0010
1000
0001
,
0010
0100
1000
0010
0100
0001
1000
0100
1000
0010
0100
0001
1000
0100
0010
0001
,
0100
0001
0010
0100
1000
0010
0100
0001
0100
0010
1000
0001
0100
0010
1000
0100
,
0010
0001
0100
0010
1000
0100
0010
0001
0100
0010
1000
0001
0010
0001
1000
0100
,
0010
0001
1000
0010
1000
0100
0010
0001
0100
0010
1000
0001
0010
0100
1000
0100
,
0010
0001
0100
0010
0100
0001
1000
0001
0100
0010
1000
0100
0010
0001
0100
0010
,
1000
0001
0100
0001
1000
0100
0010
0001
0100
0010
1000
0001
0010
0100
1000
0010
,
0100
0001
1000
0100
1000
0010
0100
0001
1000
0100
0010
0001
0100
0001
0010
0100
,
1000
0010
0100
0001
0100
0010
1000
0001
0100
0010
1000
0100
0010
0001
0100
0010
,
1000
0100
0010
0001
0100
0010
1000
0001
0100
0000
0010
1000
0100
0010
0001
0100
,
0010
0000
1000
0100
0010
0001
0100
0010
1000
0000
0100
0010
0001
0100
0010
1000
,
0001
0000
0010
0100
1000
0001
0100
0010
0100
0000
0001
1000
0100
0010
0001
0100
,
0010
0000
1000
0001
1000
0100
0010
0001
0100
0010
1000
0001
0010
0100
1000
0010
,
0100
0010
1000
0002
0203
0000
0000
0000
0300
0000
0000
0000
0000
0000
0000
0000
;

//---------------dance-single - 12.54 (12+) (owenvia----------------
#NOTES:
     dance-single:
     12.54 (12+) (owenvia:
     Hard:
     12:
     0.978,1.000,0.151,0.029,0.911,2302.000,52.000,10.000,34.000,2.000:

0000
0000
0000
0000
0000
0000
0000
0000
0000
0000
0000
0000
0000
0000
0000
0000
0000
0000
0000
0000
0000
0000
0000
0000
0000
0000
0000
0000
0000
0000
0000
0000
0000
0000
0000
0000
0000
0000
0000
0000
0000
0000
0000
0000
0000
0000
0000
0000
0002
0000
0000
0000
0000
0000
0000
0000
0000
0000
0000
0000
0000
0000
0000
0000
0000
0000
0000
0000
0000
0000
0000
0000
0000
0000
0000
0000
0000
0000
0000
0000
0000
0000
0000
0000
0000
0000
0000
0000
0000
0000
0000
0000
0003
0000
0000
0000
0002
0000
0000
0000
0000
0000
0000
0000
0000
0000
0000
0000
0000
0000
0000
0000
0000
0000
0000
0000
0000
0000
0000
0000
0000
0000
0000
0000
0000
0000
0000
0000
0000
0000
0000
0000
0000
0000
0000
0000
0000
0000
0000
0000
0000
0000
0000
0000
0000
0000
0003
0000
0000
0000
0000
0000
0000
0000
0000
0000
0000
0000
0000
0000
0000
0000
0000
0000
0000
0000
0000
0000
0000
0000
0000
0000
0000
0000
0000
0000
0000
0000
0000
0000
0000
0000
0000
0000
0000
0000
0000
0000
0000
0000
0000
0000
,
0000
0000
0000
0000
,
0000
0000
0000
0000
,
0000
0000
0000
0000
,
0000
0000
0000
0000
0000
0000
0000
0000
0000
0000
0000
0000
0000
0000
0000
0000
0000
0000
0000
0000
0000
0000
0000
0000
0000
0000
0000
0000
0000
0000
0000
0000
0000
0000
0000
0000
0000
0000
0000
0000
0000
0000
0000
0000
0000
0000
0000
0000
2000
0000
0000
0000
0000
0000
0000
0000
0000
0000
0000
0000
0000
0000
0000
0000
0000
0000
0000
0000
0000
0000
0000
0000
0000
0000
0000
0000
0000
0000
0000
0000
0000
0000
0000
0000
0000
0000
0000
0000
0000
0000
0000
0000
3000
0000
0000
0000
2000
0000
0000
0000
0000
0000
0000
0000
0000
0000
0000
0000
0000
0000
0000
0000
0000
0000
0000
0000
0000
0000
0000
0000
0000
0000
0000
0000
0000
0000
0000
0000
0000
0000
0000
0000
0000
0000
0000
0000
0000
0000
0000
0000
0000
0000
0000
0000
0000
0000
3000
0000
0000
0000
0000
0000
0000
0000
0000
0000
0000
0000
0000
0000
0000
0000
0000
0000
0000
0000
0000
0000
0000
0000
0000
0000
0000
0000
0000
0000
0000
0000
0000
0000
0000
0000
0000
0000
0000
0000
0000
0000
0000
0000
0000
0000
,
0000
0000
0000
0000
,
0000
0000
0000
0000
,
0000
0000
0000
0000
,
0000
0000
0000
0000
100M
0000
0100
0000
M010
0000
0001
1000
0000
0100
1000
0000
,
0010
0000
0100
0000
0010
0000
1000
0000
0001
0000
0010
0001
0000
1000
0010
0000
,
0100
0000
0001
0000
1000
0000
0100
0000
0010
0000
0001
1000
0000
0010
0100
0000
,
0010
0000
1000
0000
0001
0000
0010
0000
0100
0000
1000
0010
0000
0100
0001
0000
,
1000
0000
0100
0000
100M
0000
0010
0000
M100
0000
0001
0010
0000
0001
1000
0000
,
0100
0000
0010
0000
0001
0000
1000
0000
0010
0000
0100
0001
0000
1000
0100
0000
,
0010
0000
0001
0000
1000
0000
0100
0000
1000
0000
0010
0100
0000
0010
1000
0000
,
0001
0000
0010
0000
0100
0000
1000
0000
0010
0000
1000
0001
0000
0001
0010
0000
,
0100
0000
1000
0000
001M
0000
0100
0000
001M
0000
1000
0001
0000
0010
0001
0000
,
0100
0000
0010
0000
1000
0000
0001
0000
0010
0000
0100
1000
0000
0010
0100
0000
,
0001
0000
1000
0000
0100
0000
0010
0000
0001
0000
1000
0010
0000
0100
0001
0000
,
1000
0000
0010
0000
0100
0000
0010
0000
1000
0000
0001
0010
0000
0100
1000
0000
,
0010
0000
0100
0000
00M1
0000
1000
0000
010M
0000
1000
0010
0000
0100
0001
0000
,
1000
0000
0010
0000
0100
0000
0001
0000
0010
0000
0100
1000
0000
1000
0001
0000
,
0010
0000
0001
0000
0100
0000
0010
0000
1000
0000
0001
0100
0000
0010
0100
0000
,
0001
0000
1000
0000
0100
0000
0010
0000
0001
0000
1000
0010
0000
0100
0001
0000
,
1000
0000
0100
0000
1000
0000
0010
0000
0100
0000
0001
0010
0100
1000
0010
0000
,
0100
0000
0001
0000
1000
0000
0100
0000
1000
0000
0010
0100
0010
1000
0001
0000
,
0010
0000
MMMM
0000
0100
0000
1000
0000
0010
0000
0100
0001
0100
0010
1000
0000
,
0001
0000
0010
0000
0100
0000
1000
0000
0100
0000
0010
0001
1000
0010
0100
0000
,
0001
0000
0001
0000
0001
0000
1000
0000
0100
0000
1000
0010
0100
0001
0100
0000
,
0010
0000
1000
0000
0001
0000
0010
0000
0100
0000
1000
0010
1000
0001
0100
0000
,
0010
0000
MMMM
0000
0100
0000
1000
0000
0010
0000
0100
0001
1000
0100
1000
0000
,
0010
0000
0100
0000
0010
0000
1000
0000
0001
0000
0010
0100
1000
0010
0100
0000
,
0001
0000
0001
0000
0001
0000
1000
0000
0100
0000
1000
0100
0010
0001
0100
0000
,
0010
0000
1000
0000
0001
0000
0010
0000
0001
0000
0100
0010
1000
0001
0010
0000
,
0100
0000
MMMM
0000
1000
0000
0100
0000
0010
0000
0001
0100
0010
1000
0010
0000
,
0100
0000
0001
0000
0010
0000
0100
0000
1000
0000
0010
0100
0001
1000
0100
0000
,
0010
0000
0001
0000
1000
0000
0010
0000
0100
0000
0010
1000
0001
0010
0100
0000
,
1000
0000
0010
0000
1000
0000
0001
0000
0010
0000
0100
1000
0100
0010
0001
0000
,
1000
0000
MMMM
0000
1000
0000
0010
0000
0100
0000
0001
0010
0100
1000
0010
0000
,
0100
0000
0001
0000
1000
0000
0001
0000
0010
0000
0100
1000
0100
0010
0001
0000
,
0010
0000
0100
0000
1000
0000
0010
0000
0100
0000
0001
1000
0100
0010
0001
0000
,
1000
0000
0010
0000
0100
0000
0001
0000
1000
0000
0100
0010
0001
1000
0010
0000
,
1000
0000
0001
0000
0010
0000
0001
0000
0100
0000
0010
1000
0001
0010
0100
0000
,
1000
0000
0010
0000
0100
0000
0010
0000
1000
0000
0001
0010
0100
1000
0001
0000
,
0100
0000
0010
0000
1000
0001
0100
0010
1000
0100
0010
0001
0100
0010
1000
0001
,
0010
0100
1000
0100
0010
0001
0100
0010
0100
0001
1000
0001
0100
0010
1000
0100
,
0010
0001
0100
0010
1000
0001
0100
0001
1000
0100
0010
0001
0100
0010
1000
0001
,
0010
0100
1000
0010
0100
0001
1000
0100
1000
0010
0100
0001
1000
0100
0010
0001
,
0100
0010
1000
0001
0100
0000
0010
0000
1000
0000
0100
0000
0010
0000
0001
0000
,
1000
0010
1000
0100
0010
0001
0100
0010
,
1000
0001
0010
0100
1000
0010
0100
0001
,
1000
0100
0010
0001
1000
0010
1000
0001
,
0010
0100
1000
0001
0100
0001
1000
0100
,
0010
0001
0100
0010
1000
0001
0010
0001
,
1000
0100
1000
0010
0100
0001
1000
0100
,
0010
0001
0100
0010
1000
0010
0100
0001
,
1000
0000
0010
0000
0100
0000
0001
0000
0010
0000
0001
1000
0000
0100
1000
0000
,
0010
0000
0100
0000
0010
0000
1000
0000
0001
0000
0010
0001
0000
1000
0010
0000
,
0100
0000
0001
0000
1000
0000
0100
0000
0010
0000
0001
1000
0000
0010
0100
0000
,
0010
0000
1000
0000
0001
0000
0010
0000
0100
0000
1000
0010
0000
0100
0001
0000
,
1000
0000
0100
0000
1000
0000
0010
0000
0100
0000
0001
0010
0000
0001
1000
0000
,
0100
0000
0010
0000
0001
0000
1000
0000
0010
0000
0100
0001
0000
1000
0100
0000
,
0010
0000
0001
0000
1000
0000
0010
0000
0100
0001
0010
0100
1000
0010
0100
0000
,
0001
0000
0000
1000
0010
0000
0100
0000
0001
0000
1000
0000
0100
0000
0010
0000
,
0001
0000
0100
0000
0010
1000
0010
0000
0100
0001
1000
0000
0100
0010
0001
0000
,
1000
0010
0100
0000
0010
1000
0001
0000
0010
0100
1000
0000
0001
0010
0001
0000
,
0100
0010
1000
0000
0001
0100
0001
0000
1000
0010
0100
0000
0010
1000
0001
0000
,
0010
0100
1000
0000
0100
0010
0001
0000
1000
0100
1000
0000
0010
0100
0001
0000
,
0010
0100
1000
0000
0010
0100
0001
0000
1000
0010
1000
0000
0001
0100
0001
0000
,
1000
0100
0010
0000
0001
0100
0010
0000
1000
0100
1000
0000
0001
0010
0100
0000
,
1000
0100
0010
0000
0001
1000
0010
0000
0100
0001
1000
0000
0010
0100
0010
0000
,
1000
0001
0100
0000
0010
1000
0100
1000
0001
0010
0100
1000
0010
0100
0010
1000
,
0001
0100
0001
0010
0100
1000
0010
0000
0100
0001
1000
0000
0100
1000
0010
0000
,
0100
0001
1000
0000
0010
0100
0010
0000
1000
0001
0100
0000
0010
1000
0001
0000
,
0010
0001
0100
0000
0010
1000
0001
0000
1000
0100
1000
0000
0010
0100
0010
0000
,
1000
0001
0010
0000
0100
1000
0010
0000
0100
0001
1000
0000
0100
1000
0010
0000
,
0100
0001
0010
0000
0100
1000
0010
0000
1000
0001
0100
0000
0010
0100
0001
0000
,
1000
0100
1000
0000
0010
0100
0001
0000
1000
0010
1000
0000
0001
0100
0010
0000
,
1000
0001
0100
0000
0001
0100
0010
1000
0001
1000
0010
0100
0010
1000
0001
0100
,
0001
1000
0100
0010
0001
0100
0010
1000
0001
0010
0001
1000
0100
0010
0001
1000
,
0010
1000
0100
0010
0001
1000
0010
0000
0100
0001
1000
0000
0100
0010
0001
0000
,
1000
0010
0100
0000
0010
1000
0001
0000
0010
0100
1000
0000
0001
0010
0001
0000
,
0100
0010
1000
0000
0001
0100
0001
0000
1000
0010
0100
0000
0010
1000
0001
0000
,
0010
0100
1000
0000
0100
0010
0001
0000
1000
0100
1000
0000
0010
0100
0001
0000
,
0010
0100
1000
0000
0010
0100
0001
0000
1000
0010
1000
0000
0001
0100
0001
0000
,
1000
0100
0010
0000
0001
0100
0010
0000
1000
0100
1000
0000
0001
0010
0100
0000
,
1000
0100
0010
0000
0001
1000
0010
0000
0100
0001
1000
0000
0010
0100
0010
0000
,
1000
0001
0100
0000
0010
1000
0100
1000
0001
0010
0100
1000
0010
0100
0010
1000
,
0001
0100
0001
0010
0100
1000
0010
0000
0100
0001
1000
0000
0100
1000
0010
0000
,
0100
0001
1000
0000
0010
0100
0010
0000
1000
0001
0100
0000
0010
1000
0001
0000
,
0010
0001
0100
0000
0010
1000
0001
0000
1000
0100
1000
0000
0010
0100
0010
0000
,
1000
0001
0010
0000
0100
1000
0010
0000
0100
0001
1000
0000
0100
1000
0010
0000
,
0100
0001
0010
0000
0100
1000
0010
0000
1000
0001
0100
0000
0010
0100
0001
0000
,
1000
0100
1000
0000
0010
0100
0001
0000
1000
0010
1000
0000
0001
0100
0010
0000
,
1000
0001
0100
0000
0001
0100
0010
1000
0001
1000
0010
0100
0010
1000
0001
0100
,
0001
1000
0100
0010
0001
0100
0010
1000
0001
0010
0001
1000
0100
0010
0001
1000
,
0010
1000
0100
0010
M001
0000
0100
0000
001M
0000
1000
0100
1000
0001
0010
0000
,
0100
0000
1000
0000
0010
0000
0100
0000
0001
0000
1000
0100
0010
0001
0100
0000
,
0010
0000
1000
0000
0001
0000
0100
0000
0010
0000
1000
0100
0010
0001
1000
0000
,
0010
0000
0100
0000
0010
0000
1000
0000
0001
0000
0010
0100
1000
0001
1000
0000
,
0010
0000
0100
0000
001M
0000
1000
0000
00M1
0000
1000
0100
0010
0001
0100
0000
,
0010
0000
1000
0000
0001
0000
0010
0000
0001
0000
1000
0010
0100
0001
0100
0000
,
0010
0000
1000
0000
0100
0000
1000
0000
0001
0000
0010
0100
1000
0001
0100
0000
,
0010
0000
0100
0000
0001
0000
1000
0000
0100
0000
0010
0001
1000
0010
0100
0000
,
0001
0000
1000
0000
01M0
0000
1000
0000
001M
0000
0100
0001
0100
0010
1000
0000
,
0001
0000
0010
0000
0100
0000
1000
0000
0001
0000
0100
0010
0100
0001
1000
0000
,
0100
0000
1000
0000
0010
0000
0100
0000
0001
0000
1000
0100
1000
0010
0100
0000
,
0001
0000
0010
0000
0001
0000
1000
0000
0100
0000
0010
0001
1000
0010
0100
0000
,
0001
0000
1000
0000
01M0
0000
1000
0000
001M
0000
0100
0001
0100
0010
1000
0000
,
0001
0000
0010
0000
0001
0000
0100
0000
0010
0000
0100
0001
1000
0100
1000
0000
,
0010
0000
0100
0000
0001
0000
1000
0000
0100
0000
0010
0001
0100
0010
1000
0000
,
0001
0000
1000
0000
0010
0100
0010
1000
0001
0010
0100
1000
0010
0100
0001
1000
,
0100
1000
0010
0100
0001
0000
1000
0000
0010
0000
0100
0001
0010
0100
1000
0000
,
0001
0000
0100
0000
0010
0000
0100
0000
0001
0000
1000
0100
0010
0001
0100
0000
,
0010
0000
1000
0000
0001
0000
0100
0000
0010
0000
1000
0100
0010
0001
1000
0000
,
0010
0000
0100
0000
0010
0000
1000
0000
0001
0000
0010
0100
1000
0001
1000
0000
,
0010
0000
0100
0000
0010
0000
1000
0000
0001
0000
1000
0100
0010
0001
0100
0000
,
0010
0000
1000
0000
0001
0000
0010
0000
0001
0000
1000
0010
0100
0001
0100
0000
,
0010
0000
1000
0000
0100
0000
1000
0000
0001
0000
0010
0100
1000
0001
0100
0000
,
0010
0000
0100
0000
0001
0000
1000
0000
0100
0000
0010
0001
1000
0010
0100
0000
,
0001
0000
1000
0000
0100
0000
1000
0000
0010
0000
0100
0001
0100
0010
1000
0000
,
0001
0000
0010
0000
0100
0000
1000
0000
0001
0000
0100
0010
0100
0001
1000
0000
,
0100
0000
1000
0000
0010
0000
0100
0000
0001
0000
1000
0100
1000
0010
0100
0000
,
0001
0000
0010
0000
0001
0000
1000
0000
0100
0000
0010
0001
1000
0010
0100
0000
,
0001
0000
1000
0000
0100
0000
1000
0000
0010
0000
0100
0001
0100
0010
1000
0000
,
0001
0000
0010
0000
0001
0000
0100
0000
0010
0000
0100
0001
1000
0100
1000
0000
,
0010
0000
0100
0000
0001
0000
1000
0000
0100
0000
0010
0001
0100
0010
1000
0000
,
0001
0000
0010
0000
0001
0000
1000
0000
0010
0000
0100
0001
0010
0100
1000
0000
,
0001
0000
0100
0000
0010
0000
0100
0000
0001
0000
1000
0100
0010
0001
0100
0000
,
0010
0000
1000
0000
0001
0000
0100
0000
0010
0000
1000
0100
0010
0001
1000
0000
,
0010
0000
0100
0000
0010
0000
1000
0000
0001
0000
0010
0100
1000
0001
1000
0000
,
0010
0000
0100
0000
0010
0000
1000
0000
0001
0000
1000
0100
0010
0001
0100
0000
,
0010
0000
1000
0000
0001
0000
0010
0000
0001
0000
1000
0010
0100
0001
0100
0000
,
0010
0000
1000
0000
0100
0000
1000
0000
0001
0000
0010
0100
1000
0001
0100
0000
,
0010
0000
0100
0000
0001
1000
0100
0010
0001
1000
0010
1000
0100
0010
0001
0100
,
0010
0100
0001
1000
0100
1000
0010
0100
0001
1000
0010
0100
0010
1000
0100
1000
,
0001
0010
0100
1000
0001
0000
1000
0000
0010
0000
0100
0001
0010
0100
1000
0000
,
0001
0000
0100
0000
0010
0000
0100
0000
0001
0000
1000
0100
0010
0001
0100
0000
,
0010
0000
1000
0000
0001
0000
0100
0000
0010
0000
1000
0100
0010
0001
1000
0000
,
0010
0000
0100
0000
0010
0000
1000
0000
0001
0000
0010
0100
1000
0001
1000
0000
,
0010
0000
0100
0000
0010
0000
1000
0000
0001
0000
1000
0100
0010
0001
0100
0000
,
0010
0000
1000
0000
0001
0000
0010
0000
0001
0000
1000
0010
0100
0001
0100
0000
,
0010
0000
1000
0000
0100
0000
1000
0000
0001
0000
0010
0100
1000
0001
0100
0000
,
0010
0000
0100
0000
0001
0000
1000
0000
0100
0000
0010
0001
1000
0010
0100
0000
,
0001
0000
1000
0000
0100
0000
1000
0000
0010
0000
0100
0001
0100
0010
1000
0000
,
0001
0000
0010
0000
0100
0000
1000
0000
0001
0000
0100
0010
0100
0001
1000
0000
,
0100
0000
1000
0000
0010
0000
0100
0000
0001
0000
1000
0100
1000
0010
0100
0000
,
0001
0000
0010
0000
0001
0000
1000
0000
0100
0000
0010
0001
1000
0010
0100
0000
,
0001
0000
1000
0000
0100
0010
0001
1000
0010
0100
0001
1000
0001
0100
0010
1000
,
0100
0010
0001
0100
0010
1000
0001
0100
0001
1000
0100
0010
0001
0100
0010
1000
,
0001
0010
0100
1000
0010
0100
0001
1000
0100
1000
0010
0100
0001
1000
0100
0010
,
0001
0100
0010
1000
0001
0100
0010
1000
0001
0010
0001
1000
0100
0010
0001
1000
,
0010
0000
1000
0000
0100
0000
0010
0000
0002
0000
0000
0000
0000
0000
0000
0000
0000
0000
0000
0000
0000
M000
0000
0000
0003
0000
M000
0000
0000
0000
0000
0000
,
0000
0220
1331
1010
,
0110
1001
1100
0110
,
0011
0101
1010
0110
,
1001
0101
1100
0110
,
0011
2002
3113
1010
,
0110
1001
1100
0011
,
0110
1001
1010
0101
,
0110
1001
1100
0011
,
0110
0000
1010
0100
0010
0001
0100
0010
,
1000
0001
0101
0010
0100
1000
0001
0100
,
0001
1000
0110
0100
0001
1000
0100
0010
,
0001
0100
1010
1000
0001
0100
0010
1000
,
0100
0010
1001
0001
0100
0010
0110
1000
,
0001
0100
0101
0010
1000
0100
1010
0100
,
0001
1000
1010
0100
0110
0001
0101
1000
,
1001
0010
1100
0110
0011
1001
0101
0110
,
1001
0000
1010
0000
0001
1000
0010
0000
0100
0001
1000
0000
0100
0010
0001
0000
,
1000
0010
0100
0000
0010
1000
0001
0000
0010
0100
1000
0000
0001
0010
0001
0000
,
0100
0010
1000
0000
0001
0100
0001
0000
1000
0010
0100
0000
0010
1000
0001
0000
,
0010
0100
1000
0000
0100
0010
0001
0000
1000
0100
1000
0000
0010
0100
0001
0000
,
0010
0100
1000
0000
0010
0100
0001
0000
1000
0010
1000
0000
0001
0100
0001
0000
,
1000
0100
0010
0000
0001
0100
0010
0000
1000
0100
1000
0000
0001
0010
0100
0000
,
1000
0100
0010
0000
0001
1000
0010
0000
0100
0001
1000
0000
0010
0100
0010
0000
,
1000
0001
0100
0000
0010
1000
0100
1000
0001
0010
0100
1000
0010
0100
0010
1000
,
0001
0100
0001
0010
0100
1000
0010
0000
0100
0001
1000
0000
0100
1000
0010
0000
,
0100
0001
1000
0000
0010
0100
0010
0000
1000
0001
0100
0000
0010
1000
0001
0000
,
0010
0001
0100
0000
0010
1000
0001
0000
1000
0100
1000
0000
0010
0100
0010
0000
,
1000
0001
0010
0000
0100
1000
0010
0000
0100
0001
1000
0000
0100
1000
0010
0000
,
0100
0001
0010
0000
0100
1000
0010
0000
1000
0001
0100
0000
0010
0100
0001
0000
,
1000
0100
1000
0000
0010
0100
0001
0000
1000
0010
1000
0000
0001
0100
0010
0000
,
1000
0001
0100
0000
0001
0100
0010
1000
0001
1000
0010
0100
0010
1000
0001
0100
,
0001
1000
0100
0010
0001
0100
0010
1000
0001
0010
0001
1000
0100
0010
0001
1000
,
0010
1000
0100
0010
0001
1000
0010
0000
0100
0001
1000
0000
0100
0010
0001
0000
,
1000
0010
0100
0000
0010
1000
0001
0000
0010
0100
1000
0000
0001
0010
0001
0000
,
0100
0010
1000
0000
0001
0100
0001
0000
1000
0010
0100
0000
0010
1000
0001
0000
,
0010
0100
1000
0000
0100
0010
0001
0000
1000
0100
1000
0000
0010
0100
0001
0000
,
0010
0100
1000
0000
0010
0100
0001
0000
1000
0010
1000
0000
0001
0100
0001
0000
,
1000
0100
0010
0000
0001
0100
0010
0000
1000
0100
1000
0000
0001
0010
0100
0000
,
1000
0100
0010
0000
0001
1000
0010
0000
0100
0001
1000
0000
0010
0100
0010
0000
,
1000
0001
0100
0000
0010
1000
0100
1000
0001
0010
0100
1000
0010
0100
0010
1000
,
0001
0100
0001
0010
0100
1000
0010
0000
0100
0001
1000
0000
0100
1000
0010
0000
,
0100
0001
1000
0000
0010
0100
0010
0000
1000
0001
0100
0000
0010
1000
0001
0000
,
0010
0001
0100
0000
0010
1000
0001
0000
1000
0100
1000
0000
0010
0100
0010
0000
,
1000
0001
0010
0000
0100
1000
0010
0000
0100
0001
1000
0000
0100
1000
0010
0000
,
0100
0001
0010
0000
0100
1000
0010
0000
1000
0001
0100
0000
0010
0100
0001
0000
,
1000
0100
1000
0000
0010
0100
0001
0000
1000
0010
1000
0000
0001
0100
0010
0000
,
1000
0001
0100
0000
0001
0100
0010
1000
0001
1000
0010
0100
0010
1000
0001
0100
,
0001
1000
0100
0010
0001
0100
0010
1000
0001
0010
0001
1000
0100
0010
0001
1000
,
0010
1000
0100
0010
0001
0000
1000
0000
0010
0000
0100
0001
0010
0100
1000
0000
,
0001
0000
0100
0000
0010
0000
0100
0000
0001
0000
1000
0100
0010
0001
0100
0000
,
0010
0000
1000
0000
0001
0000
0100
0000
0010
0000
1000
0100
0010
0001
1000
0000
,
0010
0000
0100
0000
0010
0000
1000
0000
0001
0000
0010
0100
1000
0001
1000
0000
,
0010
0000
0100
0000
0010
0000
1000
0000
0001
0000
1000
0100
0010
0001
0100
0000
,
0010
0000
1000
0000
0001
0000
0010
0000
0001
0000
1000
0010
0100
0001
0100
0000
,
0010
0000
1000
0000
0100
0000
1000
0000
0001
0000
0010
0100
1000
0001
0100
0000
,
0010
0000
0100
0000
0001
0000
1000
0000
0100
0000
0010
0001
1000
0010
0100
0000
,
0001
0000
1000
0000
0100
0000
1000
0000
0010
0000
0100
0001
0100
0010
1000
0000
,
0001
0000
0010
0000
0100
0000
1000
0000
0001
0000
0100
0010
0100
0001
1000
0000
,
0100
0000
1000
0000
0010
0000
0100
0000
0001
0000
1000
0100
1000
0010
0100
0000
,
0001
0000
0010
0000
0001
0000
1000
0000
0100
0000
0010
0001
1000
0010
0100
0000
,
0001
0000
1000
0000
0100
0000
1000
0000
0010
0000
0100
0001
0100
0010
1000
0000
,
0001
0000
0010
0000
0001
0000
0100
0000
0010
0000
0100
0001
1000
0100
1000
0000
,
0010
0000
0100
0000
0001
0000
1000
0000
0100
0000
0010
0001
0100
0010
1000
0000
,
0001
0000
0010
0000
0001
0000
1000
0000
0010
0000
0100
0001
0010
0100
1000
0000
,
0001
0000
0100
0000
0010
0000
0100
0000
0001
0000
1000
0100
0010
0001
0100
0000
,
0010
0000
1000
0000
0001
0000
0100
0000
0010
0000
1000
0100
0010
0001
1000
0000
,
0010
0000
0100
0000
0010
0000
1000
0000
0001
0000
0010
0100
1000
0001
1000
0000
,
0010
0000
0100
0000
0010
0000
1000
0000
0001
0000
1000
0100
0010
0001
0100
0000
,
0010
0000
1000
0000
0001
0000
0010
0000
0001
0000
1000
0010
0100
0001
0100
0000
,
0010
0000
1000
0000
0100
0000
1000
0000
0001
0000
0010
0100
1000
0001
0100
0000
,
0010
0000
0100
0000
0010
0000
1000
0000
0001
0000
1000
0100
0010
0001
0100
0000
,
0010
0000
1000
0000
0001
0000
0010
0000
0001
0000
1000
0010
0100
0001
0100
0000
,
0010
0000
1000
0001
0200
0000
0000
0000
0300
0000
0000
0000
0000
0000
0000
0000
;
