#TITLE:Megashit;
#SUBTITLE:;
#ARTIST:The Quick Brown Fox;
#TITLETRANSLIT:;
#SUBTITLETRANSLIT:;
#ARTISTTRANSLIT:;
#CREDIT:;
#BANNER:../speedcore rejects ban.png;
#BACKGROUND:../speedcore rejects bg.png;
#LYRICSPATH:;
#CDTITLE:;
#MUSIC:Megashit (TQBF Remix).ogg;
#OFFSET:0.549;
#SAMPLESTART:40.421;
#SAMPLELENGTH:11.980;
#SELECTABLE:YES;
#DISPLAYBPM:400.000;
#BPMS:0.000=400.000,594.000=800.000,595.000=200.000,595.500=400.000;
#STOPS:;
#BGCHANGES:;
// cache tags:
#FIRSTBEAT:4.000;
#LASTBEAT:868.000;
#SONGFILENAME:Songs/Speedcore Rejects/Megashit (TQBF Remix) - [Aoreo]/Megashit (TQBF mix).sm;
#HASMUSIC:1;
#HASBANNER:1;
#MUSICLENGTH:133.290;
// end cache tags

//---------------dance-single - J. Nero----------------
#NOTES:
     dance-single:
     J. Nero:
     Challenge:
     14:
     1.000,1.000,0.638,0.135,0.311,1039.000,85.000,18.000,0.000,3.000:
0000
0000
0000
0000
,
1001
0000
0001
0000
,
0101
0000
0000
0000
,
0101
0000
0100
0000
,
1010
0000
0000
0000
,
1100
0000
1000
0000
,
1010
0000
0000
0000
,
0110
0000
0100
0000
,
0404
0000
0000
0303
,
0101
0001
0100
0110
,
0010
1000
1001
0001
,
0011
0010
0100
1100
,
1000
0010
0110
0100
,
0101
0001
0010
0110
,
0100
1000
1001
0001
,
0101
0100
0010
1010
,
1000
0001
2002
3003
,
1001
0000
0001
1000
0100
0000
1001
0000
,
0001
0100
0010
0000
0110
0000
0000
0000
,
1010
0000
1000
0100
0010
0000
0011
0000
,
0001
0100
0010
0000
0110
0000
0000
0000
,
0101
0000
0001
1000
0100
0000
1100
0000
,
1000
0010
0100
0000
0110
0000
0000
0000
,
1010
0000
1000
0010
0100
0000
0110
0000
,
0010
1000
0100
0000
1000
0100
0010
0001
,
0011
0000
0001
0000
0010
0100
0000
0100
,
1000
0010
0100
0000
0101
0000
0001
0000
,
1001
0000
1000
0000
0010
0100
0000
0100
,
0010
1000
0001
0000
0011
0000
0010
0000
,
0110
0000
0100
0000
1000
0010
0000
0010
,
0100
0001
1000
0000
1010
0000
0010
0000
,
0101
0000
0100
0000
0001
1000
0000
0010
,
0100
0001
1000
0000
1010
0000
0010
0000
,
0110
0000
0100
0000
0001
0010
0000
0010
,
0100
1000
0001
0000
0101
0000
0100
0000
,
1010
0000
0010
0000
1000
0001
0000
0001
,
0010
0100
1000
0000
1010
0000
0010
0000
,
0101
0000
0100
0000
0001
0010
0000
0010
,
0100
1000
0010
0000
0110
0000
0100
0000
,
0101
0000
0001
0000
1000
0010
0100
0001
,
2000
0000
0000
0000
3020
0000
0000
0030
,
2002
0000
0000
0000
,
0000
0000
0000
0000
0000
0000
0000
0000
0000
0000
0000
0000
0000
0000
0000
0000
0000
0000
0000
0000
0000
0000
0000
0000
0000
0000
0000
0000
0000
0000
0000
3000
1003
0000
0000
0000
0000
0000
0000
0000
0001
0000
0000
0000
0000
0000
0000
0000
1000
0000
0000
0000
0000
0000
0000
0000
0001
0000
0000
0000
0000
0000
0000
0000
,
1000
0001
1000
0001
1000
0001
1000
0001
,
1000
0000
0000
0001
0000
0000
1000
0000
0000
0001
0000
0000
1000
0000
0001
0000
1000
0000
0001
0000
1000
0000
0001
0000
,
1000
0001
0100
0010
,
1000
0100
0010
0001
,
0100
0010
1000
0001
,
0100
0000
0010
0000
1000
0100
0010
0001
,
0100
0010
1000
0001
,
0010
0001
0100
0010
,
1000
0100
1000
0001
0100
0000
0001
0000
,
1000
0000
0000
0000
0000
0000
0100
0000
0000
0000
0000
0000
0010
0000
0000
0001
0000
0000
0010
0000
0001
0000
0010
0000
,
0001
0010
0001
0100
,
0010
1000
0001
0100
,
0010
1000
0001
0010
,
0100
0000
1000
0000
0010
0100
0010
1000
,
0100
1000
0001
0010
,
0100
1000
0001
0100
,
0001
0010
0100
1000
0020
0000
0130
0000
,
0001
0000
0000
0000
0000
0000
1000
0000
0000
0000
0000
0000
0010
0000
0000
0100
0000
0000
0010
0000
0100
0000
0010
0000
,
0100
0001
0010
0100
,
1000
0010
0100
0001
,
0010
0100
1000
0001
,
0100
0000
0010
0000
1000
0001
0010
0100
,
1000
0010
0100
0001
,
1000
0010
0100
0001
,
1000
0100
0010
0100
1000
0000
0010
0000
,
0100
0000
0000
0000
0000
0000
0001
0000
0000
0000
0000
0000
1000
0000
0000
0100
0000
0000
1000
0000
0100
0000
1000
0000
,
0100
1000
0010
0100
,
0001
0010
0100
1000
,
0001
0100
0010
0100
,
0001
0000
1000
0000
0010
0100
0001
0010
,
0100
1000
0100
1000
,
0010
0100
0001
0100
,
0101
0000
0000
0000
,
0000
0000
0000
0000
0000
0000
0001
0100
0001
0100
0001
0100
,
0001
0100
0001
0100
0000
0000
0001
1000
,
0001
1000
0000
0000
1100
0000
0000
0000
,
0100
1000
0001
0100
0000
0000
0010
0100
,
0001
1000
0000
0000
1001
0000
0000
0000
,
1000
0001
1000
0001
0000
0000
0100
0001
,
0100
0001
0000
0000
0011
0000
0000
0000
,
0010
0100
1000
0001
0000
0000
0100
0001
,
1000
0010
0000
0000
1010
0000
0000
0000
,
1000
0010
1000
0010
0000
0000
0100
0001
,
0100
0001
0000
0000
1001
0000
0000
0000
,
1000
0100
0010
0001
0000
0000
1000
0010
,
0100
0001
0000
0000
0101
0000
0000
0000
,
0001
0100
0001
0100
0000
0000
0010
1000
,
0010
1000
0000
0000
1010
0000
0000
0000
,
0010
0100
0001
0010
0000
0000
0001
0100
,
0010
1000
0000
0000
1100
0000
0000
0000
,
1000
0001
1000
0001
0000
0000
0100
0010
,
0100
0010
0000
0000
0101
0000
0000
0000
,
0001
0010
0100
1000
0000
0000
0010
0100
,
0001
1000
0000
0000
1001
0000
0000
0000
,
0010
0100
0010
0100
0000
0000
0001
1000
,
0001
1000
0000
0000
1100
0000
0000
0000
,
1000
0100
0010
0001
0000
0000
0100
0010
,
0100
0001
0000
0000
0101
0000
0000
0000
,
0100
0001
0100
0001
0000
0000
1000
0001
,
1000
0001
0000
0000
1001
0000
0000
0000
,
1000
0100
0010
0001
0000
0000
1000
0010
,
0100
0001
0000
0000
0101
0000
0000
0000
,
0100
0001
0100
0001
0000
0000
1000
0001
,
1000
0001
0000
0000
1001
0000
0000
0000
,
1000
0100
0010
0001
0000
0000
1000
0010
,
0200
0000
0000
0301
,
2002
0000
0000
0000
,
0000
0000
0000
0000
0000
0000
0000
0000
0000
0000
0000
0000
0000
0000
0000
0000
0000
0000
0000
0000
0000
0000
0000
3003
0001
0000
0000
0000
0000
0000
1000
0000
0000
0000
0000
0000
0001
0000
0000
0000
0000
0000
1000
0000
0000
0000
0000
0000
,
0001
1000
0001
1000
0001
1000
0001
1000
,
0001
0000
0000
1000
0000
0000
0001
0000
0000
1000
0000
0000
0001
0000
1000
0000
0001
0000
1000
0000
0001
0000
1000
0000
,
0001
0100
0001
1000
,
0100
0010
0001
0100
,
0010
1000
0001
0100
,
0010
0000
1000
0000
0010
0100
0001
1000
,
0100
1000
0010
0100
,
0001
1000
0001
0010
,
0100
1000
0010
0100
0001
0000
0010
0000
,
0001
0000
0000
0000
0000
0000
0100
0000
0000
0000
0000
0000
0010
0000
0000
1000
0000
0000
0010
0000
1000
0000
0010
0000
,
1000
0010
0100
0001
,
0010
0100
1000
0001
,
0100
0001
0100
0010
,
1000
0000
0100
0000
0010
0001
0010
0100
,
1000
0001
0100
0010
,
0100
0001
1000
0001
,
0100
0010
1000
0100
0010
0000
0100
0000
,
1000
0000
0000
0000
0000
0000
0001
0000
0000
0000
0000
0000
0100
0000
0000
0001
0000
0000
0100
0000
0001
0000
0100
0000
,
0001
0100
0010
1000
,
0100
0010
0100
1000
,
0001
0100
0010
0100
,
0001
0000
1000
0000
0001
1000
0100
1000
,
0001
0100
0010
0100
,
0001
0010
0100
1000
,
0001
1000
0100
0010
0001
0000
1000
0000
,
0010
0000
0000
0000
0000
0000
0100
0000
0000
0000
0000
0000
0001
0000
0000
1000
0000
0000
0001
0000
1000
0000
0001
0000
,
1000
0001
0010
0100
,
1000
0001
0100
0010
,
1000
0100
0010
0100
,
1000
0000
0001
0000
0100
0010
0100
0001
,
1000
0100
0010
0100
,
1000
0001
0100
0001
,
1101
0000
0000
0000
,
2000
0000
3004
0003
,
0100
0001
0100
0001
1000
0100
1000
0100
,
0010
0000
0000
0001
0000
0000
1000
0000
0000
0001
0000
0000
0000
0000
0000
1000
0000
0000
0001
0000
1000
0000
0001
0000
,
1000
0001
0100
0000
0010
1000
0100
0000
,
0100
0100
0040
0000
,
0031
0010
0100
0010
0001
1000
0001
1000
,
0100
1000
0001
0100
0010
0100
0001
1000
,
0001
0000
0000
1000
0000
0000
0001
0000
0000
1000
0000
0000
0001
0000
0000
1000
0000
0000
0001
0000
0000
1000
0000
0000
0001
0000
0000
1000
0000
0000
0001
0000
,
0000
0100
0000
0000
0001
0000
0000
0100
0000
0000
0001
0000
0000
0100
0000
0000
0001
0000
0000
0100
0000
0000
0001
0000
0000
0100
0000
0000
0001
0000
0000
0000
,
4000
0000
0000
3010
,
0400
0000
0000
0300
,
0001
0010
0100
0010
0001
1000
0002
0003
,
4000
3000
0100
1000
0100
1000
0001
0010
,
0001
0010
0001
1000
0010
1000
0010
0100
,
0001
0000
0000
0010
0000
0000
0100
0000
0000
1000
0000
0000
0001
0000
1000
0000
0001
0000
1000
0000
0000
0000
0000
0000
,
0001
0000
0100
0000
0001
0000
0100
0000
0001
0000
0100
0000
0001
0000
0000
0100
0000
0000
0010
0000
0000
1000
0000
0000
,
0100
0010
0001
0010
0100
1000
0001
1000
,
1001
1010
0110
0101
,
0001
0100
0010
0100
0001
0010
0100
0010
,
0100
0000
0000
1000
0000
0000
0100
0000
0000
1000
0000
0000
0100
0000
0000
1000
0000
0000
0100
0000
0000
1000
0000
0000
0100
0000
0000
1000
0000
0000
0001
0000
,
0000
1000
0000
0000
0001
0000
0000
1000
0000
0000
0001
0000
0000
1000
0000
0000
0004
0000
0000
0000
0000
0000
0000
0000
0000
0000
0000
0000
0003
0000
0000
0000
,
1000
0001
0100
0010
0100
0001
0010
0100
,
1000
0010
0000
0100
0010
0000
0100
0001
0000
1000
0001
0000
,
1000
0001
1000
0001
1000
0001
1000
0001
1000
0001
1000
0001
,
1000
0001
0010
0100
1000
0000
0010
0100
,
0001
0010
0100
1000
0001
0000
1000
0010
,
0100
0000
0000
0010
0000
0000
1000
0000
0000
0000
0000
0000
0001
0000
0100
0000
0001
0000
0100
0000
0000
0000
0000
0000
,
0001
0100
0001
0000
0100
0001
0010
0100
,
0010
0100
1000
0001
1000
0000
0100
0010
,
0100
0010
0001
0000
1000
0000
0010
0000
,
0010
0000
1000
0010
0100
0000
0001
0010
,
0001
0010
0100
1000
0001
0100
0010
1000
,
0001
0000
1000
0010
0100
0000
0001
0000
,
1101
0000
0000
0000
,
2002
0000
0000
3003
1000
0001
1000
0001
,
1000
0001
1000
0001
1000
0001
1000
0001
,
1000
0000
0000
0001
0000
0000
1000
0000
0000
0001
0000
0000
1000
0000
0001
0000
1000
0000
0001
0000
1000
0000
0001
0000
,
1000
0000
0001
0000
0100
0010
0000
0110
,
0000
0100
0001
0000
0010
0000
0100
1000
,
0001
0000
0100
0000
0001
0010
0000
0110
,
0000
0100
1000
0000
0010
0000
0100
0001
,
1000
0000
0100
0000
1000
0001
0000
1001
,
0000
1000
0010
0000
0100
0000
0001
0100
,
0010
0000
1000
0000
0010
0100
0000
0101
,
0000
0001
0010
0000
0200
0000
0000
0000
,
1300
0000
0010
0000
0100
0001
0000
1001
,
0000
1000
0100
0000
0010
0000
0100
1000
,
0001
0000
0100
0000
0010
1000
0000
1010
,
0000
0010
0100
0000
0001
0000
0010
0001
,
1000
0000
0100
0000
0010
0100
0000
1100
,
0000
1000
0001
0000
0100
0000
0010
1000
,
0000
0000
0000
0000
,
0020
0000
4030
3000
,
0001
1000
0010
0100
,
0001
0010
0100
1000
,
0010
0100
0001
1000
,
0010
0000
0100
0000
0001
0010
0100
1000
,
0010
0100
0001
1000
,
0100
1000
0010
0100
,
0001
0100
0001
0010
0100
0000
1000
0000
,
0001
0000
0000
0000
0000
0000
0010
0000
0000
0000
0000
0000
0100
0000
0000
1000
0000
0000
0001
0000
1000
0000
0001
0000
,
1000
0001
0010
0100
,
0010
0001
1000
0010
,
0100
0001
1000
0100
,
1000
0000
0010
0000
0100
0001
0100
0010
,
1000
0100
0010
0100
,
1000
0001
1000
0001
,
2002
0000
0000
0000
,
3003
0000
0000
0000
0000
0000
0001
1000
0001
1000
0001
1000
,
0001
0000
1000
0000
,
1010
0000
0000
0000
,
0110
0000
0100
0000
,
1001
0000
0000
0000
,
1101
0000
0000
0000
;
