#TITLE:Isle O' Hags(Banjo Tooie);
#SUBTITLE:;
#ARTIST:Rareware;
#TITLETRANSLIT:;
#SUBTITLETRANSLIT:;
#ARTISTTRANSLIT:;
#CREDIT:;
#BANNER:ioh.png;
#BACKGROUND:ioh-bg.png;
#LYRICSPATH:;
#CDTITLE:kykaCD.png;
#MUSIC:isle o' hags.mp3;
#OFFSET:-0.040;
#SAMPLESTART:38.700;
#SAMPLELENGTH:12.500;
#SELECTABLE:YES;
#BPMS:0.000=102.090;
#STOPS:;
#BGCHANGES:;
// cache tags:
#FIRSTBEAT:0.000;
#LASTBEAT:248.000;
#SONGFILENAME:Songs/toune 6/Isle O' Hags/tooie.sm;
#HASMUSIC:1;
#HASBANNER:1;
#MUSICLENGTH:155.219;
// end cache tags

//---------------dance-single - ----------------
#NOTES:
     dance-single:
     :
     Beginner:
     1:
     0.115,0.100,0.000,0.000,0.000,125.000,0.000,0.000,0.000,0.000:
1000
0000
0010
0000
,
0100
0000
0001
0000
,
0010
0000
0001
0000
,
1000
0000
0100
0000
,
1000
0000
0010
0000
,
0100
0000
0001
0000
,
1000
0000
0001
0000
,
0100
0000
0001
0000
,
1000
0000
0010
0000
,
0100
0000
0001
0000
,
0010
0000
0001
0000
,
1000
0000
0100
0000
,
1000
0000
0010
0000
,
0100
0000
0001
0000
,
1000
0000
0001
0000
,
0100
0000
0001
0000
,
1000
0000
0010
0000
,
0100
0000
0001
0000
,
0010
0000
0001
0000
,
1000
0000
0100
0000
,
1000
0000
0010
0000
,
0100
0000
0001
0000
,
1000
0000
0001
0000
,
0100
0000
0001
0000
,
1000
0000
0010
0000
,
0100
0000
0001
0000
,
0010
0000
0001
0000
,
1000
0000
0100
0000
,
1000
0000
0010
0000
,
0100
0000
0001
0000
,
1000
0000
0001
0000
,
0100
0000
0001
0000
,
1000
0000
0010
0000
,
0100
0000
0001
0000
,
0010
0000
0001
0000
,
1000
0000
0100
0000
,
1000
0000
0010
0000
,
0100
0000
0001
0000
,
1000
0000
0001
0000
,
0100
0000
0001
0000
,
1000
0000
0010
0000
,
0100
0000
0001
0000
,
0010
0000
0001
0000
,
1000
0000
0100
0000
,
1000
0000
0010
0000
,
0100
0000
0001
0000
,
1000
0000
0001
0000
,
0100
0000
0001
0000
,
1000
0000
0010
0000
,
0100
0000
0001
0000
,
0010
0000
0001
0000
,
1000
0000
0100
0000
,
1000
0000
0010
0000
,
0100
0000
0001
0000
,
1000
0000
0001
0000
,
0100
0000
0001
0000
,
1000
0000
0010
0000
,
0100
0000
0001
0000
,
0010
0000
0001
0000
,
1000
0000
0100
0000
,
1000
0000
0010
0000
,
0100
0000
0001
0000
,
1000
0000
0000
0000
;

//---------------dance-single - ----------------
#NOTES:
     dance-single:
     :
     Easy:
     2:
     0.175,0.180,0.006,0.000,0.000,189.000,1.000,0.000,0.000,0.000:
1000
1000
1000
1000
,
0001
0001
0001
0001
,
0100
0000
0010
1000
,
0010
0000
0100
0001
,
1000
0000
0001
0100
,
0001
0000
1000
0100
,
1000
0000
0010
0100
,
0010
0000
1000
0001
,
1000
0000
0010
1000
,
0010
0000
0100
0001
,
0100
0000
0010
1000
,
0010
0000
0100
0001
,
1000
0000
0001
0100
,
0001
0000
1000
0100
,
1000
0000
0010
0100
,
0010
0000
1000
0001
,
1000
0000
0010
1000
,
0010
0000
0100
0001
,
0100
0000
0010
1000
,
0010
0000
0100
0001
,
1000
0000
0001
0100
,
0001
0000
1000
0100
,
1000
0000
0010
0100
,
0010
0000
1000
0001
,
1000
0000
0010
1000
,
0010
0000
0100
0001
,
0100
0000
0010
1000
,
0010
0000
0100
0001
,
1000
0000
0001
0100
,
0001
0000
1000
0100
,
1000
0000
0010
0100
,
0010
0000
1000
0001
,
1000
0000
0010
1000
,
0010
0000
0100
0001
,
0100
0000
0010
1000
,
0010
0000
0100
0001
,
1000
0000
0001
0100
,
0001
0000
1000
0100
,
1000
0000
0010
0100
,
0010
0000
1000
0001
,
1000
0000
0010
1000
,
0010
0000
0100
0001
,
0100
0000
0010
1000
,
0010
0000
0100
0001
,
1000
0000
0001
0100
,
0001
0000
1000
0100
,
1000
0000
0010
0100
,
0010
0000
1000
0001
,
1000
0000
0010
1000
,
0010
0000
0100
0001
,
0100
0000
0010
1000
,
0010
0000
0100
0001
,
1000
0000
0001
0100
,
0001
0000
1000
0100
,
1000
0000
0010
0100
,
0010
0000
1000
0001
,
1000
0000
0010
1000
,
0010
0000
0100
0001
,
0100
0000
0010
1000
,
0010
0000
0100
0001
,
1000
0000
0001
0100
,
0001
0000
1000
0100
,
1001
0000
0000
0000
;

//---------------dance-single - ----------------
#NOTES:
     dance-single:
     :
     Medium:
     4:
     0.320,0.340,0.000,0.586,0.035,257.000,0.000,91.000,0.000,0.000:
1000
0010
0100
0001
,
0010
0001
0100
0001
,
1000
0010
0100
0010
,
2000
3001
0100
0002
,
1003
0010
0100
0001
,
2000
0000
0000
0010
0000
0000
0010
0000
0000
3000
0000
0010
,
2000
3001
0200
0310
,
2000
3002
0203
0302
,
0013
0001
1000
0100
,
1000
0010
0100
0001
,
1000
0010
0100
0010
,
2000
3001
0100
0002
,
1003
0010
0100
0001
,
2000
0000
0000
0010
0000
0000
0010
0000
0000
3000
0000
0010
,
2000
3001
0200
0310
,
2000
3002
0203
0302
,
0013
0001
1000
0100
,
1000
0010
0100
0001
,
1000
0020
0130
0002
,
2003
3200
2300
3020
,
0230
0301
2000
3020
,
0230
0302
2003
3002
,
0103
0020
1030
0002
,
0103
0001
1000
0001
,
0200
0310
1000
0001
,
0200
0302
2003
3020
,
1030
0010
0100
0010
,
2000
3001
0100
0002
,
1003
0010
0100
0001
,
2000
0000
0000
0010
0000
0000
0010
0000
0000
3000
0000
0010
,
2000
3001
0200
0310
,
2000
3002
0203
0302
,
0013
0001
1000
0100
,
1000
0010
0100
0001
,
1000
0001
0100
0001
,
1000
0010
0100
0001
,
1000
0100
0010
0001
0100
0010
1000
0100
0010
0001
0100
0010
,
1000
0010
0100
0001
,
1000
0001
0100
0001
,
0010
0001
0100
0001
,
1000
0100
1000
0010
,
0100
0001
1000
0001
,
0100
0020
1030
0020
,
1030
0002
0103
0002
,
1003
0200
1300
0020
,
0130
0002
0013
0002
,
1003
0200
1300
0020
,
0130
0002
1003
0020
,
1030
0002
0103
0002
,
0013
0200
1300
0020
,
0130
0020
1030
0002
,
0103
0020
1030
0200
,
1300
0002
0013
0002
,
0103
0002
1003
0002
,
1003
0020
0130
0002
,
2003
3200
2300
3020
,
0230
0301
2000
3020
,
0230
0302
2003
3002
,
0103
0020
1030
0002
,
0103
0001
1000
0001
,
0200
0310
1000
0001
,
0200
0302
2003
3020
,
1030
0000
0000
0000
;

//---------------dance-single - ----------------
#NOTES:
     dance-single:
     :
     Hard:
     7:
     0.485,0.519,0.187,0.335,0.622,446.000,29.000,52.000,0.000,0.000:
1001
1010
1010
0101
,
0101
0000
0000
0011
0000
0000
0110
0000
0000
1100
0000
1000
,
0020
0000
0000
0130
0000
0000
0001
0000
0001
0010
0000
0100
,
2000
0000
0000
3010
0000
0000
0010
0000
0000
0001
1000
0100
,
0020
0000
0000
1030
0000
0000
1000
0000
1000
0001
0000
0001
,
1000
0000
0000
0100
0000
0000
1000
0000
0000
1000
0000
0001
,
0020
0000
0000
0000
0000
0000
0130
0000
0000
0000
0000
0000
1000
0000
0000
0000
1000
0000
0001
0000
0000
0000
0001
0010
,
0100
0000
1000
0010
0000
0100
0001
0000
0100
0010
1000
0001
,
2000
0000
0000
3010
0000
0100
0001
0000
1000
0010
0000
1000
,
0100
0000
1000
0001
0000
0010
0001
0000
0100
0010
0000
0100
,
2000
0000
0000
3010
0000
0000
1001
0000
1000
0100
0000
0010
,
0002
0000
0000
0103
0000
0010
0100
0000
0010
1000
0100
0010
,
0200
0000
0000
0301
0000
0000
0011
0000
0001
1000
0000
1000
,
0001
0000
0100
0010
0000
1000
0001
0000
0100
0001
0000
1001
,
1200
0000
0000
0000
0000
0000
0310
0000
0000
0000
0000
0000
0101
0000
0000
0000
0001
0000
1000
0000
0000
0000
1000
0100
,
0010
0000
0001
0100
0000
0010
1000
0000
0010
0100
0001
1000
,
0002
0000
0000
0103
0000
0010
1000
0000
0001
0100
0000
0001
,
0010
0000
0001
1000
0000
0100
1000
0000
0010
0100
0000
0010
,
1100
0000
0001
0010
0001
0100
0010
0000
1000
0020
0000
0000
,
0130
0000
0001
0020
0000
0000
0130
1000
0001
1000
0010
0100
,
0001
0000
0100
0001
1000
0010
1000
0000
0001
0020
0000
0000
,
0130
0000
0100
1000
0000
1000
0010
0000
0010
0100
0000
0100
,
0002
0000
0000
0013
0000
0100
2000
0000
0000
3010
0000
0000
,
0001
0010
0001
0100
0010
1000
0001
0000
1000
0001
0000
1000
,
0002
0000
0000
0013
0000
1000
0001
0000
0000
0110
0000
0000
,
0010
0000
0100
0001
0100
0010
1000
0000
0001
0200
0000
0000
,
0320
0000
0000
0130
0000
0000
1001
0000
0001
0010
0000
0100
,
2000
0000
0000
3010
0000
0100
0010
0000
0100
0001
1000
0100
,
0020
0000
0000
1030
0000
0000
1100
0000
1000
0001
0000
0001
,
1000
0000
0010
0100
0000
0001
1000
0000
0010
1000
0000
1001
,
0021
0000
0000
0000
0000
0000
0130
0000
0000
0000
0000
0000
1010
0000
0000
0000
1000
0000
0001
0000
0000
0000
0001
0010
,
0100
0000
1000
0010
0000
0100
0001
0000
0100
0010
1000
0001
,
2000
0000
0000
3010
0000
0100
0001
0000
1000
0010
0000
1000
,
0100
0000
1000
0001
0000
0010
0001
0000
0100
0010
0000
0100
,
0001
0000
0000
0000
1000
0000
0010
0000
0000
0000
0100
0000
0001
0000
0000
0000
1000
0000
0010
0000
0000
0000
0100
0001
,
0200
0000
0000
0310
0000
0000
1100
0000
1000
0001
1000
0010
,
1000
0001
0100
0001
1000
0001
0100
0001
0010
0001
1000
0001
1000
0001
0100
0001
,
0020
0000
0000
0130
0000
0000
0011
0000
0001
1000
0001
0100
,
0002
0000
0000
1003
0000
0000
0010
0000
0100
0002
0000
0000
,
1003
0000
0010
1000
0000
0001
0010
0000
0100
0010
0001
0100
,
0001
0000
0100
0010
0000
0010
1000
0000
1000
0100
1000
0010
,
0100
0000
0000
0001
0010
0001
0200
0000
0000
0310
0000
0000
,
1001
0000
1000
0020
0000
0000
0130
0000
0100
0002
0000
0000
,
0013
0000
0010
0200
0000
0000
1300
0000
1000
0020
0000
0000
,
0130
0000
0100
0002
0000
0000
0013
0000
0010
2000
0000
0000
,
3010
0000
0010
0002
0000
0000
0103
0000
0100
0020
0000
0000
,
1030
0000
1000
0002
0000
0000
1003
0000
1000
0020
0000
0000
,
0130
0000
0100
0002
0000
0000
0013
0000
0010
2000
0000
0000
,
3020
0000
0000
0130
0000
0000
1001
0000
0001
0010
0000
0100
,
2000
0000
0000
3010
0000
0100
0010
0000
0100
0001
0000
0100
,
0020
0000
0000
1030
0000
0000
1100
0000
1000
0001
0000
0000
,
1001
0000
0010
0100
0000
0001
1000
0000
0010
1000
0001
1000
,
0021
0000
0000
0130
0000
0000
1010
0000
1000
0001
0000
0000
,
1000
0000
0001
0200
0000
0000
0310
0000
1000
0002
0000
0000
,
0103
0000
0001
0010
0001
0100
0010
0000
1000
0020
0000
0000
,
0130
0000
0001
0020
0000
0000
0130
1000
0001
1000
0010
0100
,
0001
0000
0100
0001
1000
0010
1000
0000
0001
0020
0000
0000
,
0130
0000
0100
1000
0000
1000
0010
0000
0010
0100
0000
0100
,
0002
0000
0000
0013
0000
0100
2000
0000
0000
3010
0000
0000
,
0001
0010
0001
0100
0010
1000
0001
0000
1000
0001
0000
1000
,
0002
0000
0000
0013
0000
1000
0001
0000
0000
0110
0000
0000
,
0010
0000
0100
0001
0100
0010
1000
0000
0001
0200
0000
0000
,
0310
0000
0000
0000
;

//---------------dance-single - ----------------
#NOTES:
     dance-single:
     :
     Challenge:
     8:
     0.501,0.679,0.168,0.335,0.686,466.000,26.000,52.000,0.000,0.000:
1000
0000
0001
0100
0000
0001
0100
0000
0010
1000
0000
0010
,
1000
0000
0100
1000
0000
0010
0100
0000
0001
0010
0000
0001
,
0200
0000
0000
0310
0000
0000
1001
0000
1000
0100
0000
0010
,
0002
0000
0000
0103
0000
0010
0100
0000
0010
1000
0001
0010
,
0200
0000
0000
0301
0000
0000
0011
0000
0001
1000
0000
1000
,
0001
0000
0100
0010
0000
1000
0001
0000
0100
0001
0000
1001
,
1200
0000
0000
0000
0000
0000
0310
0000
0000
0000
0000
0000
0101
0000
0000
0000
0001
0000
1000
0000
0000
0000
1000
0100
,
0010
0000
0001
0100
0000
0010
1000
0000
0010
0100
0001
1000
,
0002
0000
0000
0103
0000
0010
1000
0000
0001
0100
0000
0001
,
0010
0000
0001
1000
0000
0100
1000
0000
0010
0100
0000
0010
,
0002
0000
0000
0103
0000
0000
1001
0000
0001
0010
0000
0100
,
2000
0000
0000
3010
0000
0100
0010
0000
0100
0001
0010
0100
,
0020
0000
0000
1030
0000
0000
1100
0000
1000
0001
0000
0001
,
1000
0000
0010
0100
0000
0001
1000
0000
0010
1000
0000
1001
,
0021
0000
0000
0000
0000
0000
0130
0000
0000
0000
0000
0000
1010
0000
0000
0000
1000
0000
0001
0000
0000
0000
0001
0010
,
0100
0000
1000
0010
0000
0100
0001
0000
0100
0010
1000
0001
,
2000
0000
0000
3010
0000
0100
0001
0000
1000
0010
0000
1000
,
0100
0000
1000
0001
0000
0010
0001
0000
0100
0010
0000
0100
,
0011
0000
1000
0100
1000
0010
0100
0000
0001
0200
0000
0000
,
0310
0000
1000
0200
0000
0000
0310
0001
1000
0001
0100
0010
,
1000
0000
0010
1000
0001
0100
0001
0000
1000
0200
0000
0000
,
0310
0000
0010
0001
0000
0001
0100
0000
0100
0010
0000
0010
,
2000
0000
0000
3100
0000
0010
0002
0000
0000
0103
0000
0000
,
1000
0100
1000
0010
0100
0001
1000
0000
0001
1000
0000
0001
,
2000
0000
0000
3100
0000
0001
1000
0000
0000
0110
0000
0000
,
0100
0000
0010
1000
0010
0100
0001
0000
1000
0020
0000
0000
,
0230
0000
0000
0310
0000
0000
1001
0000
1000
0100
0000
0010
,
0002
0000
0000
0103
0000
0010
0100
0000
0010
1000
0001
0010
,
0200
0000
0000
0301
0000
0000
0011
0000
0001
1000
0000
1000
,
0001
0000
0100
0010
0000
1000
0001
0000
0100
0001
0000
1001
,
1200
0000
0000
0000
0000
0000
0310
0000
0000
0000
0000
0000
0101
0000
0000
0000
0001
0000
1000
0000
0000
0000
1000
0100
,
0010
0000
0001
0100
0000
0010
1000
0000
0010
0100
0001
1000
,
0002
0000
0000
0103
0000
0010
1000
0000
0001
0100
0000
0001
,
0010
0000
0001
1000
0000
0100
1000
0000
0010
0100
0000
0010
,
1000
0000
0000
0000
0001
0000
0100
0000
0000
0000
0010
0000
1000
0000
0000
0000
0001
0000
0100
0000
0000
0000
0010
1000
,
0020
0000
0000
0130
0000
0000
0011
0000
0001
1000
0001
0100
,
0001
0010
0100
0010
0001
0010
0100
1000
0100
1000
0100
0010
0100
1000
0100
0010
0001
0010
0100
1000
0010
0100
0001
1000
,
0200
0000
0000
0310
0000
0000
1100
0000
1000
0001
1000
0010
,
2000
0000
0000
3001
0000
0000
0100
0000
0010
2000
0000
0000
,
3001
0000
0100
0001
0000
1000
0100
0000
0010
0100
1000
0010
,
1000
0000
0010
0100
0000
0100
0001
0000
0001
0010
0001
0100
,
0010
0000
0000
1000
0100
1000
0020
0000
0000
0130
0000
0000
,
1001
0000
0001
0200
0000
0000
0310
0000
0010
2000
0000
0000
,
3100
0000
0100
0020
0000
0000
0031
0000
0001
0200
0000
0000
,
0310
0000
0010
2000
0000
0000
3100
0000
0100
0002
0000
0000
,
0103
0000
0100
2000
0000
0000
3010
0000
0010
0200
0000
0000
,
0301
0000
0001
2000
0000
0000
3001
0000
0001
0200
0000
0000
,
0310
0000
0010
2000
0000
0000
3100
0000
0100
0002
0000
0000
,
0203
0000
0000
0310
0000
0000
1001
0000
1000
0100
0000
0010
,
0002
0000
0000
0103
0000
0010
0100
0000
0010
1000
0000
0010
,
0200
0000
0000
0301
0000
0000
0011
0000
0001
1000
0000
0000
,
1001
0000
0100
0010
0000
1000
0001
0000
0100
0001
1000
0001
,
1200
0000
0000
0310
0000
0000
0101
0000
0001
1000
0000
0000
,
0001
0000
1000
0020
0000
0000
0130
0000
0001
2000
0000
0000
,
3010
0000
1000
0100
1000
0010
0100
0000
0001
0200
0000
0000
,
0310
0000
1000
0200
0000
0000
0310
0001
1000
0001
0100
0010
,
1000
0000
0010
1000
0001
0100
0001
0000
1000
0200
0000
0000
,
0310
0000
0010
0001
0000
0001
0100
0000
0100
0010
0000
0010
,
2000
0000
0000
3100
0000
0010
0002
0000
0000
0103
0000
0000
,
1000
0100
1000
0010
0100
0001
1000
0000
0001
1000
0000
0001
,
2000
0000
0000
3100
0000
0001
1000
0000
0000
0110
0000
0000
,
0100
0000
0010
1000
0010
0100
0001
0000
1000
0020
0000
0000
,
0130
0000
0000
0000
;
