#TITLE:AirMan WindShear;
#SUBTITLE:MegaMan II;
#ARTIST:Capcom-remixed by AE;
#TITLETRANSLIT:;
#SUBTITLETRANSLIT:;
#ARTISTTRANSLIT:;
#CREDIT:;
#BANNER:WindShear.png;
#BACKGROUND:WindShear-bg.png;
#LYRICSPATH:;
#CDTITLE:!LiquidCDTitle.png;
#MUSIC:WindShear.mp3;
#OFFSET:-5.365;
#SAMPLESTART:159.400;
#SAMPLELENGTH:11.980;
#SELECTABLE:YES;
#BPMS:0.000=180.000,544.000=90.000,548.000=180.000,585.000=186.000,587.000=180.000,592.000=183.100,593.000=183.200,594.000=183.400,596.000=180.160;
#STOPS:562.500=0.340
,593.500=0.320
;
#BGCHANGES:;
// cache tags:
#FIRSTBEAT:0.000;
#LASTBEAT:625.500;
#SONGFILENAME:Songs/keyboard/WindShear/WindShear.sm;
#HASMUSIC:1;
#HASBANNER:1;
#MUSICLENGTH:226.612;
// end cache tags

//---------------dance-single - ----------------
#NOTES:
     dance-single:
     :
     Challenge:
     10:
     0.851,0.966,0.865,0.688,0.212,998.000,196.000,156.000,0.000,62.000:
0010
0010
0001
1000
1000
0100
0100
0010
,
0010
0001
0001
1000
1000
0100
0100
0100
,
0020
0100
0100
0130
1000
0100
0001
1000
,
0000
0001
1000
0001
0000
1000
0001
1000
,
0000
0000
0010
1000
1000
0001
0001
1000
,
1000
0010
0010
0100
0100
0010
0010
1000
,
0002
1000
1000
1003
0010
0100
1000
0001
,
0000
1000
0100
0010
0000
0100
1000
0010
,
0000
1000
0100
1000
0010
1000
0100
0010
,
0001
0001
0001
0001
0001
0001
0000
2002
,
0000
0000
0000
3023
0032
1003
0000
1100
,
0000
0011
0000
2000
3200
0000
0302
0000
,
0023
0000
0000
0032
0000
2003
0000
3200
,
0000
0000
0000
0000
0320
0230
0000
0320
,
0000
0000
0000
0230
2300
3001
0000
0001
,
0000
0001
0100
0001
0000
0010
1000
0100
,
0002
0000
0000
0023
0000
0230
0000
0000
,
0000
1301
1001
1001
1001
1001
0000
1001
,
0000
0100
0010
0001
1000
0100
0010
0001
,
0001
0010
0100
1000
0000
0010
0001
1000
0100
1000
0100
1000
0100
1000
0100
1000
,
0200
0000
0000
2300
0000
0000
3002
0000
,
0000
0023
0000
0000
0232
0000
0323
0000
,
2230
0000
0000
0000
0000
3300
2000
0000
0000
0000
0000
3000
2002
0000
0000
0000
,
0000
0000
0000
3023
0000
0130
1000
0010
,
0001
0010
0001
0010
0100
1000
0100
1000
0001
0010
0001
0010
0100
1000
0100
1000
,
0200
0000
0000
0000
0301
1000
0000
0001
,
0000
0100
0100
1000
0100
0000
0000
0001
,
0010
0000
0010
0001
0010
0000
0100
0000
1000
0000
0001
0000
0000
0000
0001
0000
,
0000
0000
1001
0000
2002
0000
0000
0000
0000
0000
0000
3003
0000
0000
0000
0000
,
0020
0000
0230
0000
2300
0000
3001
0001
,
0000
0010
0100
1000
0001
0000
0000
0001
,
1000
0000
1000
0001
1000
0000
0001
0000
0010
0000
0100
0000
0000
0000
0001
0000
,
0000
1000
2000
0000
0000
3002
0000
0023
,
0000
0000
0000
0000
0000
0000
0031
0100
1000
0000
0000
0000
0001
0000
0000
0000
,
1000
0010
0010
0010
0010
0010
0000
1000
,
0001
0000
0000
0000
0100
0000
0001
0000
1000
0000
0010
0000
0001
1000
0100
0000
,
0010
0001
0001
0001
0001
0001
0000
0010
,
0100
0000
0000
0000
0010
0000
0001
0000
1000
0000
0100
0000
0001
0010
1000
0000
,
0001
0100
0100
0100
0100
0100
0000
0001
,
1000
0000
0000
0000
1010
0000
1010
0000
0101
0000
0101
0000
1000
0100
0001
0000
,
0100
1000
1000
1000
1000
1000
0000
0100
,
1000
0000
0010
0001
1000
0000
0001
0000
0010
0000
0010
0001
0010
0000
0100
1000
,
0100
0010
1000
1000
0100
0100
0000
0011
,
1100
0000
0000
0000
0010
0000
0110
0000
0100
0000
0110
0000
0001
1000
0001
0000
,
0010
0010
0001
0001
0100
0100
0000
1100
,
0011
0000
0000
0000
0100
0000
0110
0000
0010
0000
0110
0000
1000
0001
1000
0000
,
0010
0010
0100
0100
1000
1000
0000
1001
,
1001
0000
0000
0000
0001
0000
1000
0000
0100
0000
0010
0000
0100
0010
0100
0000
,
1000
0001
0010
0001
0100
0001
0000
1000
,
0100
0000
0001
1000
0001
0000
0100
0000
1000
0000
0001
1000
0001
0000
1000
0001
,
0100
1000
0001
0010
0001
0001
0000
0110
,
0110
0000
0000
0000
0001
0000
1001
0000
1000
0000
1001
0000
0010
0001
0100
0000
,
0010
0001
1000
0001
0010
0010
0000
0110
,
0110
0000
0000
0000
1000
0000
1001
0000
0001
0000
1001
0000
0010
1000
0100
0000
,
0001
1000
0001
1000
0100
0100
0000
0110
,
0110
0000
0000
0000
0001
0000
1000
0000
0100
0000
0010
0000
1000
0100
1000
0000
,
0010
0010
1000
1000
0100
0100
0000
1000
,
0100
0000
0001
1000
0010
0000
0100
0000
0001
0000
0010
0001
0100
0000
0010
1000
,
0100
0010
0010
0011
0001
0101
0000
1000
,
1001
0000
0000
0000
0100
0000
0001
0000
1000
0000
0010
0000
0001
1000
0100
0000
,
0010
0011
0001
1001
1000
1100
0000
0010
,
0100
0000
0000
0000
0010
0000
0001
0000
1000
0000
0100
0000
0001
0010
1000
0000
,
0001
0011
0010
1010
1000
1100
0000
0001
,
1000
0000
0000
0000
1010
0000
1010
0000
0101
0000
0101
0000
1000
0100
0001
0000
,
0010
0011
0010
0110
0010
1010
0000
0100
,
1000
0000
0010
0001
1000
0000
0001
0000
0010
0000
0010
0001
0010
0000
0100
1000
,
0100
0000
1100
0000
0000
1010
0101
0000
,
0100
1000
0010
0000
0000
1001
0110
0000
,
1000
0000
1000
0000
0011
0000
0000
1000
,
0000
0011
1000
0000
0011
0000
0000
1000
,
1100
0000
0011
0000
0000
1100
0000
0100
,
0101
0000
0001
0011
0000
0010
1010
1000
,
1100
0000
0000
0000
1001
0000
0000
0000
1001
0000
0110
0000
1001
0000
0000
1000
,
0100
1000
0100
0000
0001
0000
1000
0000
0100
0000
1000
0000
0101
0000
0101
0000
,
1002
0000
0000
0000
1000
0000
0000
0100
1000
0100
1000
0000
0000
0000
1000
0000
,
0100
0000
1000
1010
0000
0100
0110
0110
,
0110
0000
0000
0000
1010
0000
0000
1000
0100
1000
0010
0000
0000
0000
0100
0000
,
1000
0000
0100
0110
0000
0100
1100
1100
,
2003
0000
0000
0000
0001
0000
0000
0001
0010
0001
0010
0000
0000
0000
0001
0000
,
0100
0000
0001
0011
0000
0010
0110
0110
,
0110
0000
0000
0000
0100
0000
0000
0010
0001
0100
0001
0000
0000
0000
0001
0000
,
0010
0000
0100
0101
0000
0010
0011
0011
,
3200
0010
0010
0001
1000
0001
0000
0010
,
0000
1000
1000
0001
0000
0010
0000
0010
,
0001
0001
0001
1000
0010
1000
0000
0001
,
0000
0010
0010
1000
0000
0001
0000
1000
,
0320
0100
0100
1000
0100
0001
0000
0001
,
0000
0100
0100
1000
0000
0001
0000
1030
,
0000
0000
0100
1000
0100
0000
0010
0000
0001
0000
0101
0000
0000
0000
2020
0000
,
0000
0000
0000
0000
3031
1100
0000
0010
,
0100
0100
1000
0001
0001
0010
0010
0100
,
0100
1000
1000
0001
0001
0100
0100
0100
,
0020
0100
1000
0130
1000
0100
0001
1000
,
0000
0001
1001
0001
0000
1000
1001
1000
,
0000
0000
0010
0001
0001
1000
1000
0001
,
0001
0010
0010
0100
0100
0010
0010
0010
,
0002
1000
0010
1003
0010
0100
1000
0001
,
0000
1000
0100
0110
0000
0100
1000
0110
,
0000
1000
0100
1000
0010
1000
0100
1000
,
0110
0110
0110
0110
0110
0110
0000
2002
,
0000
0000
0000
3023
0032
1003
0000
1100
,
0000
0011
0000
2000
3200
0000
0302
0000
,
2023
0000
0000
3032
0000
2003
0000
3202
,
0000
0000
0000
0000
0323
0230
0000
0322
,
0000
0000
0000
0233
2300
3001
0000
0001
,
0000
0001
0101
0001
0000
0010
1000
0100
,
0002
0000
0000
2023
0000
3200
0000
0000
,
0330
1001
1001
1001
1001
1001
0000
1001
,
0000
0100
0010
0001
1100
0100
0010
0001
,
0001
0010
0001
1000
0000
1000
0001
1000
0001
0010
0100
1000
0001
0010
0100
1000
,
0200
0000
0000
2300
0000
0000
3202
0000
,
0000
0000
0323
0000
0000
0000
0000
0030
0022
0000
0000
0033
2002
0000
0000
3003
,
2200
0000
0000
0000
0000
3300
2000
0000
0000
0000
0000
3000
2002
0000
0000
0000
,
0000
0000
0000
3023
0000
0130
1100
0100
,
0001
1000
0001
1000
0100
0010
0100
0010
0001
1000
0001
1000
0100
0010
0100
0010
,
2000
0000
0000
0000
3001
1001
0000
0001
,
0000
0100
0100
1100
0100
0000
0000
0001
,
0010
0000
0010
0001
0010
0000
0100
0000
1000
0000
0001
0000
0000
0000
0001
0000
,
0000
0000
1001
0000
2002
0000
0000
0000
0000
0000
0000
3003
0000
0000
0000
0000
,
0220
0000
0000
0330
0202
0000
0000
0303
2002
0000
0000
3000
1003
0000
0001
0000
,
0000
0010
0110
1000
1001
0000
0000
0010
,
1000
0000
1000
0001
1000
0000
0001
0000
0010
0000
0110
0000
0000
0000
1001
0000
,
0000
1000
2200
0000
0000
3302
0000
0023
,
0000
0000
0000
0000
1000
0130
0000
1001
,
0010
0010
0001
1000
1000
1100
0100
0110
,
0010
0011
0001
1001
1000
0100
0001
0100
,
0020
0101
0101
0131
1000
0100
0001
1000
,
0000
0001
1000
0100
0000
1000
0001
0100
,
0000
0000
0010
1000
1000
1001
0001
1001
,
1000
1010
0010
0110
0100
0110
0010
1000
,
0002
1100
1100
1103
0010
0100
1000
1010
,
0000
1000
0100
0011
0000
0100
1000
0011
,
0000
0001
0100
0001
0010
0001
0100
0010
,
0101
0101
0101
0101
0101
0101
0000
2002
,
0000
0000
0000
3203
0302
1003
0000
1100
,
0000
0011
0000
2000
3220
0000
0332
0000
,
2023
0000
0000
3232
0000
2303
0000
3202
0000
0000
0000
0000
0323
0230
0000
2320
,
0000
0000
0000
3230
2300
3001
0000
0001
,
0000
0001
0101
0001
0000
0010
0001
0100
,
2002
0000
0000
3023
0000
0000
0230
0000
,
1301
1001
1001
1001
1001
1001
1001
0010
,
0100
0000
1000
0000
0001
0000
1000
0000
0001
0000
0010
0000
0001
0010
0100
1000
,
0000
1000
0100
0010
0001
1000
0100
0010
0001
1000
0100
0010
0002
0000
0000
0000
,
0000
0000
2203
0000
0000
0000
0000
3300
0202
0000
0000
0000
0000
0000
2323
0000
,
0000
0000
0000
3030
2002
0000
0000
0000
3223
0000
0000
0330
2200
0000
0000
0000
,
0000
0020
0000
0000
0002
0000
0000
0000
,
0000
3333
0020
0000
0000
0000
0031
0000
0100
0000
1000
0000
0010
0001
1000
0100
,
0010
0001
1000
0100
0010
0001
1000
0100
0010
0001
1000
0100
2000
0000
0000
0000
,
0000
0000
3011
1100
0001
0001
1001
0001
,
0010
0000
0000
0000
0000
0000
0011
0000
1010
0000
0010
0001
0010
0000
0100
0000
,
1000
0001
0000
0001
0000
1001
2002
0000
,
0000
0000
0000
0000
0000
3003
0000
0000
0020
0000
0000
0000
0200
0000
0000
0000
,
2000
0000
3331
0001
0000
0100
0110
0001
,
1001
0000
0000
0000
0000
0000
1001
0000
0010
0000
1000
0001
1000
0000
0001
0000
,
0010
0100
0000
0001
0000
1000
2000
0000
,
0000
0000
0002
0000
0000
0000
0020
0000
0000
0000
0000
0000
0000
3033
0100
0001
,
1000
0000
2002
3003
0000
0000
0000
0000
;

//---------------dance-single - ----------------
#NOTES:
     dance-single:
     :
     Easy:
     1:
     0.000,0.000,0.000,0.000,0.000,0.000,0.000,0.000,0.000,0.000:
0000
0000
0000
0000
;
