#TITLE:Narcissus At Oasis;
#SUBTITLE:;
#ARTIST:Ryu;
#TITLETRANSLIT:;
#SUBTITLETRANSLIT:;
#ARTISTTRANSLIT:;
#CREDIT:;
#BANNER:Narcissus At Oasis.PNG;
#BACKGROUND:Narcissus At Oasis-bg.png;
#LYRICSPATH:;
#CDTITLE:bwtitle.PNG;
#MUSIC:Narcissus At Oasis.mp3;
#OFFSET:-0.394;
#SAMPLESTART:20.630;
#SAMPLELENGTH:12.000;
#SELECTABLE:YES;
#BPMS:0.000=170.000,74.000=85.000,79.000=170.000,143.000=85.000,175.000=170.000,245.000=85.000;
#STOPS:146.250=4.200
,179.000=0.700
;
#BGCHANGES:;
// cache tags:
#FIRSTBEAT:12.000;
#LASTBEAT:262.000;
#SONGFILENAME:Songs/Ace Megapack/Narcissus At Oasis/Narcissus At Oasis.sm;
#HASMUSIC:1;
#HASBANNER:1;
#MUSICLENGTH:120.920;
// end cache tags

//---------------dance-single - ----------------
#NOTES:
     dance-single:
     :
     Hard:
     10:
     0.995,0.975,0.951,1.000,0.686,586.000,115.000,141.000,0.000,13.000:  // measure 1
0000
0000
0000
0000
,  // measure 2
0000
0000
0000
0000
,  // measure 3
0000
0000
0000
0000
,  // measure 4
2002
3003
0100
0000
0100
0000
0022
0033
0100
0000
0100
0000
2020
3030
0001
0000
,  // measure 5
0220
0330
0001
0000
0001
0000
2200
3300
0010
0000
0010
0000
0010
0000
2200
3300
,  // measure 6
0220
0330
1000
0000
1000
0000
0022
0033
0100
0000
0100
0000
2002
3003
0010
0000
,  // measure 7
0220
0330
0001
0000
0001
0000
0022
0033
1000
0000
1000
0000
2200
3300
0001
0000
,  // measure 8
0220
0330
0001
0000
0001
0000
2200
3300
0010
0000
0010
0000
2002
3003
0010
0000
,  // measure 9
0220
0300
1000
0000
1030
0000
0202
0300
0010
0000
0100
0000
1000
0000
0013
0000
,  // measure 10
0202
0300
1000
0000
1003
0000
0022
0030
1000
0000
1003
0000
0220
0030
0301
0000
,  // measure 11
0220
0300
1000
0000
1030
0000
0202
0300
0010
0000
0013
0000
2002
0003
3010
0000
,  // measure 12
2200
3000
0001
0000
0301
0000
0220
0300
1000
0000
1030
0000
0022
0003
1030
0000
,  // measure 13
0220
0300
1000
0000
1030
0000
0022
0003
0100
0000
0100
0000
0130
0000
2020
3030
,  // measure 14
0220
0030
0001
0000
0301
0000
2020
0030
0100
0000
3100
0000
2020
0030
3001
0000
,  // measure 15
2200
0300
0010
0000
3010
0000
2002
3000
0100
0000
0103
0000
2020
3000
0130
0000
,  // measure 16
0022
0030
0100
0000
0010
0000
0100
0000
1000
0000
0103
0000
2200
3300
0220
0330
,  // measure 17
2200
3000
0310
0000
0202
0003
0310
0000
2200
3000
0310
0000
2002
3000
0013
0000
,  // measure 18
0202
0003
0301
0000
0100
0000
1000
0000
0100
0000
0010
0000
0001
0000
0010
0000
,  // measure 19
0002
0000
0000
0000
,  // measure 20
0000
0000
0000
0000
0000
0000
0000
0000
0000
0000
0000
0000
0103
0000
0010
0100
,  // measure 21
0010
0000
0100
0000
0010
0000
0001
0100
0010
0100
0001
0000
1100
0000
0100
0000
,  // measure 22
0011
0000
0010
1000
0100
0000
0100
0010
0001
0010
0100
0010
0001
0000
1000
0000
,  // measure 23
0011
0000
1000
0100
1000
0000
0001
0000
0100
0000
1000
0000
1100
0000
1001
0000
,  // measure 24
0110
0000
0011
0000
1000
0010
0001
0010
1000
0010
0001
0000
1000
0000
0001
0100
,  // measure 25
1000
0000
0100
0000
0001
0010
1000
0000
0010
0000
0011
0000
1100
0000
1000
0001
,  // measure 26
0010
0100
1000
0000
1000
0001
0010
1000
0010
0000
1001
0000
0011
0000
1100
0000
,  // measure 27
1000
0000
0001
0010
0100
0010
0001
0100
0010
1000
0001
0000
1100
0000
0000
0000
,  // measure 28
0110
0000
0000
0001
0011
0000
1100
0000
0000
0000
1010
0000
1001
0000
1000
0000
,  // measure 29
0001
0100
1000
0000
0100
0000
0010
0001
0010
0100
0001
0010
0100
0000
1000
0000
,  // measure 30
1000
0000
0010
0100
0001
0000
0010
0000
1000
0000
0010
0001
0100
1000
0100
0001
,  // measure 31
0010
0100
1000
0001
0100
0010
1000
0100
0010
0001
0010
0000
1001
0000
1001
0000
,  // measure 32
0000
0000
1000
0100
1000
0000
0011
0000
1001
0000
0110
0000
0011
0000
0100
0000
,  // measure 33
1000
0100
0001
0100
1000
0100
0010
0001
,  // measure 34
0010
0000
0100
1000
0100
0000
1000
0000
0100
0000
0010
0000
0001
0010
0100
1000
,  // measure 35
0001
0010
0100
1000
0001
0010
0100
1000
0100
0010
0001
1000
0100
0010
0001
1000
,  // measure 36
0100
0010
0001
0010
0100
2000
0000
0000
0000
0000
0000
0000
3000
0000
1100
0000
,  // measure 37
0000
0101
0000
0000
1001
0000
0110
0000
0000
1001
0000
0000
2000
0000
0000
0002
,  // measure 38
0000
0000
3200
0000
2003
0000
3300
0022
0000
0000
0000
0030
0000
0200
0000
0003
,  // measure 39
0020
0000
0300
2000
0030
0002
0000
0000
3223
0000
0000
2332
0000
0023
0000
0030
,  // measure 40
3200
0000
0000
2300
0000
0002
0000
3000
0020
0000
0000
0000
0033
2200
3000
0000
,  // measure 41
2300
0000
3000
0020
0000
2000
3000
0000
0230
0000
0000
0000
0320
0000
1000
2000
,  // measure 42
0000
0030
3200
0000
2000
0300
0100
0100
0000
0000
0001
3002
2000
0003
0000
3002
,  // measure 43
0000
0000
2000
0000
3020
0000
0103
0230
0000
0000
0302
0000
1003
0100
0001
1000
,  // measure 44
0010
0001
0010
0100
0010
0001
0010
0100
1000
0001
0010
0100
1000
0001
1000
0100
,  // measure 45
1000
0010
1000
0001
1000
0100
1000
0001
2000
0000
0000
0000
3010
0000
1100
0000
,  // measure 46
0110
0000
1100
0000
0001
0100
0010
1000
0001
0010
0100
1000
0010
0100
0001
1000
,  // measure 47
0001
0000
1001
0000
1000
0100
0010
0001
0100
0010
1000
0100
0010
0100
1000
0001
,  // measure 48
1000
0000
1001
0000
1000
0001
0000
1000
0001
0000
0011
0000
1001
0000
0110
0000
,  // measure 49
1010
0000
0011
0000
0001
1000
0010
1000
0100
0010
0100
1000
0010
0100
0001
0010
,  // measure 50
0100
0000
1001
0000
1000
0100
0001
0100
1000
0000
1001
0000
0001
0010
1000
0010
,  // measure 51
0001
0000
1001
0000
0001
0100
1000
0100
0001
0000
1001
0000
1000
0010
0001
0010
,  // measure 52
1000
0000
1001
0000
1000
0010
0100
0001
0100
0010
0100
0001
0010
0100
0010
0001
,  // measure 53
0010
0100
1000
0100
0010
0100
1000
0001
0100
0010
1000
0100
0010
0000
0101
0000
,  // measure 54
0110
0000
1010
0000
1000
0010
0100
0001
0100
0001
0010
0100
0010
0001
1000
0100
,  // measure 55
0010
0100
1000
0001
0100
0010
1000
0010
0100
0001
1000
0001
0010
0100
1000
0100
,  // measure 56
0010
0000
1001
0000
1000
0100
0001
0000
1001
0000
0001
0010
1000
0000
1001
0000
,  // measure 57
1000
0100
0001
0010
0100
1000
0100
0010
0001
0100
1000
0100
0001
0000
1001
0000
,  // measure 58
1000
0010
0001
0000
0110
0000
1001
0000
0110
0000
0011
0000
0101
0000
1010
0000
,  // measure 59
0110
0000
1100
0000
0101
0000
1001
0000
0110
0000
0110
1001
0110
0000
1001
0000
,  // measure 60
1001
0000
0110
0000
1000
0100
0001
0100
1000
0010
0001
0010
1000
0100
0010
0001
,  // measure 61
1000
0100
0010
0100
1000
0001
0010
0100
0010
0001
1000
0010
0001
0010
1000
0100
,  // measure 62
0020
0000
0000
0000
0032
0000
0000
2000
0000
0000
3020
0000
0233
0000
0000
0002
,  // measure 63
0300
0000
0000
0200
2003
0000
0300
0200
3000
0000
0020
0300
0002
0000
0000
2003
,  // measure 64
0000
0030
0020
0000
0230
0000
0000
0000
0000
0000
0000
0000
3002
0000
0000
0000
,  // measure 65
0000
0300
0000
0000
0200
0000
0000
0000
0000
0000
0000
0000
0000
0000
0000
0000
,  // measure 66
0000
0000
0303
0000
;
