#TITLE:Paradise Lost;
#SUBTITLE:;
#ARTIST:Thanatos;
#TITLETRANSLIT:;
#SUBTITLETRANSLIT:;
#ARTISTTRANSLIT:;
#CREDIT:;
#BANNER:../banner.png;
#BACKGROUND:../bg.png;
#LYRICSPATH:;
#CDTITLE:;
#MUSIC:Paradise Lost.ogg;
#OFFSET:0.077;
#SAMPLESTART:137.780;
#SAMPLELENGTH:20.620;
#SELECTABLE:YES;
#BPMS:0.000=188.009;
#STOPS:;
#BGCHANGES:;
// cache tags:
#FIRSTBEAT:3.500;
#LASTBEAT:728.000;
#SONGFILENAME:Songs/Cirque du Lykan/Paradise Lost - [Zaia]/Paradise Lost.sm;
#HASMUSIC:1;
#HASBANNER:1;
#MUSICLENGTH:241.718;
// end cache tags

//---------------dance-single - Zaia - 16(mid-high)----------------
#NOTES:
     dance-single:
     Zaia - 16(mid-high):
     Challenge:
     16:
     1.000,1.000,0.000,0.029,1.000,2616.000,0.000,7.000,0.000,0.000:
0000
0000
0000
0000
0000
0000
0000
0001
,
1000
0010
0100
0001
1000
0100
1000
0001
0010
0001
1000
0010
0100
0001
1000
0100
,
0010
0100
0010
0001
1000
0010
1000
0001
0100
0001
1000
0100
0010
0001
1000
0010
,
0100
0010
0100
0001
1000
0001
0010
0001
1000
0100
1000
0001
0100
0010
1000
0001
,
0010
0100
0010
0100
1000
0001
0100
0001
1000
0010
1000
0001
1000
0100
0010
0001
,
0100
0010
1000
0001
1000
0100
1000
0001
0010
0001
1000
0010
0100
0001
1000
0100
,
0010
0100
0010
0001
1000
0010
1000
0001
0100
0001
1000
0001
0010
0100
1000
0010
,
0100
0001
1000
0010
1000
0001
0010
0001
1000
0100
1000
0001
0100
0010
1000
0001
,
0010
0100
0010
0100
1000
0001
0100
0001
1000
0010
1000
0001
1000
0100
0010
0001
,
0100
0010
1000
0001
1000
0100
1000
0001
0100
0001
1000
0001
0010
0100
1000
0010
,
0100
0010
1000
0001
1000
0100
1000
0001
0100
0001
1000
0001
0100
0010
1000
0100
,
0010
0100
1000
0001
1000
0100
1000
0001
0100
0001
1000
0001
0010
0100
1000
0010
,
0100
0010
1000
0001
1000
0010
1000
0001
0010
0001
1000
0001
0100
0010
1000
0100
,
0010
0100
1000
0001
1000
0100
1000
0010
0100
0010
1000
0001
1000
0010
0100
0001
,
0010
0100
0010
0001
1000
0001
0010
0001
0100
0010
0100
0001
1000
0100
1000
0010
,
0100
0001
1000
0001
0100
0010
1000
0001
1000
0100
0010
0100
1000
0001
0010
0001
,
1000
0010
0100
0001
1000
0001
0010
0100
1000
0001
1000
0001
0010
0000
0000
0000
,
0100
1000
0001
0100
0001
1000
0010
1000
0001
1000
0100
0010
0001
1000
0001
0100
,
0001
1000
0100
1000
0100
0010
0001
1000
0001
0100
0010
1000
0001
1000
0001
0010
,
0001
1000
0010
1000
0010
0100
0001
1000
0001
0010
0100
1000
0001
1000
0100
1000
,
0001
0100
0001
0100
0010
1000
0001
1000
0100
0010
0001
1000
0001
1000
0010
1000
,
0001
0010
0001
0010
0100
1000
0001
1000
0010
0100
0001
1000
0010
1000
0001
0100
,
0001
1000
0100
1000
0100
0010
0001
1000
0001
0100
0001
1000
0010
1000
0001
0010
,
0001
1000
0010
1000
0010
0100
0001
1000
0001
0010
0001
1000
0100
1000
0001
0100
,
0001
1000
0100
1000
0100
0010
0001
1000
0001
0100
0001
1000
0010
1000
0001
0010
,
0001
1000
0100
1000
0001
1000
0010
0100
0001
1000
0001
0010
0100
1000
0001
0100
,
0001
1000
0010
1000
0001
1000
0100
0010
0001
1000
0001
0100
0010
1000
0100
1000
,
0001
0010
0001
1000
0001
0100
0010
1000
0001
1000
0100
0010
0001
1000
0010
1000
,
0001
0100
0001
1000
0001
0010
0100
1000
0001
1000
0010
0100
0001
1000
0001
0010
,
0001
1000
0100
1000
0001
1000
0010
0100
0001
1000
0001
0010
0100
1000
0001
0100
,
0001
1000
0010
1000
0001
1000
0100
0010
0001
1000
0001
0100
0001
1000
0100
1000
,
0001
0010
0001
1000
0001
0100
0010
1000
0001
1000
0100
0010
0001
1000
0010
1000
,
0001
0100
0001
1000
0001
0010
0100
0000
0000
0000
1000
0000
0000
0000
0001
0000
,
1000
0001
0100
0001
0010
0100
1000
0001
1000
0010
0100
0001
0010
0001
1000
0010
,
1000
0001
0010
0001
0100
0010
1000
0001
1000
0100
0010
0001
0100
0010
0100
0001
,
1000
0100
1000
0010
0100
0001
1000
0001
0010
0100
1000
0010
1000
0001
0010
0001
,
1000
0010
1000
0100
0010
0001
1000
0001
0100
0010
1000
0100
1000
0001
0100
0001
,
1000
0100
1000
0001
0100
0010
1000
0001
1000
0100
0010
0001
0100
0001
1000
0100
,
1000
0001
0100
0001
0010
0100
1000
0001
1000
0010
0100
0001
0010
0100
0010
0001
,
1000
0010
1000
0100
0010
0001
1000
0001
0100
0010
1000
0100
1000
0001
0100
0001
,
1000
0100
1000
0010
0100
0001
1000
0001
0010
0100
1000
0010
1000
0001
0010
0001
,
1000
0010
0100
0001
0010
0100
1000
0001
1000
0010
0100
0001
0010
0001
1000
0010
,
1000
0001
0010
0001
0100
0010
1000
0001
1000
0100
0010
0001
0100
0010
0100
0001
,
1000
0100
1000
0010
0100
0001
1000
0001
0010
0100
1000
0010
1000
0001
0010
0001
,
1000
0010
1000
0100
0010
0001
1000
0001
0100
0010
1000
0100
1000
0001
0100
0001
,
1000
0100
1000
0001
0100
0010
1000
0001
1000
0100
0010
0001
0100
0001
1000
0100
,
1000
0001
0100
0001
0010
0100
1000
0001
1000
0010
0100
0001
0010
0100
0010
0001
,
1000
0010
1000
0100
0010
0001
1000
0010
0100
0001
1000
0100
1000
0001
0100
0001
,
1000
0100
1000
0001
0100
0010
1000
0001
0010
0100
1000
0001
1000
0001
0100
0010
,
1000
0000
0000
0000
,
0000
0000
0000
0000
,
0001
0000
0000
0010
0000
0000
0100
0000
0000
1000
0000
0000
0010
0000
0100
0000
,
0001
0000
0000
0010
0000
0000
0100
0000
0000
0010
0000
0000
0001
0000
0100
0000
,
0010
0000
0000
1000
0000
0000
0001
0000
0000
0100
0000
0000
0001
0000
1000
0000
,
0100
0000
0000
1000
0000
0000
0001
0000
0000
0010
0000
0000
0100
0000
1000
0000
,
0001
0000
0000
0100
0000
0000
0010
0000
0000
1000
0000
0000
0100
0000
0010
0000
,
0001
0000
0000
0100
0000
0000
0010
0000
0000
0100
0000
0000
0001
0000
0010
0000
,
0100
0000
0000
1000
0000
0000
0001
0000
0000
0010
0000
0000
0001
0000
1000
0000
,
0010
0000
0000
1000
0000
0000
0001
0000
0000
0100
0000
0000
0010
0000
1000
0000
,
0001
0000
0000
0010
0000
0000
0100
0000
0000
1000
0000
0000
0010
0000
0100
0000
,
0001
0000
0000
0010
0000
0000
0100
0000
0000
0010
0000
0000
0001
0000
0100
0000
,
0001
0010
0100
1000
0001
0100
0010
0100
,
0001
0010
0100
1000
0010
1000
0100
1000
,
0001
0100
0010
1000
0100
0010
0001
0100
,
0010
0100
0001
0010
0100
1000
0001
0010
,
0001
1000
0100
1000
0001
0010
0100
1000
,
0010
0100
0001
1000
0100
0010
0001
0000
,
1000
0010
1000
0001
1000
0010
0100
0001
0010
0100
1000
0001
1000
0010
0100
0001
,
1000
0100
1000
0001
1000
0100
0010
0001
0100
0010
1000
0001
1000
0100
0010
0001
,
1000
0010
0100
0001
1000
0001
0010
0100
1000
0010
0100
0001
1000
0001
0010
0100
,
1000
0001
0100
0001
1000
0001
0100
0010
1000
0100
0010
0001
1000
0001
0100
0010
,
1000
0001
0010
0001
1000
0100
0010
0001
0100
0010
1000
0001
1000
0100
0010
0001
,
1000
0010
1000
0001
1000
0010
0100
0001
0010
0100
1000
0001
1000
0010
0100
0001
,
1000
0100
0010
0001
1000
0001
0100
0010
1000
0100
0010
0001
1000
0001
0100
0010
,
1000
0001
0010
0001
1000
0001
0010
0100
1000
0010
0100
0001
1000
0001
0010
0100
,
1000
0010
1000
0001
1000
0010
0100
0001
0010
0100
1000
0001
1000
0010
0100
0001
,
1000
0100
1000
0001
1000
0100
0010
0001
0100
0010
1000
0001
1000
0100
0010
0001
,
1000
0010
0100
0001
1000
0001
0010
0100
1000
0010
0100
0001
1000
0001
0010
0100
,
1000
0001
0100
0001
1000
0001
0100
0010
1000
0100
0010
0001
1000
0001
0100
0010
,
1000
0001
0010
0001
1000
0100
0010
0001
0100
0010
1000
0001
1000
0100
0010
0001
,
1000
0010
1000
0001
1000
0010
0100
0001
0010
0100
1000
0001
1000
0010
0100
0001
,
1000
0100
0010
0001
1000
0001
0100
0010
1000
0100
0010
0001
1000
0001
0100
0010
,
1000
0001
0010
0001
1000
0001
0010
0100
1000
0010
0100
0001
1000
0001
0010
0100
,
1000
0001
1000
0010
1000
0100
0010
0001
,
1000
0001
0010
0001
0100
0010
1000
0001
,
0100
0000
0001
0100
0001
0000
1000
0100
1000
0000
0001
0010
0001
0000
1000
0010
,
1000
0000
0001
0010
0001
0000
1000
0100
1000
0000
0001
0100
0001
0000
1000
0010
,
1000
0001
1000
0100
0010
0100
1000
0001
0010
0100
0010
0001
1000
0010
0100
0001
,
1000
0001
0010
0001
1000
0010
0100
0010
1000
0001
0100
0010
0100
0001
1000
0001
,
0010
0001
1000
0100
0010
0100
1000
0001
0010
0100
0010
0001
1000
0010
0100
0001
,
1000
0001
0010
0001
1000
0010
0100
0010
1000
0001
1000
0010
1000
0001
0100
0010
,
1000
0100
1000
0001
0100
0010
1000
0001
1000
0100
0010
0100
1000
0001
0010
0100
,
1000
0010
1000
0001
0010
0100
1000
0001
1000
0010
0100
0010
1000
0001
0100
0010
,
1000
0100
1000
0001
0100
0010
1000
0001
1000
0100
0010
0100
1000
0001
0010
0100
,
1000
0010
1000
0001
0010
0100
1000
0001
1000
0010
0100
0010
1000
0001
0100
0001
,
0010
0001
1000
0010
0100
0001
1000
0001
0010
0100
0010
0001
1000
0100
0010
0001
,
0100
0001
1000
0100
0010
0001
1000
0001
0100
0010
0100
0001
1000
0010
0100
0001
,
0010
0001
1000
0010
0100
0001
1000
0001
0010
0100
0010
0001
1000
0100
0010
0001
,
0100
0001
1000
0100
0010
0001
1000
0001
0100
0000
0000
0000
0000
0000
0000
0000
,
0000
0000
0000
0000
,
1000
0100
1000
0010
0100
0001
1000
0010
1000
0001
0010
0001
1000
0010
1000
0100
,
1000
0001
0010
0001
0100
0010
1000
0001
0100
0001
1000
0100
1000
0001
0100
0001
,
0010
0100
1000
0010
0100
0001
1000
0010
1000
0001
0010
0001
1000
0010
1000
0100
,
1000
0001
0010
0001
0100
0010
1000
0001
0100
0001
1000
0100
1000
0001
0100
0010
,
1000
0001
1000
0100
0010
0001
1000
0100
1000
0001
0100
0001
1000
0100
1000
0010
,
1000
0001
0100
0001
0010
0100
1000
0001
0010
0001
1000
0010
1000
0001
0010
0001
,
0100
0010
1000
0100
0010
0001
1000
0100
1000
0001
0100
0001
1000
0100
1000
0010
,
1000
0001
0100
0001
0010
0100
1000
0001
0010
0001
1000
0010
1000
0001
1000
0100
,
0010
0001
0100
0010
1000
0001
0100
0001
1000
0100
1000
0001
0100
0001
0010
0001
,
1000
0100
1000
0010
0100
0001
1000
0010
1000
0001
0010
0001
1000
0010
1000
0100
,
0010
0001
0100
0010
1000
0001
0100
0001
1000
0100
1000
0001
0100
0001
0010
0001
,
1000
0100
1000
0010
0100
0001
1000
0010
1000
0001
0010
0001
1000
0010
0100
0001
,
1000
0001
0010
0100
1000
0001
0010
0001
1000
0010
1000
0001
0010
0001
0100
0001
,
1000
0010
1000
0100
0010
0001
1000
0100
1000
0001
0100
0001
1000
0100
1000
0010
,
0100
0001
0010
0100
1000
0001
0010
0001
1000
0010
1000
0001
0010
0001
0100
0001
,
1000
0010
1000
0100
0010
0001
1000
0100
1000
0001
1000
0001
0100
0010
1000
0001
,
1000
0100
1000
0010
0100
0001
1000
0010
1000
0001
0010
0001
1000
0010
1000
0100
,
1000
0001
0010
0001
0100
0010
1000
0001
0100
0001
1000
0100
1000
0001
0100
0001
,
0010
0100
1000
0010
0100
0001
1000
0010
1000
0001
0010
0001
1000
0010
1000
0100
,
1000
0001
0010
0001
0100
0010
1000
0001
0100
0001
1000
0100
1000
0001
0100
0010
,
1000
0001
1000
0100
0010
0001
1000
0100
1000
0001
0100
0001
1000
0100
1000
0010
,
1000
0001
0100
0001
0010
0100
1000
0001
0010
0001
1000
0010
1000
0001
0010
0001
,
0100
0010
1000
0100
0010
0001
1000
0100
1000
0001
0100
0001
1000
0100
1000
0010
,
1000
0001
0100
0001
0010
0100
1000
0001
0010
0001
1000
0010
1000
0001
1000
0100
,
0010
0001
0100
0010
1000
0001
0100
0001
1000
0100
1000
0001
0100
0001
0010
0001
,
1000
0100
1000
0010
0100
0001
1000
0010
1000
0001
0010
0001
1000
0010
1000
0100
,
0010
0001
0100
0010
1000
0001
0100
0001
1000
0100
1000
0001
0100
0001
0010
0001
,
1000
0100
1000
0010
0100
0001
1000
0010
1000
0001
0010
0001
1000
0010
0100
0001
,
1000
0001
0010
0100
1000
0001
0010
0001
1000
0010
1000
0001
0010
0001
0100
0001
,
1000
0010
1000
0100
0010
0001
1000
0100
1000
0001
0100
0001
1000
0100
1000
0010
,
0100
0001
0010
0100
1000
0001
0010
0001
1000
0010
1000
0001
0010
0001
0100
0001
,
1000
0010
1000
0100
0010
0001
1000
0100
1000
0001
1000
0001
0100
0000
0010
0000
,
1000
0001
0010
0001
1000
0001
0100
0010
1000
0001
1000
0100
0010
0001
1000
0010
,
1000
0100
1000
0100
0010
0001
0010
0100
1000
0001
1000
0010
1000
0001
0010
0001
,
0100
0001
0100
0001
1000
0010
0100
0001
1000
0001
0010
0100
1000
0001
0100
0001
,
0010
0100
1000
0100
1000
0001
0010
0001
1000
0001
0100
0010
1000
0001
1000
0100
,
1000
0010
1000
0010
0100
0001
1000
0010
1000
0100
1000
0100
0010
0001
1000
0100
,
1000
0010
1000
0010
0100
0001
1000
0010
1000
0100
1000
0100
0010
0001
1000
0010
,
1000
0001
0010
0001
0010
0100
1000
0001
1000
0100
0010
0100
1000
0001
0100
0001
,
1000
0010
1000
0001
1000
0100
0010
0100
1000
0001
1000
0010
0100
0001
1000
0001
,
0010
0100
1000
0001
0010
0001
1000
0010
0100
0010
1000
0001
1000
0001
0010
0100
,
1000
0010
1000
0001
0100
0001
1000
0100
0010
0100
1000
0001
1000
0001
0100
0010
,
1000
0100
1000
0001
0010
0001
1000
0010
0100
0010
1000
0001
1000
0001
0010
0100
,
1000
0010
1000
0001
0100
0001
1000
0100
0010
0100
1000
0001
1000
0001
0100
0001
,
0010
0100
1000
0001
0010
0001
1000
0010
0100
0010
1000
0001
1000
0001
0010
0100
,
1000
0010
1000
0001
0100
0001
1000
0100
0010
0100
1000
0001
1000
0001
0100
0010
,
2000
0000
0000
3002
0000
0000
0203
0000
0000
0302
0000
0000
0023
0000
0230
0000
,
1300
0001
1000
0100
1000
0001
0100
0001
1000
0001
1000
0100
0010
0001
1000
0000
,
0001
0010
0001
0100
0010
1000
0001
0100
0001
1000
0100
1000
0001
0100
0001
0010
,
0001
1000
0100
1000
0010
0100
0001
1000
0010
1000
0001
0010
0001
1000
0010
1000
,
0100
0010
0001
0100
0010
1000
0001
0100
0001
1000
0100
1000
0001
0100
0001
0010
,
0001
1000
0100
1000
0010
0100
0001
1000
0010
1000
0001
0010
0001
1000
0010
0100
,
0001
1000
0001
0010
0100
1000
0001
0010
0001
1000
0010
1000
0001
0010
0001
0100
,
0001
1000
0010
1000
0100
0010
0001
1000
0100
1000
0001
0100
0001
1000
0100
1000
,
0010
0100
0001
0010
0100
1000
0001
0010
0001
1000
0010
1000
0001
0010
0001
0100
,
0001
1000
0010
1000
0100
0010
0001
1000
0100
1000
0001
0100
0001
1000
0001
0010
,
0100
1000
0010
0100
0001
1000
0010
1000
0001
0010
0001
1000
0010
1000
0100
1000
,
0001
0010
0001
0100
0010
1000
0001
0100
0001
1000
0100
1000
0001
0100
0001
0010
,
0100
1000
0010
0100
0001
1000
0010
1000
0001
0010
0001
1000
0010
1000
0100
1000
,
0001
0010
0001
0100
0010
1000
0001
0100
0001
1000
0100
1000
0001
0100
0010
1000
,
0001
1000
0100
0010
0001
1000
0100
1000
0001
0100
0001
1000
0100
1000
0010
1000
,
0001
0100
0001
0010
0100
1000
0001
0010
0001
1000
0010
1000
0001
0010
0001
0100
,
0010
1000
0100
0010
0001
1000
0100
1000
0001
0100
0001
1000
0100
1000
0010
1000
,
0001
0100
0001
1000
0100
1000
0001
0010
0001
1000
0001
1000
0010
0100
0001
1000
,
0001
0010
0001
0100
0010
1000
0001
0100
0001
1000
0100
1000
0001
0100
0010
1000
,
0001
0010
0001
0100
0010
1000
0001
0100
0001
1000
0100
1000
0001
0100
0001
1000
,
0100
1000
0010
0100
0001
1000
0010
1000
0001
0010
0001
1000
0010
0100
0001
1000
,
0100
1000
0010
0100
0001
1000
0010
1000
0001
0010
0001
1000
0010
0100
0001
1000
,
0001
0100
0001
0010
0100
1000
0001
0010
0001
1000
0010
1000
0001
0010
0100
1000
,
0001
0100
0001
0010
0100
1000
0001
0010
0001
1000
0010
1000
0001
0010
0001
1000
,
0010
1000
0100
0010
0001
1000
0100
1000
0001
0100
0001
1000
0100
0010
0001
1000
,
0010
1000
0100
0010
0001
1000
0100
1000
0001
0100
0001
1000
0100
0010
0001
1000
,
0100
1000
0010
0100
0001
1000
0010
1000
0001
0010
0001
1000
0010
0100
0001
1000
,
0100
1000
0010
0100
0001
1000
0010
1000
0001
0010
0001
1000
0010
1000
0001
0100
,
0001
0010
0100
1000
0001
0010
0001
1000
0010
1000
0001
0010
0100
1000
0001
0100
,
0001
0010
0100
1000
0001
0010
0001
1000
0010
1000
0001
0010
0100
1000
0001
1000
,
0010
1000
0100
0010
0001
1000
0100
1000
0001
0100
0001
1000
0100
0010
0001
1000
,
0010
1000
0100
0010
0001
1000
0100
1000
0001
0100
0001
1000
0100
1000
0001
0010
,
0001
0100
0010
1000
0001
0100
0001
1000
0100
1000
0001
0100
0010
1000
0001
0010
,
0001
0100
0010
1000
0001
0100
0001
1000
0100
1000
0001
0100
0010
1000
0001
1000
,
0020
0000
0000
0000
,
0000
0000
0000
0000
,
0030
0000
0000
0000
;
