#TITLE:The Living Doorway;
#SUBTITLE:;
#ARTIST:Decrepit Birth;
#TITLETRANSLIT:;
#SUBTITLETRANSLIT:;
#ARTISTTRANSLIT:;
#CREDIT:;
#BANNER:ld-ban.JPG;
#BACKGROUND:ld-bg.JPG;
#LYRICSPATH:;
#CDTITLE:flainercd.png;
#MUSIC:01 The Living Doorway.ogg;
#OFFSET:-0.310;
#SAMPLESTART:0.280;
#SAMPLELENGTH:12.000;
#SELECTABLE:YES;
#DISPLAYBPM:199.000:235.000;
#BPMS:0.000=235.000,231.000=225.000,242.000=235.000,326.000=215.000,328.000=199.000,415.000=235.000,769.500=265.000,771.000=240.000,789.000=230.000,795.000=235.000;
#STOPS:;
#BGCHANGES:;
// cache tags:
#FIRSTBEAT:0.000;
#LASTBEAT:988.000;
#SONGFILENAME:Songs/SSSC PACK/[Zarkonis, Shiner, and Flaire] - The Living Doorway {17ft}/steps.sm;
#HASMUSIC:1;
#HASBANNER:1;
#MUSICLENGTH:263.392;
// end cache tags

//---------------dance-single - by Shiner----------------
#NOTES:
     dance-single:
     by Shiner:
     Challenge:
     17:
     1.000,1.000,0.676,0.129,1.000,3196.000,178.000,34.000,19.000,0.000:

1100
0000
0000
0000
1000
0100
1000
0100
0010
0001
0010
0001
0010
0001
0010
0001
,
1000
0001
1000
0001
1000
0001
1000
0001
1000
0010
1000
0010
1000
0000
0000
0000
,
0010
0000
0100
0000
0100
0000
0100
0000
0001
0100
0001
0100
0001
0000
0010
0000
,
0100
1000
0100
1000
0100
0000
0010
0000
0011
0000
0001
0000
0100
0000
0010
0000
,
1100
1100
0110
0110
0011
0011
1001
1001
,
1100
1100
1010
1010
0101
0101
0022
0033
,
0001
0010
0100
0010
0001
0010
0001
1000
0100
0010
0001
0010
0001
0010
0100
0010
,
0001
1000
0100
0010
0100
1000
0100
0010
0001
1000
0001
0010
0100
1000
0100
0010
,
0100
1000
0100
1000
0100
1000
0100
1000
0100
0000
0000
0000
1001
0000
0000
0000
,
0001
0010
0100
0000
1000
0010
0100
0000
0001
0010
0100
0000
1000
0010
0100
0000
,
0001
1000
0001
1000
0001
1000
0001
1000
0010
1000
0001
1000
0001
1000
0001
1000
,
0001
1000
0001
1000
0001
1000
0001
1000
0100
1000
0001
1000
0001
1000
0001
1000
,
0100
0010
0100
0010
0100
0010
0100
0010
0001
0000
0000
0000
0011
0000
0000
0000
,
1000
0100
0010
0001
1000
0000
0100
1000
0100
0000
1000
0001
0100
0000
0001
0000
,
1000
0100
1000
0100
1000
0100
1000
0100
0010
0100
1000
0100
1000
0100
1000
0100
,
1000
0100
1000
0100
1000
0100
1000
0100
0010
0100
1000
0100
1000
0100
1000
0100
,
0010
0001
0010
0001
0010
0001
0010
0001
1000
0000
0000
0000
1000
0001
0010
0100
,
1000
0100
0010
0001
0010
0000
0001
0010
0001
0000
0010
0100
0010
0000
0110
0000
,
1000
0100
0010
0001
1000
0100
0010
0001
1000
0100
0010
0001
1000
0100
0010
0001
,
1000
0010
0100
0001
1000
0010
0100
0001
1000
0010
0100
0001
1000
0010
0100
0001
,
1000
0000
0100
0000
1000
0000
0100
0000
0010
0000
0001
0000
0010
0100
0010
0100
,
0010
0100
1000
0001
0010
0100
1000
0001
,
1000
0001
0010
0100
1000
0001
0010
0100
1000
0001
0010
0100
1000
0001
0010
0100
,
1000
0001
0100
0010
1000
0001
0100
0010
1000
0001
0100
0010
1000
0001
0100
0010
,
1000
0001
0100
0001
1000
0001
0100
0001
1000
0001
0100
0001
1000
0001
0100
0001
,
1000
0010
1000
0001
1000
0010
1000
0001
1000
0010
1000
0001
1000
0010
1000
0001
,
0010
0100
0010
0001
0010
0100
0010
0001
0010
0100
0010
0001
0010
0100
0010
0001
,
0010
0100
0010
0001
0010
0100
1000
0100
0010
0001
0010
0100
0010
0001
0010
0100
,
1000
0001
1100
1000
0100
0010
0001
0010
,
0010
0100
1000
0001
0010
0100
1000
0001
0100
0010
1000
0001
0100
0010
1000
0001
,
1000
0001
0010
0100
1000
0000
0001
0000
0011
0000
0001
0000
0010
0000
0100
0000
,
1000
0000
0000
0000
1000
0001
1000
0001
1000
0010
1000
0010
0100
0001
0100
0001
,
1000
0100
1000
0100
1000
0100
1000
0100
1000
0100
1000
0100
0010
0001
0010
0001
,
0010
0001
0010
0001
1000
0001
1000
0001
0100
0010
0100
0010
1000
0010
1000
0010
,
1000
0010
1000
0010
1000
0000
0100
0000
0010
0000
0001
0000
0010
0000
0100
0000
,
1000
0010
1000
0010
0100
0010
0100
0010
1000
0010
1000
0010
0100
0001
0100
0001
,
1000
0001
1000
0001
0010
0001
0010
0001
1000
0000
1000
0000
0100
0000
0100
0000
,
0011
0000
0000
0000
0001
0010
0100
1000
0001
0010
0100
1000
0001
0010
0001
1000
,
0010
1000
0010
1000
0001
1000
0001
1000
0100
1000
0001
0000
0101
0000
0101
0000
,
0001
0100
0001
1000
0001
0100
0001
1000
0001
0100
0001
1000
0001
0100
0001
1000
,
0001
0010
0001
0010
0100
0010
0100
0010
0001
1000
0001
0000
1010
0000
1010
0000
,
1000
0010
1000
0001
1000
0010
1000
0001
1000
0010
1000
0001
1000
0010
1000
0001
,
1000
0100
1000
0100
1000
0001
1000
0001
1000
0010
1000
0000
1001
0000
1001
0000
,
0001
0100
0010
0100
0001
0100
0010
0100
0001
0100
0010
0100
0001
0100
0010
0100
,
0010
1000
0010
1000
0010
0100
0010
0100
0001
0100
0001
0100
0010
0000
1000
0000
,
0100
1000
0100
0010
0100
1000
0100
0010
0100
1000
0100
0010
0100
1000
0100
0010
,
0100
1000
0001
1000
0100
1000
0001
1000
0100
1000
0001
0010
0100
1000
0100
0010
,
0001
0010
0100
0010
0001
0010
0100
0010
0001
1000
0001
1000
0001
0000
0010
0000
,
0100
0000
0100
0000
1000
0100
1000
0000
0010
0000
1000
0000
0100
0000
0010
0000
,
0001
0010
0001
0000
0100
0000
0010
0000
1000
0000
0100
0000
0010
0100
0010
0000
,
0001
0000
1000
0000
0100
0000
0010
0000
0001
0100
0001
0000
0010
0000
0100
0000
,
1100
0000
1000
0000
0100
0000
0010
0000
0001
0100
0001
0100
0001
0100
0001
0100
,
0010
0100
0010
0100
0001
0100
0001
0100
0001
0100
0001
0100
0010
1000
0010
1000
,
0100
1000
0100
1000
0100
1000
0100
1000
0001
1000
0001
1000
0010
0100
0010
0100
,
0010
1000
0001
0100
0020
0000
0000
0000
1030
0100
1000
0100
1000
0100
1000
0100
,
0010
0001
0010
0100
1000
0100
1000
0100
1000
0001
0010
0100
1000
0100
0010
0001
,
0010
0100
0010
0100
0010
0100
0010
0100
1000
0100
0010
0001
1000
0100
0010
0001
,
1000
0100
0010
0001
1000
0100
0010
0001
1000
0010
1000
0010
0100
0001
M100
0001
,
0100
00M1
0100
0001
0100
0001
1000
0001
1000
0001
1000
0001
1000
0001
1000
0001
,
0100
0010
0100
0010
0100
0010
0100
0010
0100
0010
1000
0010
1000
0010
1000
0010
,
1000
0010
1000
0010
1000
0100
1000
0100
10MM
0000
0000
MM00
0000
0000
1000
0100
,
1100
0000
0000
0000
0110
0000
0000
0000
1001
1000
0001
1000
0001
1000
0001
1000
,
0001
1000
0001
1000
0001
0000
0000
0000
1001
0000
0000
0000
0110
0000
0000
0000
,
1001
0001
1000
0001
1000
0001
1000
0001
1000
0001
1000
0001
1000
0001
1000
0001
,
0100
0001
0100
0001
0100
0000
0000
0000
0101
0000
0000
0000
0011
0000
0000
0000
,
1100
0000
0000
0000
1010
0000
1000
0010
0110
0000
0000
0000
0101
0000
0000
0000
,
0011
0000
1001
0000
0011
1000
0001
0100
,
1010
0000
0100
0000
0001
0000
0010
0000
0001
1000
0100
0010
0100
1000
0100
0010
,
0001
1000
0100
0010
0100
0000
0000
0000
0010
0000
0001
0000
1000
0000
0100
0000
,
1000
0000
0100
0000
0020
0000
0030
0000
0220
0330
0000
0000
2200
3300
0000
0000
,
0022
0000
0000
0000
0000
0000
0033
0000
0220
0330
0000
0000
0220
0330
0000
0000
,
1000
0100
1000
0001
1000
0010
1000
0001
1000
0010
1000
0001
1000
0100
1000
0001
,
1000
0100
1000
0001
1000
0100
1000
0000
1100
0000
0000
0000
1100
0000
0000
0000
,
0001
0010
0001
1000
0001
0100
0001
0000
1001
0000
0000
0000
0101
0000
0000
0000
,
0001
1000
0010
1000
0001
1000
0100
1000
0001
1000
0010
1000
0001
1000
0100
1000
,
0001
1000
0001
1000
0001
1000
0001
1000
0100
0010
0001
0010
0100
0010
0001
0010
,
0100
1000
0001
1000
0010
1000
0001
1000
0100
1000
0001
1000
0100
1000
0001
1000
,
0010
1000
0010
1000
0010
1000
0010
1000
0001
0100
0001
0100
0010
0100
0010
0100
,
0001
0100
0001
0100
0010
0100
0010
0100
0001
1000
0100
1000
0100
1000
0100
1000
,
0100
0010
0100
0010
0100
0010
0100
0010
0001
0010
0001
0010
0001
0010
0001
0010
,
0022
0033
2002
3003
2200
3300
2020
3030
,
0202
0000
0000
0000
0303
0000
0001
1000
0100
0000
0000
0000
MMMM
0000
0000
0000
,
1000
0000
0100
0000
0010
0000
0001
0000
0010
0000
0010
0100
1000
0000
0010
0000
,
0100
0000
0001
0000
0100
0000
0010
0000
1000
0100
1000
0100
0010
0000
0001
0000
,
0010
0000
0100
0000
1000
0001
1000
0001
0100
0000
0100
0000
0210
0000
0300
0000
,
1000
0100
0010
0001
0010
0100
1000
0100
,
0010
0000
0001
0000
0010
0000
0100
0010
0001
0000
1000
0100
0010
0000
1000
0010
,
0100
0110
1001
0001
1001
1001
1002
0003
,
1000
0010
1000
0010
0100
0000
0001
0000
0100
0000
0110
0000
1010
0000
1000
0000
,
0100
0000
1100
0000
0100
0000
0010
0000
0100
1000
0010
1000
0100
0000
0010
0000
,
0001
1000
1010
0010
1010
1000
0020
0030
,
0100
0001
0010
0001
0100
0000
0001
0000
1000
0000
0010
0000
1100
0000
1000
0000
,
0010
0000
0100
0000
0010
1000
0010
1000
0100
0000
0010
0000
0001
0000
0100
0000
,
0001
1000
0001
1000
0001
0000
0001
0000
0110
0000
0110
0000
0110
0000
0110
0000
,
1001
1000
0100
1000
0100
1000
0100
1000
0100
1000
0100
1000
0110
0010
0001
0010
,
0001
0010
0001
0010
0001
0010
0001
0010
1001
0001
1000
0001
1000
0001
1000
0001
,
1000
0001
1000
0001
1010
1000
0010
1000
0010
1000
1010
0010
1000
0010
1000
0010
,
0100
0010
0100
0010
0100
0010
0100
0010
0100
0010
0100
0010
0101
0100
0001
0100
,
0001
0100
0001
0100
0001
0100
0001
0100
0001
0100
0001
0100
0001
0100
0001
0100
,
0001
0100
0001
0100
0010
1000
0001
1000
0010
1000
0001
1000
0010
0000
0100
0001
,
0010
0000
0100
0000
0110
0000
0110
0000
0010
0000
0100
1000
0010
0000
0100
0000
,
0110
0000
0110
0000
0100
0000
0010
1000
0100
0000
0010
0000
0011
0000
0011
0000
,
0001
0000
0010
0001
0100
0000
0010
0000
0110
0000
0110
0000
0100
0000
0000
0000
,
0100
0000
0010
1000
0100
0010
0001
0100
0010
0100
M001
0010
MM01
0000
MM11
0000
,
0010
0011
0001
1001
1000
1001
0001
0101
,
0100
0101
0001
1001
2000
3001
1000
1010
,
0010
1010
1000
1100
0100
1100
1000
1001
,
0001
0000
1010
0000
1000
0000
0101
0000
0001
0000
1100
0000
1000
0100
1000
0100
,
0010
0100
1000
0100
0010
0001
0010
0100
1000
0001
1000
0010
1000
0001
1000
0100
,
1000
0001
1000
0100
1000
0100
1000
0100
1000
0001
0010
0100
1000
0010
1000
0010
,
1000
0001
1000
0010
1000
0001
1000
0100
1000
0001
1000
0010
1000
0001
1000
0010
,
1000
0010
1000
0001
1000
0010
1000
0001
1000
0100
1000
0001
1000
0001
0100
0001
,
1000
0001
0010
0001
1000
0001
0100
0001
1000
0001
0010
0001
1000
0010
0100
0010
,
1000
0010
0100
0010
1000
0010
0100
0010
1000
0010
0100
0010
1000
0001
0010
0001
,
1000
0001
0010
0001
1000
0001
0010
0001
1000
0001
0010
0001
1000
0100
1000
0100
,
0010
0001
0010
0001
1000
0000
1100
0000
1000
0000
1100
0000
1000
0000
1100
0000
,
1010
0110
1001
1100
0100
0110
0100
0110
,
1100
0110
0011
0110
0010
0011
0010
0011
,
0110
0000
0011
0000
0001
1000
0001
1000
0001
1000
0001
1000
0010
0100
0010
0100
,
0010
0000
0000
0000
1000
0010
0100
0001
1000
0010
0100
0001
1000
0010
0100
0001
,
1000
0010
0100
0001
1000
0010
0100
0001
1000
0010
0100
0001
1000
0010
0100
0001
,
1000
0010
0100
0001
1000
0100
0010
0001
1000
0100
0010
0001
1000
0100
0010
0001
,
1000
0100
0010
0001
1000
0010
1000
0010
1000
0010
1000
0010
0100
0000
0000
0000
,
0100
0000
0000
0000
0001
1000
0100
0010
0100
1000
0001
0100
0001
0100
0001
0100
,
0001
0100
0001
0100
0001
0100
0001
0100
0001
0100
0001
0100
0001
0100
0001
0100
,
0001
0100
0001
0100
0010
1000
0010
1000
0010
1000
0010
1000
0010
1000
0010
1000
,
0010
1000
0010
1000
0010
1000
0010
1000
0010
1000
0010
1000
0010
1000
0010
1000
,
0010
1000
0010
1000
0001
1000
0001
1000
0001
1000
0001
1000
0001
1000
0001
1000
,
0001
1000
0001
1000
0001
1000
0001
1000
0001
1000
0001
1000
0001
1000
0001
1000
,
0001
1000
0001
1000
0110
0000
0000
0000
0011
0000
0000
0000
1001
0000
1000
0000
,
1100
0000
1001
0000
0011
0010
0110
0000
,
1001
0000
1100
0100
1100
0000
0110
0000
,
0010
0001
0010
0001
1000
0000
0100
0000
0010
0000
0001
0000
0010
0000
0100
0000
,
1001
0100
0010
0001
0010
0100
1001
0010
,
0100
0001
0100
0010
1001
0010
0100
0001
,
0110
0000
0000
0000
0000
0000
0000
0000
0000
0000
0000
0000
1000
0010
1000
0010
,
1000
0010
1000
0010
1000
0010
1000
0010
1000
0010
1000
0010
1000
0010
1000
0010
,
1000
0010
1000
0010
1000
0010
1000
0010
1000
0010
1000
0010
0100
0001
0100
0001
,
0100
0001
0100
0001
0100
0001
0100
0001
0010
0001
0010
0001
0010
0001
0010
0001
,
0010
0100
0010
0100
0010
0100
0010
0100
1000
0100
1000
0100
1000
0001
1000
0001
,
1000
0001
1000
0001
1000
0001
1000
0001
1000
0001
1000
0001
1000
0001
1000
0001
,
1000
0001
1000
0001
1010
0000
1000
0100
1000
0000
0100
0000
1000
0100
0010
0100
,
1000
0001
0010
0001
1000
0100
1000
0001
0010
0100
1000
0100
0010
0000
0001
0010
,
0001
0000
0010
0100
0010
0000
0100
0010
0001
0000
0011
0000
1000
0000
1000
0000
,
0100
0100
0110
0010
0010
0010
0010
0010
,
0010
0000
0010
0000
0110
0000
0010
0000
0010
0000
0010
0000
0010
0100
1000
0001
,
1000
0100
1000
0001
1000
0100
0010
0100
1000
0001
0010
0100
0010
0100
0010
0001
,
1000
0100
0010
0001
0010
0100
1000
0100
0010
0001
0010
0100
1000
0001
0010
0001
,
0010
0001
0010
0001
1000
0001
0010
0001
0010
0001
0010
0001
1000
0001
0010
0001
,
0010
0001
0010
0001
1000
0001
0010
0001
0010
0001
0010
0001
1000
0100
1000
0100
,
1000
0100
1000
0100
1000
0100
1000
0100
0010
0100
0010
0100
0010
0100
0010
0100
,
0010
0001
0010
0001
2000
0000
3000
0000
1100
0000
1000
0000
1000
0010
1000
0010
,
1000
0010
1000
0010
1000
0010
1000
0010
1000
0010
1000
0010
1000
0100
1000
0100
,
1000
0100
1000
0100
0010
0000
0000
0000
0010
0000
0000
0000
0001
0010
0001
0010
,
0001
0010
0001
0010
0001
0010
0100
1000
0100
1000
0100
0010
0001
1000
0001
1000
,
0001
0100
0001
0100
0010
0100
0010
0100
0001
0100
0001
0000
1001
0000
1000
0000
,
0001
1000
0001
1000
1010
0010
1000
0010
,
1000
0010
1000
0010
0110
0000
0100
0000
0010
0000
0100
0000
0010
0000
0100
0000
,
0101
0000
0001
0000
0101
0000
0100
0000
0001
0100
0010
1000
0001
0000
0001
0000
,
0010
0000
0010
0000
0011
0000
0001
0000
1000
0000
0001
0000
0001
0010
0100
0010
,
0100
0010
0100
0010
0100
0010
0100
0010
0100
0010
0100
0010
0001
1000
0001
1000
,
0001
1000
0001
1000
0010
0000
0000
0000
0110
0000
0000
0000
0010
1000
0010
1000
,
0010
1000
0010
1000
0010
1000
0010
1000
0001
1000
0010
1000
0100
0010
0100
0010
,
0100
0010
0100
0010
0001
0010
0100
0010
0001
0010
0100
1000
1100
0000
0100
0000
,
1000
0100
1000
0100
0110
0001
0010
0001
,
0010
0001
0010
0001
0011
0000
0001
0000
0100
0000
0001
0000
0100
0000
0001
0000
,
1001
1000
1001
0001
1010
1000
0100
0100
,
0010
0000
0010
0000
0022
0000
0000
0000
0033
0000
0000
0000
0001
0010
0100
0010
,
0001
0010
0100
0010
0001
0010
0100
0010
0001
0010
0100
0010
0001
0010
0100
1000
,
0100
0010
0001
0010
0100
0010
0001
0010
0100
0010
0001
0010
0100
0010
0001
0010
,
0100
1000
0100
0010
0001
1000
0100
1000
0001
1000
0100
1000
0001
1000
0100
1000
,
0001
1000
0100
1000
0001
1000
0010
1000
0001
1000
0010
1000
0001
1000
0010
0100
,
0110
0010
0100
1000
0001
0010
0100
1001
,
1000
0001
1000
0001
1000
0001
1000
0001
1000
0001
1000
0001
1000
0001
1000
0001
,
1000
0001
1000
0001
1000
0001
1000
0001
0100
0001
0010
0001
0100
0001
1000
0010
,
1000
0010
1000
0010
1000
0010
1000
0010
1000
0010
1000
0010
1000
0010
0100
0010
,
1000
0001
0100
0010
0100
0001
1000
0010
0000
0010
0000
0100
0000
0100
0000
0001
,
0000
0001
0000
0010
0000
0010
0000
0100
0000
0100
0000
0010
0100
0010
0110
0000
,
0000
0000
0110
0000
0100
0000
1001
0000
0000
0000
0001
1000
0100
0010
0100
1000
,
0001
1000
0100
1000
0100
0010
0100
1000
0001
0010
0100
0010
0100
1000
0001
1000
,
0100
0010
0100
1000
0100
0010
0001
0010
0100
1000
0100
1000
0001
0010
0100
1000
,
0100
1000
0001
0010
0100
0010
0001
1000
0100
1000
0001
1000
0100
1000
0001
0010
,
0001
1000
0100
1000
0100
0010
0001
0010
0100
1000
0100
1000
0001
0010
0110
0000
,
0100
0000
0100
0000
0100
0000
0100
0000
0100
0000
0100
0000
0110
0000
0010
0001
,
0010
0001
0010
0001
0010
0001
0010
0001
0010
0001
0010
0001
0010
0100
0010
0100
,
0010
0100
0010
0100
0010
0100
0010
0100
0010
0100
0010
0100
1000
0100
1000
0100
,
1000
0100
1000
0100
1000
0100
1000
0100
1000
0100
1000
0100
1000
0001
1000
0001
,
1000
0001
1000
0000
1001
0000
1001
0000
1001
0000
1001
0000
0101
0000
0101
0000
,
0101
0000
0101
0000
0011
0000
0011
0000
0001
0010
0100
0010
0001
0000
0000
0000
,
1100
0000
0000
0000
1100
0000
0000
0000
1000
0010
0100
0001
0100
0010
1000
0010
,
0100
0001
0100
0010
1000
0010
0100
0001
0100
0010
1000
0010
0100
0001
0100
0010
,
1000
0100
1000
0100
1000
0100
1000
0001
1000
0001
1000
0001
1000
0010
1000
0010
,
1000
0010
1000
0001
1000
0001
1000
0000
0MM0
0000
0000
0000
0001
0010
0100
1000
,
0100
1000
0100
1000
0100
1000
0100
1000
0001
0100
0010
0100
0010
0100
0010
0100
,
0010
0100
0010
0100
0001
1000
0100
1000
0100
1000
0100
1000
0100
1000
0100
1000
,
0001
0010
0100
0010
0100
0010
0100
0010
0100
0010
0100
1000
0100
1000
0100
1000
,
0100
1000
0100
1000
0100
1000
0100
1000
0001
0100
0010
1000
0010
1000
0010
1000
,
0010
1000
001M
1000
0001
0100
0001
0100
0001
0100
0001
0100
0001
0100
0001
0100
,
0010
1000
0010
1000
0010
1000
0010
1000
0010
1000
0010
1000
010M
1000
0100
1000
,
0100
1000
0100
0010
0100
0010
0001
1000
0100
0010
0001
1000
0100
0010
0100
1000
,
0001
0010
0100
1000
0001
0100
0001
0100
0001
0100
0010
0100
0010
0100
0010
0100
,
0010
1000
0010
1000
0010
1000
0100
1000
0100
1000
0100
1000
0100
0010
0100
0010
,
0100
0010
0001
1000
0001
1000
0001
1000
0010
0100
0010
0100
0010
0100
0001
1000
,
0001
1000
0001
0000
0001
0000
0010
0000
0100
0000
0010
0000
0100
0000
1000
0000
,
0100
1000
0000
0000
0100
0000
0000
0000
1000
0000
0000
0000
0100
1000
0000
0000
0100
0000
0000
0000
1000
0000
0000
0000
0100
0000
0010
0000
0100
0000
0010
0000
,
0100
0010
0100
0010
0100
0010
0100
0010
0100
0010
0100
0010
0100
0010
0001
0010
,
0100
0010
0100
0010
0001
1000
0001
1000
0001
1000
0001
1000
0001
1000
0001
1000
,
0100
1000
0100
1000
0100
1000
0100
1000
0100
1000
0100
1000
0001
0010
0100
0010
,
0100
0010
0100
0010
0100
0010
0100
0010
0100
0010
0100
0010
0100
0010
0001
1000
,
0100
0010
0100
0010
0001
0000
0001
0000
0001
0000
0010
0000
0010
0000
0010
0000
,
0100
0000
0000
0000
0000
0000
1000
0100
1000
0100
0010
0001
0010
0000
0100
0000
,
0010
0100
1000
0100
1001
0010
0001
0100
,
0010
1000
0100
0010
0001
0010
0100
1000
,
0110
0001
0100
0010
0100
0001
2000
3100
,
1000
0100
0010
0001
1100
0010
0100
1000
,
0010
0100
0001
0010
0100
1000
0100
1000
,
0010
1000
0010
1000
0010
0000
1000
0000
1000
0000
1000
0000
0100
0010
0100
0010
,
0100
0010
0001
0010
0001
0010
0001
0010
0001
1000
0001
1000
0001
1000
0100
1000
,
0100
1000
0100
1000
0001
1000
0001
1000
0001
1000
0010
0100
0010
0100
0010
0100
,
0001
0100
0001
0100
0001
0100
0010
1000
0010
1000
0010
1000
0001
0010
0001
0010
,
0001
1000
0100
1000
0001
0100
0001
1000
0001
0010
0100
1000
0001
0010
0100
1000
,
0001
1000
0100
1000
0100
0010
0100
0010
0100
0010
0001
0010
0001
0010
0001
0010
,
0100
1000
0100
1000
0100
1000
0001
1000
0001
1000
0001
1000
0010
1000
0010
0100
,
0001
0100
0010
0100
0001
0100
0001
1000
0010
1000
0001
1000
0100
0010
0001
1000
,
0100
1000
0001
0100
0010
0100
0001
1000
0100
1000
0001
0010
0001
1000
0100
0010
,
0001
1000
0100
0010
0001
1000
0010
0100
0001
1000
0010
0100
0001
1000
0100
0010
,
0100
1000
0001
0010
0100
0010
0100
0010
0100
0010
0100
0010
0001
1000
0001
1000
,
0001
2000
0000
0000
0000
0100
0000
0100
3000
0200
0000
0010
0000
0010
0000
0010
,
0000
0310
0000
0001
0000
0100
0000
0001
0000
0010
0000
0000
0100
0010
0100
1000
,
0100
0010
0100
1000
0100
0010
0100
1000
0100
0010
0001
0010
0100
0010
0001
0010
,
0100
0010
0001
1000
0001
1000
0100
1000
0001
1000
0100
1000
0001
1000
0001
1000
,
0100
0010
0100
1000
0100
0010
0100
1000
0100
0010
0100
1000
0001
0010
0001
0010
,
0001
0010
0001
0010
0001
0010
0001
0010
0100
0010
0001
0010
0001
0010
0001
0010
,
0001
0010
0001
0010
0100
1000
0100
1000
0100
1000
0100
1000
0100
1000
0100
1000
,
0001
1000
0100
1000
0100
1000
0100
1000
0100
1000
0100
1000
0001
0100
0010
0100
,
0010
0100
0010
0100
0010
0100
0010
0100
0001
1000
0010
1000
0010
1000
0010
1000
,
0010
1000
0010
1000
0001
1000
0100
1000
0100
1000
0100
1000
0100
1000
0100
1000
,
0001
0010
0001
0010
0001
0010
0001
0010
0001
0010
0001
0010
0100
1000
0001
1000
,
0001
1000
0001
1000
0001
1000
0001
1000
0010
1000
0001
0010
0100
0010
0100
0010
,
0001
0010
0100
0010
0001
1000
0001
0100
0001
1000
0001
0010
0001
1000
0001
0100
,
0001
1000
0001
1000
0100
1000
0100
1000
0010
0000
0000
0000
1000
0100
0010
0001
,
0010
0100
0010
0100
1000
0001
1000
0100
1000
0100
0010
0100
0010
0001
0010
0100
,
1000
0001
1000
0001
1000
0010
0100
0001
0100
0010
0100
0010
1000
0001
1000
0010
,
1000
0010
0100
0010
0100
0010
0100
0001
0100
0010
1000
0001
1000
0100
1000
0100
,
1000
0100
1000
0100
1000
0100
1000
0100
0010
0001
0010
0001
0010
0001
0010
0001
,
0010
0001
0010
0001
0100
0001
0100
0001
0100
0001
0100
0001
0100
0001
0100
0001
,
0010
0100
0010
0100
0010
0100
0010
0100
1000
0000
0000
0000
0000
0000
0000
0000
;

//---------------dance-single - by Shiner----------------
#NOTES:
     dance-single:
     by Shiner:
     Medium:
     11:
     0.932,1.000,0.729,0.437,0.213,1384.000,192.000,115.000,150.000,2.000:


























4004
0000
0000
0000
,
0000
0000
0000
0000
,
0000
0000
0000
0000
,
0000
0000
0000
0000
,
0000
0000
0000
0000
0000
0000
0000
0003
,
3001
0001
1000
1000
0100
0100
0020
0030
,
1010
0100
0100
0100
0100
0100
1001
0000
,
0101
0010
0010
0010
0010
0010
0101
0000
,
1100
1000
0100
0100
0010
0000
0011
0000
,
0001
0010
0001
0000
1000
0100
1000
0000
0001
0010
0001
0000
1000
0100
1000
0000
,
0101
0110
2020
0030
,
0100
0000
0010
3000
,
2200
0000
3300
0220
,
0000
0300
0130
0000
2001
0000
3001
0001
,
0012
0000
2003
3000
1020
0000
0000
0000
,
0100
0000
0001
0030
,
0220
0000
0330
2002
,
0000
3000
1003
0000
2100
0000
0100
3100
,
1000
0100
0010
0100
1000
0010
0001
0010
,
1000
0100
0001
0100
1000
0010
0100
0010
,
1000
0100
1000
0100
0010
0001
0010
0001
,
0100
0010
0100
0010
1000
0000
0001
0000
,
1001
0000
1010
0010
0110
0000
0101
0000
,
0011
0000
1001
0000
1100
1100
0000
0000
,
1000
0010
0100
0010
0001
0010
1000
0100
,
0001
0100
0010
0001
0100
0010
1000
1100
,
0000
1100
0000
0110
0000
0220
0000
0000
,
0000
0000
0330
0011
0000
0100
0001
0010
,
0000
00MM
1100
1000
0001
0010
0100
1000
,
0101
0000
0000
0000
0011
0000
1001
0001
,
1000
0001
1000
0001
0100
0010
0100
0010
,
0100
0010
1000
0100
1000
0100
1000
0100
,
0011
0011
00MM
0101
,
0M0M
0101
1010
1100
,
MM00
0000
0101
0001
0010
0100
1000
0010
,
1000
0100
1000
0100
1000
0100
1000
0010
,
0100
0010
0100
0010
0110
0100
0001
0100
,
0001
0100
0011
0001
0010
0001
0010
0000
,
0004
0000
0403
0000
0340
0000
1030
0100
,
1000
0010
0100
0001
1000
0100
0010
0001
,
0400
0000
0340
0000
4030
0000
3001
0010
,
0100
0010
0001
1000
0010
0100
0001
1000
,
4400
3300
0044
0033
0404
0303
0101
0120
,
1000
0130
0010
0001
1000
0010
0110
0000
,
0404
0303
4040
3030
4400
3300
1100
0110
,
0001
0001
1000
0001
1000
0001
0001
0001
,
0100
0001
0100
0001
0001
0001
0010
0100
,
0010
0100
1000
0100
0010
0100
1000
0001
,
0100
0010
0110
0100
0001
0010
0100
1000
,
1100
0100
1000
0010
0100
0001
0011
0010
,
0100
1000
0010
0100
0110
0010
1000
0100
,
0110
0010
0001
0100
0011
0001
0010
0100
,
0010
0100
0010
0001
0100
0010
1000
0001
,
0100
0010
0100
0010
1000
0100
0010
0100
,
0010
1000
2200
3300
1001
0100
0010
0001
,
0010
00M0
1000
0100
0010
0001
0010
00M0
,
1000
0010
0100
0001
0010
0000
1100
0100
,
0010
0001
0200
0310
1000
0100
M01M
0000
,
0110
0011
0101
0101
,
1001
0000
1100
2001
,
0000
0000
0000
0000
0000
0000
0000
0000
300M
0000
0000
0000
0000
0000
1000
0100
,
0010
0000
0100
0000
0010
0010
0010
0010
,
0010
0010
0010
0000
0011
0000
0011
0000
,
1000
1000
1000
1000
0001
0001
0001
0001
,
1000
1000
1000
0000
1001
0000
1010
0000
,
1100
0000
0000
0000
0101
0000
0100
0001
0100
0000
0000
0000
0110
0000
0000
0000
,
1010
0000
1100
0000
0011
0001
0010
0100
,
0110
0000
0100
0000
1000
0000
0001
0000
0010
0001
0010
0001
1000
0001
1000
0001
,
0100
0001
0100
0001
1000
0000
0000
0000
1100
0000
1000
0000
0100
0000
0010
0000
,
0001
0100
0020
0030
1100
0000
1100
0000
,
2002
3003
0101
0101
,
0011
0001
0010
0010
0001
0001
0010
0010
,
0100
0100
0010
0010
0110
0000
1100
0000
,
1001
1000
0001
0001
1010
0000
0011
0000
,
0001
0001
0100
0100
0001
0001
0100
0100
,
0010
0010
1000
1000
1100
0100
1100
1000
,
0100
0100
0010
0010
0110
0000
0011
0000
,
0101
0000
0011
0000
1001
1000
0100
0100
,
1000
1000
0010
0010
0110
0000
1001
0000
,
0001
0001
0100
0100
0110
0000
0101
0000
,
2002
3003
2200
3300
2002
3003
0022
0033
,
0220
0000
0000
0000
0330
0000
0010
0100
1000
0000
00M0
0M00
M000
0000
0000
0000
,
1000
0100
0010
0001
0010
0100
1000
0010
,
0100
0001
0100
0010
1000
0100
0010
0001
,
0010
0100
0010
1000
0010
0001
0100
0010
,
1000
0100
0010
0001
0010
0100
1000
0010
,
0100
0001
0100
0010
1000
0100
0010
0001
,
0010
0100
0010
1000
0010
0001
0200
0300
,
1M00
0010
0001
0010
0100
0010
1000
0100
,
0001
0100
0010
0100
1000
0100
0010
1000
,
0010
0100
0001
1000
0010
0001
0200
0300
,
0011
00MM
0011
00MM
0011
0MMM
0110
0MM0
,
0110
0MM0
0110
0MMM
0011
00MM
0011
00MM
,
0011
M0MM
1001
M00M
1001
M00M
0220
M00M
,
2002
0330
0000
0110
,
3003
0000
4400
0000
,
0000
0000
0011
0000
0000
3311
0000
0000
,
0404
0000
0000
1010
,
0000
0000
0000
0000
,
0000
1313
0101
1010
,
1000
0100
0010
0001
0020
0030
0100
0010
,
0001
1000
0020
0030
0100
0001
0010
0100
,
0020
0030
0001
1000
0100
0010
0200
0300
,
2000
0000
01M0
0000
001M
0000
3M01
0001
,
1000
0001
0100
0001
0010
0001
0100
0001
,
1000
0001
1000
0001
0020
0030
0100
0100
,
0010
0100
0001
0100
0010
0100
1000
0001
,
0010
0100
1000
0001
0100
0010
1000
1000
,
0100
1000
0010
1000
0001
1000
0001
1000
,
0010
1000
0001
1000
0200
0300
0010
0010
,
0100
0010
1000
0010
0100
0010
0001
0010
,
0100
1000
0001
0100
0010
1000
1000
0100
,
0010
0001
0001
0010
0100
1000
1000
0010
,
0100
0001
0001
0100
0010
1000
1000
0100
,
0010
0001
0001
0100
0010
1000
4400
0000
,
0000
3300
2001
0000
0000
0000
0000
3000
,
2000
0000
3200
0000
0000
0000
0000
0300
,
0200
0000
0320
0000
0000
0000
0000
0030
,
0020
0000
0032
0000
0000
0203
0000
0000
,
0302
0000
1003
0100
0010
0001
0010
0100
,
0010
0001
1000
0010
0100
0010
1000
0001
,
0010
0100
1000
0010
0100
0001
0010
0100
,
1000
0000
0000
0100
0000
0000
0010
0000
0001
0000
1000
0000
0001
0000
1000
0000
0100
0000
0010
0000
0100
0000
1000
0000
,
0001
0010
0100
1000
0001
0010
0001
0010
0100
2000
0000
0000
,
0000
3000
0000
1000
0100
0010
0001
1000
0100
1000
0100
0010
,
0001
1000
0100
0010
0100
0010
0100
1000
0001
0010
0100
1000
,
0001
0010
0100
0020
0000
0000
0000
0000
0000
0000
0000
0000
,
0000
0000
0000
0000
0000
0031
0002
0000
,
0000
0000
0000
0000
,
0000
0000
0013
0001
1000
0100
2000
3000
,
0001
1000
0010
1000
0002
0003
1000
0100
,
0010
0100
2000
3000
0001
0100
0010
0100
,
0002
0003
1000
0100
0001
0100
0010
0100
,
1000
0010
0100
0010
0001
0010
0100
0001
,
1000
0001
0010
0001
0010
1000
0010
0100
,
1001
0000
0000
MMMM
0000
0000
1100
0000
,
0110
0022
0000
0000
,
0000
0000
0033
0202
,
0000
0000
0000
0303
0000
2020
0000
0000
0000
0000
3030
0000
,
0000
2002
0000
0000
0000
0000
0000
0000
3003
0001
0010
0001
,
0010
0001
0010
0001
1000
0001
1000
0001
1000
0100
1000
0100
,
1000
0000
0100
0000
1000
0000
0100
0000
0010
0000
0100
0000
0010
0000
0000
0000
0000
0000
0011
0000
0000
00MM
0000
0000
,
1001
M00M
1100
MM00
1010
M0M0
0110
0000
,
1001
0000
1010
0000
1100
0100
1000
1000
,
0100
0100
0010
0010
0010
0010
0010
0010
,
0010
0010
0010
0010
0010
0010
1000
0010
,
0001
1000
0010
0001
1000
0100
0001
1000
,
0100
0001
1000
0010
0001
0010
0100
0010
,
0001
0100
0010
0001
1000
0100
0010
1000
,
0100
0010
0010
0100
0010
0100
0040
0000
,
0000
0000
0034
0000
,
0000
0000
0000
0000
0000
0000
0000
0000
0000
0000
0000
0000
4003
0000
0000
0000
0000
0000
0000
0000
0000
0000
0000
0000
0000
0000
0000
0000
0000
0000
3100
0000
0000
0010
0000
0000
0001
0000
0000
0000
0010
0000
0000
0000
0100
0000
0000
0000
,
0010
0100
1000
0100
1000
0001
1000
0001
0010
0200
0000
0000
,
0000
0300
0000
0100
0010
0001
1000
0100
0010
0002
0000
0000
,
0000
0000
0000
0000
0000
0000
0010
0010
,
0010
0000
0100
0000
1000
1003
2001
0000
,
0000
0000
0000
0000
0010
0000
0000
3000
,
1000
0100
1000
0100
2000
0000
0000
0000
3200
0000
0000
0000
2300
0000
0000
0000
,
3020
0230
0302
0023
,
0000
0032
0000
0203
,
0320
0000
0000
0000
0000
0000
0030
0000
0000
1000
0000
0000
0100
0000
0000
0010
0000
0000
0100
0000
0010
0000
0001
0000
,
0010
0100
1000
0010
0000
0000
0020
0000
0000
0100
0000
0000
,
1030
0100
1000
0001
0010
0001
1000
0000
0000
1000
0100
1000
,
0001
0100
0001
2000
0000
3020
0000
0230
0000
0320
0000
0000
,
0000
0000
0230
0000
,
0310
0100
0010
0100
0002
0000
0000
0000
0000
0000
0000
0000
0000
0000
0000
0000
,
0023
0000
0000
0230
,
0000
0000
2300
0000
0000
0000
3001
0100
,
0001
0100
0001
0100
0001
0100
0001
0100
,
1000
0001
0010
0001
0010
0001
1000
0001
,
0010
0100
0001
0010
0001
1000
0100
0001
,
0100
1000
0010
0100
0010
0001
0010
0100
,
0110
0010
1000
1000
0100
0100
0010
0011
,
000M
0001
000M
0001
000M
0001
100M
M000
,
1000
M000
1000
M000
10M0
M010
10M0
M100
,
0M00
0100
0M00
0100
0M00
0100
0M10
00M0
,
0010
0001
0100
0010
1000
0001
1000
0100
,
0010
0100
0010
0001
1000
0001
0010
0110
,
0100
1000
0010
0200
0000
0310
1000
0100
,
1000
0010
1000
0100
1000
0010
0100
0001
,
0010
0001
0100
0001
0010
0100
1000
0010
,
1000
0100
1000
0010
1000
0100
1000
0010
,
0100
0001
0010
0001
0100
0010
1000
1100
,
0100
0010
0010
0001
0001
0100
0110
0MM0
,
0010
00M0
0010
00M0
0010
10M0
M000
1000
,
M000
1000
M000
1000
M010
01M0
0M01
000M
,
0010
00M0
0010
00M0
0010
00M1
0100
0100
,
0001
0010
0100
1000
0010
0100
0001
0010
,
0001
0000
1000
0000
0010
0000
1000
0000
0100
0000
0010
0001
0010
0000
0100
0000
,
1000
0001
0020
0000
0031
0001
0002
0200
,
0000
0303
0110
0000
0M0M
1010
0000
0M00
,
1000
10M0
1000
0100
0100
0100
0010
0010
,
0010
0001
0001
M001
0000
0000
1001
M00M
,
0101
0M0M
1010
M0M0
1100
0000
0000
MM00
,
1100
MM00
0110
0MM0
0011
00MM
0110
0MM0
,
0011
0000
0000
0000
00MM
0000
0000
0000
0000
0000
0MM0
1001
0000
0000
M00M
0110
,
0000
0000
0MM0
1001
0000
0000
M00M
1010
0000
0000
M0M0
0101
0000
0000
0000
0000
,
0000
00MM
1000
0100
0010
0001
0010
0100
,
1000
0000
0010
0000
0100
0000
0001
0000
0100
0000
0010
0000
1000
0001
1000
0000
,
0001
0010
0100
0010
0001
0100
0010
1000
,
0100
0000
0010
0000
0001
0010
0001
0010
0001
0000
1000
0000
1000
0000
1000
0000
,
0100
0010
0100
0010
0100
0000
0010
0000
0010
0000
0010
0000
0001
1000
0001
1000
,
0001
0100
0100
0100
0001
0010
0100
0010
,
0100
1000
0001
0100
0010
0100
0010
1000
,
1100
0000
0000
1100
0000
0000
2001
0000
,
0000
0010
0000
0000
0010
0000
3000
2010
,
0000
3000
0120
0000
0000
0100
0000
0030
,
0210
0000
0000
0010
0000
0300
0120
0000
,
0000
0000
0100
0000
0000
0000
0000
0000
0100
0000
0000
0000
0030
0000
0020
0032
,
0000
0000
0000
0003
0020
0000
0000
0000
0000
0000
0000
0000
0000
0000
0000
0000
,
0000
0000
0000
0000
0000
0000
0030
0000
0000
0000
0000
0000
0010
1000
0010
0000
,
1000
0001
0010
0100
1000
0100
0010
0100
,
0010
0001
0100
0010
1000
0100
1000
0001
,
1000
0010
0100
0001
0010
0100
0020
0000
,
0000
0000
0000
0000
0000
0000
0030
0010
,
0001
0010
0200
0000
0000
0000
0000
0000
,
1300
0100
1000
0000
0100
0000
0100
0000
0010
0000
0100
0000
4000
0000
0000
0000
,
0000
3040
0000
0000
0430
0000
0000
0304
,
0000
0000
0043
0000
0000
0034
0000
0000
,
0403
0000
0000
0340
0000
0000
4030
0000
,
0000
0000
0000
0000
0000
0000
3001
0000
0000
0010
0000
0000
0001
0000
0000
0000
0000
0000
0010
0000
0000
0000
0000
0000
0100
0000
0000
0000
1000
0000
0000
0000
0100
0000
0000
0000
1000
0000
0000
0000
0100
0000
0000
0000
0010
0000
0000
0000
,
0001
0000
0000
0000
0000
0000
0001
0000
0010
0000
0100
0000
0010
0000
0000
0100
0000
0000
1000
0000
0000
0020
0000
0000
,
0000
0030
0000
1004
,
0000
1000
0000
0000
0100
0000
0000
0100
,
0000
0000
0010
0000
0000
0010
0000
0000
,
0100
0000
0000
0100
0000
0000
1000
0000
,
0000
0100
0000
0000
2000
0000
0000
0000
,
0000
0000
0000
3M00
00M0
0M00
M003
0M00
,
00M0
000M
00M0
0M00
M000
0000
1001
0000
,
1000
M000
1000
M000
1010
0000
M0M0
0000
,
0000
0000
0011
00M0
0010
00M0
0010
00M0
,
0110
0MM0
0000
0101
,
0M0M
M0M0
0000
0000
1100
0000
MM00
0000
,
1100
0110
0022
0033
,
1001
1000
0010
1000
0002
0003
1100
1000
,
0100
0010
0010
0100
1000
0010
0100
0100
,
0010
1000
1000
0100
0010
0001
0010
0100
,
1000
0010
0100
0001
0100
0010
1000
0100
,
0010
0100
0001
0100
1000
0010
0001
0010
,
0100
0010
1000
0000
1000
1000
0100
0100
,
0010
0010
0001
0001
1001
0000
0001
0010
,
0100
1000
0100
0010
0001
0100
0010
1000
,
0010
0100
0001
0010
1000
0010
0100
0010
,
0001
0100
1000
0100
0010
0100
0001
1000
,
0100
0010
0100
1000
0001
1000
0010
0100
,
0010
1000
0100
0010
0001
0100
0010
1000
,
0100
0001
1000
0010
0001
0000
0000
0000
;

//---------------dance-single - by Flaire----------------
#NOTES:
     dance-single:
     by Flaire:
     Hard:
     15:
     1.000,1.000,0.588,0.251,1.000,2128.000,155.000,66.000,97.000,0.000:









1100
0000
0000
0000
1000
0100
1000
0100
0010
0001
0010
0001
0010
0001
0010
0001
,
1000
0001
1000
0001
1000
0001
1000
0001
1000
0010
1000
0010
1000
0000
0000
0000
,
0010
0100
0100
0100
0001
1000
1000
1000
,
0100
0010
0010
0010
0001
0100
0100
0100
,
0001
0010
0100
1000
0100
1000
0010
0100
,
0010
1000
0100
0010
0001
0100
0022
0033
,
1000
0001
0001
0001
0001
0001
0101
0000
,
0100
0010
0010
0010
0010
0010
1010
0000
,
1100
1000
1100
0100
0110
0000
1001
0000
,
0001
0010
0100
0000
1000
0100
0010
0000
0001
0010
0100
0000
1000
0100
0010
0000
,
1001
0011
4400
0000
,
0010
0000
0001
3300
,
1000
0100
1000
0100
1000
0100
1000
0100
0010
0000
0000
0000
0011
0000
0000
0000
,
0001
0010
0100
1000
0001
0000
0100
0010
1000
0000
1000
0001
0010
0000
0001
0000
,
1100
0110
0404
0000
,
0010
0000
1000
0303
,
1000
0001
0010
0001
0100
0001
0010
0001
1000
0000
0000
0000
1000
0001
0010
0100
,
1000
0100
0010
0001
0010
0000
0001
0010
0001
0000
0001
0010
0001
0000
0100
0000
,
1M00
1000
0100
0010
0100
0100
0010
0001
,
0100
0100
0010
0100
0001
0001
0010
0100
,
1000
0000
0100
0000
1000
0000
0100
0000
0010
0000
0001
0000
0010
0100
0010
0100
,
0010
0100
1000
0001
0010
0100
1000
0001
,
1001
1000
0100
0010
0100
1000
0010
0100
,
0010
1000
0100
0010
0001
1000
0001
0010
,
0100
0010
0100
1000
0010
1000
0100
0010
,
0001
0100
0010
0001
0010
0100
0001
0011
,
0000
0101
0000
0011
0000
0101
0100
0001
,
0100
0001
0100
0001
0010
0100
1000
1000
,
1000
0001
1100
1000
0100
0010
0001
0010
,
0010
0100
0100
0100
0100
0100
0100
0100
,
1000
0010
0100
0001
0011
0001
0010
0100
,
1000
0000
0000
0000
1000
0001
1000
0001
1000
0010
1000
0010
0100
0001
0100
0001
,
1000
0100
1000
0100
1000
0100
0010
0001
,
0010
0001
0010
0001
0100
0001
0100
0001
,
0100
0001
1100
1000
0010
1000
0100
0010
,
0011
0001
1001
0000
1100
0000
1010
1000
,
1001
0000
0101
0000
1002
1000
1000
1003
,
0001
0000
0000
0000
0001
0010
0100
0000
1000
0000
0000
0000
1000
0000
0000
0000
,
0001
1000
0001
1000
0100
1000
0100
0010
0001
0100
0001
0000
1000
0000
0010
0000
,
1000
1000
0010
0100
0001
0001
0100
0000
,
0001
0010
0001
0010
0100
0010
0100
0010
0001
1000
0001
0000
0010
0000
0100
0000
,
1000
0001
0100
0001
0010
0100
1000
0001
,
1000
0010
1000
0010
1000
0001
1000
0001
1000
0010
1000
0000
0001
0000
0100
0000
,
0001
0001
0010
0100
1000
1000
0110
0000
,
0001
0100
0001
0100
0010
0100
0010
0100
0001
0100
0001
1000
0001
0000
1000
0000
,
0100
0100
0010
0100
0001
0100
0100
0100
,
1000
0010
1000
0001
0001
0001
0100
0010
,
1000
0000
0100
0000
0001
0000
0100
0000
1000
0100
1000
0100
1000
0000
0100
0000
,
0010
0000
0100
0000
1000
0010
1000
0000
0001
0000
1000
0000
0100
0000
0010
0000
,
0001
1000
0001
0000
0100
0000
0010
0000
1000
0000
0001
0000
0100
0010
0100
0000
,
0001
0000
1000
0000
0100
0000
0010
0000
0001
0100
0001
0000
0010
0000
0100
0000
,
1100
1000
0100
0010
0001
0100
0001
1000
,
0001
0100
0001
0010
0100
1000
0010
1000
,
0100
0010
0100
0001
0100
0010
0001
0100
,
0010
1000
0020
0000
1030
0100
0010
0001
,
0020
0000
1030
0010
0001
0100
0020
0000
,
0031
0010
1000
0100
0020
0000
0031
0100
,
1000
0000
0100
0000
0001
0000
0100
0000
0001
0000
0001
0000
0100
0001
M100
0001
,
0100
00M1
0100
0001
0100
0000
0000
0001
1000
0001
1000
0001
1000
0001
1000
0001
,
1000
0001
1000
0000
0000
0010
0100
0010
0100
0010
1000
0010
1000
0010
1000
0010
,
1000
0010
1000
0010
1000
0001
1000
0001
1MM0
0000
0000
0000
0000
0000
0001
0100
,
0001
0000
0000
0000
0110
0000
0000
0000
0001
1000
0001
1000
0001
1000
0001
1000
,
0001
1000
0001
1000
0001
1000
0001
1000
0001
0000
0000
0000
0110
0000
0000
0000
,
1000
0001
1000
0001
1000
0001
1000
0001
1000
0001
1000
0001
1000
0001
1000
0001
,
0100
0001
0100
0001
0100
0000
0000
0000
0101
0000
0000
0000
0011
0000
0000
0000
,
1100
0000
0000
0000
1010
0000
1000
0001
0010
0000
0000
0000
0011
0000
0000
0000
,
0101
0000
1001
0000
0011
0001
0010
0100
,
1100
0000
1000
0000
0100
0000
0010
0000
0001
1000
0100
0010
0100
1000
0100
0010
,
0001
1000
0100
0010
0001
0000
0000
0000
0010
0000
0001
0000
1000
0000
0100
0000
,
1000
0000
0100
0000
0020
0000
0030
0000
0220
0330
0000
0000
2200
3300
0000
0000
,
0022
0000
0000
0000
0000
0000
0033
0000
0220
0330
0000
0000
0022
0033
0000
0000
,
1000
0100
1000
0001
1000
0010
1000
0001
1000
0010
1000
0001
1000
0100
1000
0001
,
1000
0100
1000
0001
1000
0100
1000
0000
2200
3300
0000
0000
2020
3030
0000
0000
,
0001
0010
0001
1000
0001
0100
0001
0000
2002
3003
0000
0000
0202
0303
0000
0000
,
0001
0100
0010
0100
0001
0010
0100
0010
0001
0100
0010
0100
0001
1000
0100
1000
,
0001
1000
0001
1000
0001
1000
0001
1000
0200
0300
0000
0000
2200
3300
0000
0000
,
0001
1000
0100
0010
0001
1000
0100
0010
0002
0003
0000
0000
2002
3003
0000
0000
,
0001
1000
0001
1000
0001
1000
0001
1000
0001
0010
0100
1000
0001
0010
0100
1000
,
0001
0010
0100
1000
0002
0003
0000
0000
0202
0303
0000
0000
0022
0033
0000
0000
,
0010
0100
0010
0100
0010
0100
0010
0100
0020
0030
0000
0000
0220
0330
0000
0000
,
0022
0033
2002
3003
2200
3300
0022
0033
,
0202
0000
0000
0000
0303
0000
0001
1000
0100
0000
0000
0000
MMMM
0000
0000
0000
,
1000
0000
0100
0000
0010
0000
0001
0000
0010
0000
0010
0100
1000
0000
0010
0000
,
0100
0000
0001
0000
0100
0000
0010
0000
1000
0100
1000
0100
0010
0000
0001
0000
,
0010
0000
0100
0000
1000
0001
1000
0001
0100
0000
0100
0000
0120
0000
0030
0000
,
1000
0100
0010
0001
0010
0100
1000
0100
,
0010
0000
0001
0000
0010
0000
0100
0010
0001
0000
1000
0100
0010
0000
0100
0010
,
0001
0100
0010
0000
1001
0000
0001
0000
1001
0000
0010
0000
1002
0000
0003
0000
,
1000
0010
1000
0010
0100
0000
0001
0000
0100
0000
0110
0000
1010
0000
1000
0000
,
0100
0000
1100
0000
0100
0000
0010
0000
0100
1000
0010
1000
0100
0000
0010
0000
,
0001
0100
0101
0001
0101
1000
0002
0003
,
0100
0001
0010
0001
0100
0000
0001
0000
0010
0000
0001
0000
1001
0000
1000
0000
,
0001
0000
0100
0000
0001
0010
0100
0010
0001
0000
1000
0000
0001
0000
0100
0000
,
0010
1000
0100
0010
0001
0000
0001
0000
0100
0000
0010
0000
0100
0000
0010
0000
,
1001
0000
0100
0010
0100
0010
0100
0010
0100
0010
0100
0000
0110
0000
0001
1000
,
0001
1000
0001
1000
0001
1000
0001
0000
1001
0000
1000
0001
0100
0001
1000
0001
,
0100
0001
1000
0000
1010
0000
1000
0001
1000
0000
1001
0000
1000
0001
1000
0001
,
0100
0001
0100
0001
0100
0010
0100
0010
0100
0010
0100
0000
0101
0000
0001
0010
,
0001
0010
0001
0010
0001
0010
0001
0010
0001
0010
0001
0100
0001
0100
0001
0100
,
0001
0100
0001
0100
0010
1000
0100
0010
0001
1000
0100
0010
0001
0000
0100
0001
,
0010
0000
0100
0000
0110
0000
0110
0000
0010
0000
0100
1000
0001
0000
0100
0000
,
0101
0000
0101
0000
0001
0000
1000
0001
0010
0000
0100
0000
0110
0000
0011
0000
,
0001
0000
0010
0001
0100
0000
0010
0000
0110
0000
0110
0000
0100
0000
0000
0000
,
0100
0000
0010
1000
0100
0010
0001
1000
0001
1000
0001
0010
MM01
0000
MM01
0000
,
0010
0001
0100
0001
1000
0001
0010
0001
,
0100
0001
1000
0001
0020
0030
0100
0100
,
1000
0100
0010
0100
1000
0100
0001
0100
,
1000
0000
0001
0000
0010
0000
0100
0000
1000
0000
0010
0000
1000
0100
1000
0100
,
0010
0100
0010
0001
0010
0100
0010
1000
,
0010
0000
0100
0000
0010
0000
0001
0000
0020
0000
0030
0000
0001
1000
0001
1000
,
0010
0100
1000
0100
0010
0100
0001
1000
,
0001
0100
1000
0100
0001
1000
1000
0100
,
0010
0001
0001
0100
0010
1000
1000
0010
,
0100
0001
0001
0010
0100
1000
1000
0100
,
0010
0000
0001
0000
0001
0000
0100
0000
0001
0000
1000
0000
0001
0010
0001
0010
,
0100
1000
0100
1000
0001
0000
0100
0000
0100
0000
0100
0000
0100
0000
0100
0000
,
0010
0000
0100
0010
0010
0010
0010
0010
,
1000
0000
0010
0100
0001
0100
0001
0100
,
0010
0000
1000
0100
0001
0100
0001
0100
,
1000
0010
1000
0100
1000
0100
0010
0001
,
0100
0010
1000
0001
0010
0100
1000
0001
,
0100
0010
1000
0100
0010
0001
0100
0001
,
0010
0000
0100
0000
0010
0001
0010
0001
0010
0001
0010
0001
0100
0000
0000
0000
,
0100
0000
0000
0001
0010
0001
0010
0100
1000
0020
0000
0000
,
0000
0000
0000
1030
0100
0010
0001
0100
0010
1000
0100
0010
,
0001
0100
0010
1000
0001
1000
0001
0010
0001
0100
0010
1000
,
0001
0010
0100
0020
0000
0000
1000
0000
0000
0001
0000
0000
,
1000
0000
0031
0000
0000
4444
0000
0000
,
0000
0000
0000
0000
,
3333
0000
0110
0000
0011
0000
1001
1000
,
1100
0000
1001
0000
0011
0010
0110
0000
,
1001
0000
1100
0100
0110
0000
0110
0000
,
0010
0001
0010
0001
1000
0000
0100
0000
0010
0000
0001
0000
0010
0000
0100
0000
,
1001
0100
0010
0001
0010
0100
1001
0010
,
0100
0001
0100
0010
1001
0010
0100
0001
,
0110
0000
0000
0000
0000
0000
0000
0000
0000
1000
0100
1000
,
0010
1000
0100
0010
0100
0010
0001
0010
0100
1000
0010
1000
,
0100
1000
0010
0100
0001
0010
0001
0100
0001
0010
0100
1000
,
0100
0010
0100
1000
0001
0100
0001
0010
0100
1000
0010
0100
,
0001
0010
0100
0010
0001
1000
0100
0010
0100
1000
0010
1000
,
0010
1000
0010
0100
0001
0100
0001
0100
0001
0010
0100
0010
,
0100
0000
0000
0000
0010
0000
0000
0000
0100
0000
0000
0000
1000
0000
0000
0000
0001
0000
0000
0000
1000
0000
0000
0000
0001
0000
0000
0000
1000
0000
0000
0000
0001
0000
0000
0000
1000
0000
0000
0100
0000
0000
0010
0000
0000
0001
0000
0000
,
1000
0100
0010
0001
1000
0100
1000
0100
1000
0100
1000
0001
1000
0001
1000
0000
,
0001
0000
1000
0100
0010
0000
0100
0010
0001
0000
0002
0000
1003
0000
1000
0000
,
1001
0001
0010
0010
0010
0010
0010
0010
,
0010
0000
0010
0000
0002
0000
0000
0000
1003
0000
0000
0000
0001
0010
0100
1000
,
0001
0010
0100
1000
0010
0100
0001
1000
0010
0100
0001
1000
0001
0100
0001
0100
,
0001
0100
0001
1000
0100
0010
0100
1000
0001
1000
0001
1000
0001
0010
0001
0010
,
0100
0010
0001
1000
0100
1000
0010
1000
0001
0100
0001
0100
0001
0100
0001
0100
,
0001
0000
0000
0000
0000
0000
0000
0000
0010
0000
0000
0000
0000
0000
0000
0000
0100
0000
0000
0000
0000
0000
0000
0000
0010
0000
0000
0000
0000
0000
0001
0000
0000
0000
0000
0000
1000
0000
0000
0100
0000
0000
1000
0000
0000
0100
0000
0000
,
1000
0100
1000
0100
1000
0100
1000
0100
0010
0100
0010
0100
0010
0100
0010
0100
,
0010
0000
0000
0001
0000
0000
0010
0000
0000
0001
0000
0000
1000
0000
0000
0001
0000
0000
0100
0000
0000
0001
0000
0000
0100
0000
0000
0001
0000
0000
0100
0000
0000
0001
0000
0000
1000
0000
0000
0000
0010
0000
0000
0000
0100
0000
0000
0000
,
0010
0000
0000
0000
1000
0000
0000
0000
0001
0000
0000
0000
0010
0000
0000
0000
0100
0000
0000
0000
1000
0000
0000
0000
0001
0000
0000
0000
0100
0000
0000
0000
0010
0000
0000
0000
0100
0000
0000
0010
0000
0000
0100
0000
0000
0010
0000
0000
,
0100
0000
0000
0010
0000
0000
0100
0000
0000
0010
0000
0000
0100
0000
0000
0000
0001
0000
0000
0000
0100
0000
0000
0000
0010
0000
0000
0000
0000
0000
1000
0000
0000
0000
0000
0000
0001
0000
0000
0010
0000
0000
0001
0000
0000
0010
0000
0000
,
0001
0010
0001
0010
0001
0010
0100
1000
0100
1000
0100
1000
0001
0010
0100
1000
,
0100
0010
0001
0010
0100
1000
0100
0010
0001
1000
0001
1000
0001
0000
1000
0000
,
0100
0010
0001
1000
1010
0010
1000
0001
,
1000
0010
1000
0010
0100
0000
0010
0000
1000
0000
0001
0000
0010
0000
0001
0000
,
0101
0000
0100
0000
0101
0000
0001
0000
0001
0100
0010
1000
0001
0000
1000
0000
,
1000
0000
0001
0000
0011
0000
0000
0000
1000
0000
0000
0000
0001
0010
0100
0010
,
0100
0010
0100
0010
0100
0010
0100
0010
0100
0010
0100
0010
0001
0010
0001
0010
,
0001
0010
0001
0010
0001
0000
0000
0000
1010
0000
0000
0000
0010
1000
0010
1000
,
0010
1000
0010
1000
0010
1000
0010
1000
0001
1000
0010
0000
1000
0001
1000
0001
,
1000
0001
1000
0001
1000
0100
0010
0001
1000
0100
0010
0001
1000
0000
0001
0000
,
1000
0100
1000
0001
0110
0001
0010
0001
,
1000
0001
1000
0001
1000
0000
0001
0000
0100
0000
0001
0000
0010
0000
0001
0000
,
1001
1000
1001
0001
1001
1000
0010
0100
,
0010
0000
0100
0000
0022
0000
0000
0000
0033
0000
0000
0000
0000
0001
0000
0001
,
0000
0001
0000
0001
0000
0001
0000
0001
0000
0001
0000
0001
0000
0001
0000
0100
,
0000
0001
0000
0100
0000
0001
0000
0100
0000
0001
0000
0100
0000
0001
0000
0100
,
0000
0001
0000
1000
0000
1000
0000
0001
0000
0001
0000
1000
0000
0001
0000
1000
,
0000
0010
0000
0010
0000
0010
0000
0010
0000
0010
0000
0040
0000
0000
0030
0000
,
0110
0010
0100
1000
0001
0010
0100
1001
,
0000
0001
0000
0001
0000
0001
0000
0001
0000
0001
0000
0001
0000
0001
0000
0001
,
0000
0001
0000
0001
0000
0001
0000
0001
0000
0001
0000
0001
0000
0001
0000
0010
,
0000
0010
0000
0010
0000
0010
0000
0010
0000
0010
0000
0010
0000
0010
0000
0001
,
0010
0001
0010
0001
0010
0001
0000
0100
0000
0100
0000
0100
0000
0100
0000
0001
,
0000
0001
0000
0010
0000
0010
0000
0100
0000
0100
0000
0010
0100
0010
0100
0000
,
0000
0000
0110
0000
0100
0000
1001
0000
0000
0000
0000
1000
0000
0010
0000
1000
,
0000
0010
0000
1000
0000
0010
0000
1000
0000
0010
0000
0010
0000
0010
0000
0010
,
0000
0010
0000
1000
0000
0010
0000
0010
0000
1000
0000
1000
0000
0010
0000
1000
,
0000
1000
0000
0010
0000
0010
0000
0010
0000
0010
0000
0010
0000
1000
0000
0010
,
0000
1000
0000
1000
0000
0010
0000
0010
0000
1000
0000
1000
0000
0010
0100
0000
,
0100
0000
0100
0000
0100
0000
0100
0000
0100
0000
0100
0000
0110
0000
0000
0001
,
0000
0010
0000
1000
0000
0001
0000
0100
0000
1000
0000
0001
0000
0100
0000
0001
,
0000
0100
0000
0010
0000
0001
0000
0001
0000
0001
0000
0100
0000
0100
0000
0100
,
0000
0100
0000
0100
0000
0100
0000
0100
0000
0100
0000
0100
0000
0001
0000
0001
,
0000
0001
0000
0000
1001
0000
1000
0000
1000
0000
1000
0000
0101
0000
0001
0000
,
0001
0000
0001
0000
0011
0000
0010
0000
0001
0010
0100
0010
0001
0000
0000
0000
,
1100
0000
1100
0000
1001
0001
1000
1001
,
0000
0000
1001
0000
0000
1001
0000
0000
,
1000
0100
1000
0100
1000
0100
1000
0001
1000
0001
1000
0001
1000
0010
1000
0010
,
1000
0000
0000
0001
0000
0000
0010
0000
0000
0001
0000
0000
0010
0000
0000
0001
0000
0000
0010
0000
0000
0000
0000
0000
0000
0000
0000
0000
0000
0000
0000
0000
0000
0000
0000
0000
0000
0000
2000
0000
0000
0000
0000
0000
0000
0000
0000
0000
,
0M0M
0M0M
0MMM
0M0M
0M0M
0000
00M0
0M0M
0MMM
0M0M
0M0M
0000
,
0M0M
0M0M
0MMM
0M0M
0M0M
0000
00M0
0M0M
0MMM
0M0M
0M0M
0000
,
0M0M
0M0M
0MMM
0M0M
0M0M
0000
00M0
0M0M
0MMM
0M0M
0M0M
0000
,
0M0M
0M0M
0MMM
0M0M
0M0M
0000
00M0
0M0M
0MMM
0M0M
0M0M
0000
,
3000
0000
0000
0000
0001
0010
0100
1000
0001
0010
0100
0010
0001
0010
0100
1000
,
0001
1000
0001
1000
0001
0100
0001
0010
0001
0100
0001
1000
0100
0010
0001
1000
,
0001
1000
0100
0000
0100
0000
0100
0000
0010
0000
0100
0000
1000
0000
0001
0000
,
0100
0000
0010
0000
1000
0100
1000
0100
1000
0000
0001
0000
0001
0000
0001
0000
,
0010
0100
0010
0100
0010
0000
0100
0000
0100
0000
0100
0000
1000
0001
1000
0001
,
1000
0100
0100
0100
0010
0001
0100
0010
,
1000
0100
0010
0100
1000
0100
1000
0001
,
0100
0010
1000
0100
0010
0001
0440
0000
,
0000
0000
0000
0000
,
0000
0330
4400
0000
0000
0000
0000
0000
,
0004
0000
0000
0000
0000
3303
4004
0000
,
0000
0000
0000
0000
,
3003
0000
0001
0001
0001
0100
0100
0100
,
0001
0000
0000
0000
0000
0000
1000
0100
1000
0100
0010
0001
0010
0000
0001
0000
,
0010
0100
1000
0100
1001
0010
0001
0100
,
0010
1000
0100
0010
0001
0010
0100
1000
,
0110
0001
0100
0010
0100
0001
4004
0000
,
0000
0000
0000
0000
3103
0010
0100
0010
,
1000
0001
0004
0000
0000
0000
0000
0010
,
0000
0000
0000
0000
0000
0000
0010
0000
0003
0000
0010
0000
0100
0010
0100
0010
,
0100
0010
0001
0010
0001
0010
0001
0010
0001
1000
0001
1000
0001
0100
0010
0100
,
0010
0100
0010
0100
0001
1000
0001
1000
0001
1000
0001
0100
0001
0100
0001
0100
,
0001
0010
0001
0010
0001
0010
0001
1000
0010
1000
0010
1000
0001
0010
0001
0010
,
0001
0000
0000
1000
0000
0000
0001
0000
0000
1000
0000
0000
0001
0000
0000
0000
0100
0000
0000
0000
0010
0000
0000
0000
1000
0000
0000
0000
0010
0000
0000
0000
0100
0000
0000
0000
0001
0000
0000
0000
0010
0000
0000
0000
0100
0000
0000
0000
,
1000
0000
0000
0000
0000
0000
0001
0000
0010
0000
0100
0000
1000
0000
0000
0010
0000
0000
4000
0000
0000
0000
0000
0000
,
0000
0000
0000
0000
0000
0000
3000
0000
0001
0000
0000
0000
0004
0400
0000
0000
,
0000
0010
0000
0000
1000
0000
0000
0010
,
0000
0000
1000
0000
0000
0010
0000
0000
,
1000
0000
0000
0010
0000
0000
1000
0000
,
0000
0010
0000
0000
1303
0000
0000
0001
,
0001
0000
2000
0000
0000
0100
0000
0100
0000
3200
0000
0010
0000
0010
0000
0010
,
0000
0310
0000
0001
0000
0100
0000
0001
0000
0010
0000
0000
0440
0000
0000
0000
,
1000
0001
1001
0330
,
0000
0404
1000
0010
,
1010
0000
0303
4004
,
0000
0000
0110
3003
,
1001
1100
0440
0000
,
1001
0000
0000
0000
0330
0000
1100
1000
,
0100
0001
0100
1000
0011
0001
0010
0001
,
0100
0001
0011
0001
0100
1000
0100
0010
,
1010
1000
0100
0001
0100
1000
1001
0001
,
0010
1000
0010
0001
0101
0001
0010
0001
,
0100
0000
0010
0000
1000
0000
0001
0100
0001
1000
0001
0010
0001
1000
0001
0100
,
0001
1000
0001
0100
0010
1000
0001
0100
0001
0000
0000
0000
0110
0000
0100
0000
,
0001
0010
0100
1000
1001
0001
0100
1000
,
0100
0001
0011
0010
0001
0100
0001
0010
,
1100
0000
0001
0000
1000
0000
0001
0000
1000
0000
0001
0000
1000
0010
1000
0100
,
1000
0001
0010
0100
0010
0001
1000
0010
0100
0010
1000
0001
0010
0001
1000
0010
,
1000
0001
0010
0100
1000
0100
0010
0001
1000
0001
0100
0001
1000
0010
1000
0001
,
1000
0001
0010
0100
0010
0100
0040
0000
2002
0000
0030
0000
0000
0000
0000
0000
,
3003
0000
0000
0000
;
