#TITLE:Spaceman Came Travelling;
#SUBTITLE:;
#ARTIST:Seven;
#TITLETRANSLIT:;
#SUBTITLETRANSLIT:;
#ARTISTTRANSLIT:;
#CREDIT:;
#BANNER:Spaceman Came Travelling BN.png;
#BACKGROUND:Spaceman Came Travelling BG.png;
#LYRICSPATH:Spaceman Came Travelling.lrc;
#CDTITLE:;
#MUSIC:Spaceman Came Travelling.mp3;
#OFFSET:-3.830;
#SAMPLESTART:76.800;
#SAMPLELENGTH:19.100;
#SELECTABLE:YES;
#BPMS:0.000=138.000,124.000=69.000,142.000=138.000;
#STOPS:142.000=3.020
;
#BGCHANGES:;
// cache tags:
#FIRSTBEAT:8.000;
#LASTBEAT:230.000;
#SONGFILENAME:Songs/DDRExtreme.co.uk presents ChristmasMix/Spaceman Came Travelling/Spaceman Came Travelling.sm;
#HASMUSIC:1;
#HASBANNER:1;
#MUSICLENGTH:118.682;
// end cache tags

//---------------dance-single - ----------------
#NOTES:
     dance-single:
     :
     Easy:
     4:
     0.253,0.315,0.211,0.295,0.000,150.000,25.000,35.000,0.000,0.000:  // measure 1
0000
0000
0000
0000
,  // measure 2
0000
0000
0000
0000
,  // measure 3
0200
0000
0000
0301
,  // measure 4
2000
0000
3001
0000
,  // measure 5
0002
0000
0000
0013
,  // measure 6
0200
0000
0000
0310
,  // measure 7
0020
0000
0031
0000
,  // measure 8
2000
0000
0000
0000
,  // measure 9
0000
0000
0000
3000
,  // measure 10
0001
0001
0100
0100
,  // measure 11
0010
1000
0100
0000
,  // measure 12
1000
1000
0010
0010
,  // measure 13
0100
0001
0010
0000
,  // measure 14
0001
1001
1000
0000
,  // measure 15
1000
1001
0001
0000
,  // measure 16
0200
0000
0310
1000
,  // measure 17
0002
0000
0000
0100
,  // measure 18
2003
0000
0100
3001
,  // measure 19
2002
0000
0000
0000
,  // measure 20
0000
0000
0000
3003
,  // measure 21
0100
0100
0100
0110
,  // measure 22
0010
0010
0010
0000
,  // measure 23
0010
1000
0001
0000
,  // measure 24
0001
1000
0100
0000
,  // measure 25
1000
2000
0010
3100
,  // measure 26
0010
0001
0100
0000
,  // measure 27
0002
0000
0023
0000
,  // measure 28
0230
0000
0000
1300
,  // measure 29
0002
0000
1003
1000
,  // measure 30
2002
0000
0000
0000
,  // measure 31
0000
0000
0000
3003
,  // measure 32
0100
0001
1000
1000
,  // measure 33
0100
1000
0002
0003
,  // measure 34
0010
0001
1000
1000
,  // measure 35
0020
0230
0320
0000
,  // measure 36
1030
0000
0001
1000
1001
0000
0010
0000
,  // measure 37
0100
0001
1001
0100
,  // measure 38
1000
1001
0000
0010
,  // measure 39
1000
0100
0010
1002
,  // measure 40
0100
0100
1003
1000
,  // measure 41
0001
0100
0110
1000
,  // measure 42
0010
0110
0000
0200
,  // measure 43
0301
2000
0010
0200
,  // measure 44
0000
3300
1001
0202
,  // measure 45
0303
0100
0001
1001
,  // measure 46
0000
1001
0000
1001
,  // measure 47
1001
2002
3003
1000
,  // measure 48
0100
1000
1010
0100
,  // measure 49
0001
1001
0000
0001
,  // measure 50
0010
0001
0100
0120
,  // measure 51
0000
1030
0000
0001
,  // measure 52
0001
0011
1001
1000
,  // measure 53
1010
1001
0000
0200
,  // measure 54
0310
2000
0100
0002
,  // measure 55
0000
0000
0000
0000
,  // measure 56
3003
0100
0001
2000
,  // measure 57
0000
0000
0000
0000
,  // measure 58
0000
0000
3000
0000
;

//---------------dance-single - ----------------
#NOTES:
     dance-single:
     :
     Medium:
     6:
     0.365,0.436,0.244,0.303,0.017,238.000,29.000,36.000,0.000,0.000:  // measure 1
0000
0000
0000
0000
,  // measure 2
0000
0000
0000
0000
,  // measure 3
0002
0000
0000
0000
1003
0100
1000
0000
,  // measure 4
0020
0000
0000
0000
0130
0001
0100
0000
,  // measure 5
0002
0000
0023
0000
,  // measure 6
0130
0000
0200
0000
0000
1300
0001
0000
,  // measure 7
0100
0020
0001
1030
,  // measure 8
2002
0000
0000
0000
,  // measure 9
0000
0000
0000
3003
,  // measure 10
0100
0000
0100
0001
0010
0000
0100
1000
,  // measure 11
0001
0000
0100
0001
0100
0000
0100
0000
,  // measure 12
0010
0000
1000
0100
0010
0000
0001
0010
,  // measure 13
0001
1000
1001
0000
,  // measure 14
1000
0000
0010
1000
0001
0000
0100
0001
,  // measure 15
0010
0000
0100
1000
0010
0000
1000
0000
,  // measure 16
0001
0000
0100
0001
0010
0000
0001
1000
,  // measure 17
0100
0120
0000
0031
,  // measure 18
0100
1020
0001
0130
,  // measure 19
2002
0000
0000
0000
,  // measure 20
0000
0000
0000
3003
,  // measure 21
0100
1000
0100
1000
0000
0001
0100
0001
,  // measure 22
0010
0001
0010
0001
0000
1000
0010
1000
,  // measure 23
0001
0100
0001
0000
0010
0100
1000
0000
,  // measure 24
0010
1000
0001
0000
1001
0000
1100
0000
,  // measure 25
1000
0010
0100
0001
0000
0000
1001
0000
,  // measure 26
0001
0010
0100
1000
0000
0000
1001
0000
,  // measure 27
0001
0000
0100
0010
0100
0000
0100
0010
,  // measure 28
2000
0000
0100
0000
0001
0000
3100
1000
,  // measure 29
0002
0100
0010
1003
,  // measure 30
2002
0000
0000
0000
,  // measure 31
0000
3003
0100
0010
,  // measure 32
1001
0000
0100
0000
1000
0000
1000
0000
0001
0000
0000
0100
0001
0000
0000
0000
,  // measure 33
1000
0002
0010
1003
2200
0000
3300
0000
,  // measure 34
0100
1000
0010
0010
0100
0001
1001
0000
,  // measure 35
0002
0000
0000
0013
0200
0000
0000
1300
0002
0000
0000
0000
0000
0000
0100
0000
,  // measure 36
0103
0000
0000
0100
0001
0000
0010
0000
0110
0000
0000
0000
0200
0000
0000
0000
,  // measure 37
1300
0010
0200
0000
0301
0010
0200
0000
,  // measure 38
0001
1300
1001
0020
,  // measure 39
0130
0001
0020
0000
0130
1000
0002
0000
,  // measure 40
0100
2003
0100
3001
,  // measure 41
0100
0001
1000
0000
0100
1000
0001
0000
,  // measure 42
0010
0110
0000
0100
,  // measure 43
1100
1000
1010
0200
,  // measure 44
0001
0010
0301
0020
,  // measure 45
1000
0100
0031
1001
,  // measure 46
0000
1000
0001
0000
0000
0001
1000
0001
,  // measure 47
0100
0010
0100
0001
1000
0000
0001
0000
,  // measure 48
0101
0100
0110
1000
,  // measure 49
1100
1002
0103
0010
,  // measure 50
1010
1000
1100
0120
,  // measure 51
0001
1000
0031
1001
,  // measure 52
0100
0001
1000
0000
1001
0000
1001
0000
,  // measure 53
0010
1000
0001
0000
1000
0100
2000
0000
,  // measure 54
0010
3002
0100
1003
,  // measure 55
0100
0000
0100
1000
,  // measure 56
0001
0100
0100
0020
,  // measure 57
0000
0000
0000
0000
,  // measure 58
0000
0000
0030
0000
;

//---------------dance-single - ----------------
#NOTES:
     dance-single:
     :
     Beginner:
     1:
     0.106,0.141,0.025,0.076,0.000,76.000,3.000,9.000,0.000,0.000:  // measure 1
0000
0000
0000
0000
,  // measure 2
0000
0000
0000
0000
,  // measure 3
1000
0000
0000
0000
,  // measure 4
0001
0000
0000
0000
,  // measure 5
0010
0000
0000
0000
,  // measure 6
0200
0000
0000
0000
,  // measure 7
0300
0000
0010
0000
,  // measure 8
0002
0000
0000
0000
,  // measure 9
0000
0000
0003
0000
,  // measure 10
1000
0000
1000
0000
,  // measure 11
0100
0000
0000
0000
,  // measure 12
0001
0000
0001
0000
,  // measure 13
0100
0000
0000
0000
,  // measure 14
0010
0000
0010
0000
,  // measure 15
1000
0000
0000
0000
,  // measure 16
0001
0000
0001
0000
,  // measure 17
0010
0000
0000
0000
,  // measure 18
0000
0000
0100
0100
,  // measure 19
0200
0000
0000
0000
,  // measure 20
0000
0000
0300
0000
,  // measure 21
0001
0000
1000
0000
,  // measure 22
0001
0000
0000
0000
,  // measure 23
1000
0000
0001
0000
,  // measure 24
1000
0000
0000
0000
,  // measure 25
0100
0000
0100
0000
,  // measure 26
1000
0000
0001
0000
,  // measure 27
0100
0000
0100
0000
,  // measure 28
0001
0000
0000
0000
,  // measure 29
0000
0000
1000
0000
,  // measure 30
0002
0000
0000
0000
,  // measure 31
0000
0000
0003
0000
,  // measure 32
0100
0000
0000
0000
,  // measure 33
0010
0000
0000
0000
,  // measure 34
1000
0000
0000
0000
,  // measure 35
0001
0000
0000
0000
,  // measure 36
1000
0001
1001
0100
,  // measure 37
0000
0100
0000
0010
,  // measure 38
0000
0010
0000
0100
,  // measure 39
0000
0100
0000
0002
,  // measure 40
0000
0003
0000
1000
,  // measure 41
0000
1000
0000
0001
,  // measure 42
0000
0001
0000
1000
,  // measure 43
0000
0010
0000
0020
,  // measure 44
0000
0000
0000
0030
,  // measure 45
0000
0100
0000
2002
,  // measure 46
0000
0000
0000
0000
,  // measure 47
0000
3003
0000
0100
,  // measure 48
0000
0100
0000
0100
,  // measure 49
0000
0010
0000
1000
,  // measure 50
0000
1000
0000
0001
,  // measure 51
0000
0001
0000
0010
,  // measure 52
0000
0010
0000
0001
,  // measure 53
0000
1000
0000
0001
,  // measure 54
0000
0001
0000
0200
,  // measure 55
0000
0000
0000
0300
,  // measure 56
0000
0010
0000
1001
;

//---------------dance-single - ----------------
#NOTES:
     dance-single:
     :
     Hard:
     8:
     0.475,0.606,0.345,0.320,0.080,316.000,41.000,38.000,0.000,0.000:  // measure 1
0000
0000
0000
0000
,  // measure 2
0000
0000
0000
0000
,  // measure 3
0002
0000
0000
0000
0010
0000
0000
1003
0000
0000
0100
0000
1000
0000
0000
0000
,  // measure 4
0020
0000
0000
0000
0001
0000
0000
1030
0000
0000
0001
0000
0100
0000
0000
0000
,  // measure 5
0020
0000
0000
0031
0020
0000
0000
0130
,  // measure 6
0020
0000
0000
0000
1000
0000
0000
1000
0000
0000
1030
0000
0001
0000
0000
0000
,  // measure 7
0020
0000
0000
0000
0100
0000
0000
0130
0000
0000
1000
0000
0010
0000
0000
0000
,  // measure 8
0201
1000
0010
0301
,  // measure 9
0020
1000
0100
0031
,  // measure 10
1001
0000
0100
0001
0010
1000
0010
1000
,  // measure 11
0010
0001
0100
0010
1000
0001
1000
0000
,  // measure 12
0100
1000
0010
0001
0010
0001
0010
0100
,  // measure 13
0001
1000
0010
1000
0100
0000
0110
0000
,  // measure 14
0011
0000
0001
0100
0010
0001
0010
0001
,  // measure 15
0010
1000
0100
0001
0100
0001
0100
0010
,  // measure 16
0002
0000
0103
0010
2000
0000
3100
0010
,  // measure 17
0002
0000
0100
0000
0013
1000
0001
0000
,  // measure 18
2000
0000
0010
0000
3010
0100
1000
0000
,  // measure 19
0001
0100
0001
0010
0001
0100
0001
0010
,  // measure 20
0100
1000
0010
1000
0001
1000
0001
0100
,  // measure 21
0000
0010
0000
0100
0001
0010
0100
1000
,  // measure 22
0000
1000
0000
0010
0100
0001
1000
0001
,  // measure 23
0000
0010
0000
0001
1000
0001
1000
1000
,  // measure 24
0000
0100
0000
1000
0001
1000
0001
0001
,  // measure 25
0100
0001
0000
0010
0100
0010
0100
0010
,  // measure 26
0001
1000
0000
0010
0100
0010
1000
0001
,  // measure 27
0200
0000
1300
0100
0002
0000
0013
0100
,  // measure 28
2000
0000
3010
0100
0001
0000
1001
0000
,  // measure 29
2000
0000
3010
0100
0001
0000
1001
0000
,  // measure 30
0002
0000
0010
0000
1000
0000
0103
0001
,  // measure 31
0020
0000
1030
0010
0001
0000
1001
0000
,  // measure 32
0100
0000
0001
0010
0100
0000
1000
0010
0200
0000
0000
1300
0200
0000
0000
0000
,  // measure 33
0301
0000
0010
0001
1000
0000
0100
1000
0002
0000
0000
0000
0103
0000
0100
0010
,  // measure 34
1000
0100
1000
0001
2000
0000
3010
0000
0100
0001
1000
0001
0020
0000
0000
0000
,  // measure 35
1030
0000
0000
0010
0100
0000
0000
1000
0002
0000
0000
0000
0100
0000
0000
0000
,  // measure 36
1003
0000
0000
0001
0100
0000
0010
1000
0002
0000
0000
0000
1003
0000
0000
0000
,  // measure 37
1100
0011
0101
1010
,  // measure 38
0110
0011
0110
1100
,  // measure 39
0011
0101
1010
1001
,  // measure 40
1000
0100
1000
0100
1000
0001
0100
0000
,  // measure 41
0110
1010
1001
0011
,  // measure 42
0110
0000
1010
0000
0001
0100
0020
0000
,  // measure 43
1030
0100
0020
0000
0031
0100
0001
0010
,  // measure 44
0001
0200
0000
1000
0000
0301
0010
0100
,  // measure 45
1000
0001
1000
0000
0001
0000
1002
0000
,  // measure 46
0000
0100
0103
0200
0000
0010
0310
0010
,  // measure 47
1000
0000
1000
0000
0001
0000
0100
0000
0001
0010
0001
0000
1000
0000
0000
0000
,  // measure 48
1100
1010
1100
1001
,  // measure 49
0101
0021
1000
0031
,  // measure 50
0101
1100
1010
1002
,  // measure 51
0010
2003
3010
0101
,  // measure 52
0100
0010
2000
0000
3100
0001
0200
0000
,  // measure 53
0310
0001
1000
0000
1001
0000
0001
0000
,  // measure 54
0100
0001
0010
0000
0010
0001
2000
0000
,  // measure 55
0010
3001
1100
1020
,  // measure 56
0031
0010
1000
0000
1001
0000
0200
0000
,  // measure 57
0000
0000
0000
0000
,  // measure 58
0000
0000
0300
0000
;
