#TITLE:PANDEMIC;
#SUBTITLE:;
#ARTIST:Dr1010;
#TITLETRANSLIT:;
#SUBTITLETRANSLIT:;
#ARTISTTRANSLIT:;
#CREDIT:Ben Speirs;
#BANNER:Pandemic.png;
#BACKGROUND:Pandemic-bg.png;
#LYRICSPATH:;
#CDTITLE:BEN original.png;
#MUSIC:Pandemic.mp3;
#OFFSET:-0.800;
#SAMPLESTART:18.360;
#SAMPLELENGTH:11.980;
#SELECTABLE:YES;
#DISPLAYBPM:*;
#BPMS:0.000=100.010;
#STOPS:;
#BGCHANGES:;
// cache tags:
#FIRSTBEAT:0.000;
#LASTBEAT:168.250;
#SONGFILENAME:Songs/keyboard/Pandemic/Pandemic.sm;
#HASMUSIC:1;
#HASBANNER:1;
#MUSICLENGTH:103.270;
// end cache tags

//---------------dance-single - ----------------
#NOTES:
     dance-single:
     :
     Hard:
     10:
     0.739,0.672,0.455,0.019,1.000,485.000,47.000,2.000,0.000,0.000:
2000
0000
0000
0000
,
0000
0000
0000
0000
0001
0001
0001
0000
,
0001
0001
0001
0000
0001
0001
0001
0000
,
0001
0000
0001
0000
0001
0000
0001
0001
0001
3000
0000
0001
0010
0100
0000
1100
,
0000
0101
0000
0010
0100
1000
0000
0110
0000
1010
0000
0001
0010
0100
0000
1100
,
0000
1010
0000
0001
0010
0100
1000
0001
0100
0110
0000
0001
0010
0100
0000
1010
,
0000
1100
0000
0001
0010
0100
0000
1010
0000
0110
0000
0001
0010
0100
1000
0010
,
0100
0001
0010
0001
0001
0001
0000
1000
1000
1000
0000
0010
0100
0001
0100
0010
,
0001
0100
0010
1000
0100
0010
0001
0110
0000
1001
0000
0010
0100
1000
0001
0100
,
0010
1000
0001
0010
0001
0100
0010
1000
0001
0110
0000
0001
1000
0010
1000
0001
,
1000
0010
1000
0001
0010
0001
0100
0010
1000
0101
0000
0100
0010
0001
1000
0010
,
1000
0001
0100
0110
0000
1010
0000
0101
0000
1001
0000
0000
0100
0010
1000
0001
,
0000
0010
0100
0000
0100
0000
1000
0010
0000
0100
0001
0000
0001
0000
0010
0100
,
0000
1000
0001
0000
0001
0000
0010
0100
0000
1000
0010
0000
0010
0000
0100
0001
,
0000
0010
0100
0000
0100
0000
1000
0001
0000
0010
0100
0000
0100
0000
0010
0001
,
0000
0100
0010
0000
0010
0000
1000
0001
0000
0010
0000
0100
1000
0001
0010
0100
,
1000
0001
0100
0010
1000
0001
0010
0100
0000
1000
0000
0001
0010
0100
0010
0001
,
0100
0010
1000
0001
0010
0100
0000
1000
0000
0001
0000
0010
0100
0010
0001
0100
,
0010
1000
0001
0010
0001
0100
0010
1000
0000
1000
0000
0001
0010
0100
0010
0001
,
0100
0010
1000
0001
0000
0010
0000
0100
0000
1000
0000
0001
0010
0001
0010
0001
,
0000
0000
0000
0010
0100
0010
0100
0010
0000
0000
0000
0001
1000
0001
1000
0001
,
1000
0000
0000
0010
0100
0010
0100
0010
0100
0010
0000
0001
0010
0100
1000
0001
,
0010
0000
0000
0001
0010
0100
0010
0001
0100
0000
0000
0010
1000
0001
1000
0010
,
0100
0000
0000
0001
0010
0100
0000
1000
0000
0000
0000
0010
0100
0001
0010
0100
,
1000
0101
0000
0100
0010
1000
0001
0110
0000
1010
0000
0001
0010
0100
1000
0001
,
0100
1010
0000
0001
0100
0010
1000
0011
0000
0101
0000
0010
0100
1000
0001
0110
,
0000
0101
0000
0010
1000
0001
0010
1100
0000
0110
0000
0010
0001
0010
0100
1000
,
0010
0100
0001
0010
0001
0100
0010
1000
0001
0110
0000
0001
0001
0001
0000
1000
,
1000
1000
0000
0010
0010
0010
0000
0100
0100
0100
0000
0001
0010
0100
1000
0001
,
0000
0110
0000
0010
0010
0010
0010
0010
0010
0010
0000
0001
0010
0100
0000
1001
,
0000
1010
0000
0001
0010
0001
0100
0010
1000
1001
0000
0010
0010
0010
0000
0100
,
0100
0100
0000
1000
0001
0010
0001
0100
0010
1000
0000
0001
0010
0100
0000
1000
,
0001
0100
0000
0010
1000
0001
0000
0010
0001
0100
0000
0010
1000
0001
0000
0010
,
0100
1000
0000
0001
0100
0010
1000
0001
0010
0100
0000
1010
0000
0001
0100
0010
,
1000
0101
0000
0010
0100
1000
0001
0110
0000
0011
0000
1000
0001
0010
0001
0100
,
0010
1000
0001
0000
0010
1100
0000
0101
0000
0010
0000
1000
0000
0010
0100
1000
,
0001
0100
0000
0010
1000
0001
0010
0001
0100
0110
0000
1000
0001
0010
0001
0100
,
0010
1000
0001
0110
0000
0011
0000
1001
0000
0010
0000
1000
0001
0100
0010
1000
,
0000
0001
0010
0000
0010
0000
0100
1000
0000
1001
0000
0010
1000
0001
0100
0010
,
1000
0001
0010
0000
0010
0000
0001
0010
0000
1001
0000
0010
1000
0001
0100
0010
,
1000
0001
0010
0000
0010
0000
0001
0010
0000
1001
0000
0010
1000
0001
0100
0010
,
1000
0001
0000
1000
1000
1000
0000
0001
0001
0001
0000
0010
0010
0010
0020
0000
,
0000
0030
0000
0000
0000
0000
0000
0000
0000
0000
0000
0000
0000
0000
0000
0000
;

//---------------dance-single - ----------------
#NOTES:
     dance-single:
     :
     Challenge:
     12:
     1.000,1.000,1.000,0.010,1.000,907.000,125.000,1.000,0.000,0.000:
2000
0000
0000
0000
,
0000
0000
0000
0000
0000
0000
0000
0000
0000
0000
3001
1000
0010
1000
0001
0010
,
0100
1000
0001
0100
0010
1000
0001
0010
0100
1000
0001
0000
0001
0010
0100
1000
,
0010
0000
0100
0000
0001
0000
0010
0000
0001
0000
0100
0000
0010
0000
1000
0000
0001
0000
0010
0000
0100
1000
0100
1000
0010
0100
1000
0001
1000
0010
1000
0001
,
0100
0010
0100
0001
1000
0010
1000
0001
1000
0010
0001
1000
0100
0010
0100
0001
0010
0100
1001
0000
0000
0000
1000
0100
0010
0100
0001
0010
0100
0010
0001
1000
,
0100
1000
0010
0001
0100
0010
0001
1000
0100
0010
0001
0010
0100
0001
0010
0100
0001
0010
1100
0000
0000
0000
0001
0100
0010
0001
1000
0100
0010
0100
0001
0010
,
0001
1000
0001
0010
0001
0100
0010
1000
0100
0010
0100
0000
1001
0000
0000
0000
0101
0000
0000
0000
0110
0000
1000
0100
0010
0001
0010
0001
0100
1000
0100
0010
,
0001
0100
1000
0010
0000
0000
1100
0000
1010
0000
1001
0000
0000
0000
0011
0000
1001
0000
0101
0000
0000
0000
0001
1000
0001
0100
0010
0001
1000
0010
0100
0001
,
0010
0100
0001
1000
0100
0001
1000
0010
0100
0010
0001
1000
0010
0100
0001
0010
0001
1000
0100
0010
0001
0010
0100
0001
1000
0010
0100
0001
0010
1000
0100
0001
,
0010
0001
0100
0010
1000
0100
0010
0001
0100
0010
1000
0100
0001
0010
0100
0001
1000
0100
0010
0100
0001
0010
0100
0001
0010
1000
0100
0010
0100
0010
0001
0100
,
0010
0100
1000
0100
0010
0001
0100
1000
0010
0100
1000
0010
0001
0100
0001
0010
0001
0100
1000
0010
0001
0010
1000
0100
0010
1000
0100
0010
0001
0010
0100
0010
,
0100
1000
0001
0010
0100
0000
1010
0000
1100
0000
1001
0000
0000
0000
0011
0000
1001
0000
0101
0000
0000
0000
0010
0000
1000
0000
0100
0000
0010
0000
0001
0000
,
0100
0010
1000
0001
0010
0001
0100
0010
1000
0101
0000
0001
0010
0100
1000
0010
,
0100
0001
0010
0001
0100
0010
1000
0001
0010
1001
0000
0001
0010
0100
1000
0010
,
0100
0001
0010
0001
0100
0010
1000
0001
0010
1100
0000
0001
0010
0100
1000
0010
,
1000
0001
0010
0100
1000
0001
0100
0010
1000
0110
0000
0001
0010
0100
1000
0010
,
0100
0001
0010
0001
0100
0010
1000
0001
0010
1100
0000
0001
0010
0100
1000
0010
,
1000
0001
1000
0010
0100
0001
1000
0010
1000
0101
0000
0001
0010
0100
0010
0001
,
0100
0010
1000
0001
1000
0010
1000
0001
0100
1010
0000
0001
0010
0100
1000
0001
,
1000
0010
1000
0001
0010
0100
1000
0001
0100
1001
0100
1001
0011
0011
0011
0011
,
0011
0000
0000
0110
0110
0110
0110
0110
0110
0110
0000
0101
0101
0101
0101
0101
,
0000
0000
0000
0000
0000
0000
1001
0000
1001
0000
1001
0000
1001
0000
0000
0010
0001
0000
0101
0000
0000
0000
1001
0000
1001
0000
1001
0000
1001
0000
1001
0000
,
1001
0000
0000
1010
1010
1010
1010
1010
1010
0000
0000
0110
0110
0110
0110
0110
,
0110
0000
0000
0000
0000
0000
1001
0000
0101
0000
0011
0000
1001
0000
0101
0000
0011
0000
0000
0000
0000
0000
1000
0100
1000
0100
0001
0010
0001
1000
0100
1000
,
0010
0001
0010
1000
0100
0010
0001
0100
0010
1000
0100
0010
0001
0100
0010
0001
0010
0001
0100
0010
1000
0100
1000
0001
0100
0001
0100
0010
0001
1000
0100
0010
,
1000
0100
0010
0001
0100
1000
0010
0100
0001
0010
0001
1000
0100
0010
0100
0001
1000
0100
0010
1000
0100
0001
0010
0001
0100
0010
1000
0100
0010
0100
1000
0001
,
0010
0001
0100
1000
0010
0001
0100
0010
0100
1000
0010
0001
0110
0000
0000
0000
1100
0000
0000
0000
0101
0000
0100
1000
0100
0010
0100
0001
1000
0100
1000
0010
,
0001
0100
0010
1000
0100
0010
0101
0000
1001
0000
0011
0000
0000
0000
1001
0000
1010
0000
1100
0000
0000
0000
0001
0100
0010
0001
1000
0100
0010
0100
0001
1000
,
0100
0010
0100
1000
0001
0010
0001
0100
0010
1000
0100
0010
0001
1000
0100
1000
0001
0010
0001
0100
0001
1000
0100
0010
0001
0100
0010
1000
0100
0001
0010
1000
,
0100
0001
0010
0001
0100
1000
0010
0001
0100
1000
0010
0001
0100
0010
1000
0100
0001
0010
0100
1000
0010
0100
0001
0010
1000
0100
0001
0010
0100
0001
1000
0100
,
0010
0001
0010
0001
0010
0000
0100
0000
1100
0000
0000
0000
1010
0000
0000
0000
1100
0000
0000
0000
1010
0000
0001
0010
0001
1000
0100
0010
0100
0001
1000
0100
,
0010
1000
0010
0001
0100
0010
1001
0000
1010
0000
1100
0000
0000
0000
0011
0000
0101
0000
1001
0000
0000
0000
1100
0000
1010
0000
1001
0000
0000
0000
1001
0000
,
0101
0011
0000
1010
0011
0110
0000
0101
0110
1100
0000
1100
1010
1001
0000
0011
,
0101
0000
1001
0000
0000
0000
0110
0000
1010
0000
0011
0000
0110
0000
0101
0000
0110
0000
1100
0000
0000
0000
1000
0100
0010
0001
0010
0001
0100
0010
1000
0100
,
0010
0001
0010
0100
0001
1000
0100
0010
0001
0100
0010
1000
0100
0010
0001
0100
0010
1000
0100
0001
0010
0001
0100
0010
1000
0100
0010
0001
0100
0010
1000
0100
,
0010
0100
0001
0100
1000
0010
0001
0010
0100
0010
0100
1000
0100
0010
0001
0010
0001
0100
0010
1000
0100
0010
0100
0001
0010
1000
0100
1000
0010
0001
0100
0010
,
0001
0010
0100
1000
0010
0001
0100
0010
1000
0100
0010
1000
0001
0010
0001
0100
0010
1000
0100
1000
0010
0100
0001
0010
0001
1000
0100
0010
0100
0001
0010
0100
,
1000
0010
0001
0010
0100
0001
1000
0100
0010
0100
0010
0000
0101
0000
0000
0000
1001
0000
0000
0000
0011
0000
0100
0010
0001
0100
1000
0010
0001
0100
0010
1000
,
0100
0010
1000
0001
0010
0001
0100
0010
1000
0010
0100
0001
0010
1000
0100
0010
0001
0100
0010
1000
0100
0010
1000
0010
0001
0100
0010
1000
0100
0001
0010
0001
,
0100
0010
1000
0100
0010
0001
0010
0100
0001
1000
0100
0010
0100
0001
0010
1000
0100
0001
0010
0001
0100
0010
1000
0100
0010
0001
0100
1000
0010
0100
0001
0010
,
0001
0100
1000
0010
0100
0001
0010
0001
0100
0010
0100
1000
0100
0010
0100
0001
0100
0010
1000
0100
0010
0100
0010
0001
0100
0010
1000
0100
0010
0001
0010
0001
,
0100
1000
0100
1000
0010
0000
1001
0000
0101
0000
0011
0000
0000
0000
1001
0000
1100
0000
1010
0000
0000
0000
0001
0000
0010
0000
0100
1000
0100
0000
0000
0000
;
