#TITLE:Cloud Age Symphony;
#SUBTITLE:- Last Exile Opening;
#ARTIST:Shuntaro Okino;
#TITLETRANSLIT:;
#SUBTITLETRANSLIT:;
#ARTISTTRANSLIT:;
#CREDIT:;
#BANNER:Cloud Age Symphony banner.png;
#BACKGROUND:Cloud Age Symphony- bg.png;
#LYRICSPATH:;
#CDTITLE:KOA_cdtitle.png;
#MUSIC:Cloud Age Symphony TV Size.mp3;
#OFFSET:-0.600;
#SAMPLESTART:15.561;
#SAMPLELENGTH:25.500;
#SELECTABLE:YES;
#BPMS:0.000=133.390;
#STOPS:;
#BGCHANGES:0.000=Cloud Age Symphony_hi.avi=1.000=1=0=0,
201.500=Cloud Age Symphony- bg.png=1.000=1=0=0,
99999=-nosongbg-=1.000=0=0=0 // don't automatically add -songbackground-
;
// cache tags:
#FIRSTBEAT:0.000;
#LASTBEAT:201.500;
#SONGFILENAME:Songs/Otaku's Dream 1st Anime Mix/koa5001 - Cloud Age Symphony/Cloud Age Symphony.sm;
#HASMUSIC:1;
#HASBANNER:1;
#MUSICLENGTH:92.240;
// end cache tags

//---------------dance-single - ----------------
#NOTES:
     dance-single:
     :
     Hard:
     8:
     0.567,0.492,0.065,0.260,0.087,336.000,6.000,24.000,0.000,0.000:
1000
0010
0000
0010
1000
0000
0001
1000
,
0001
0100
0000
0100
0001
0000
0000
0000
,
1000
0100
0000
0100
1000
0000
0001
1000
,
0001
0010
0000
0010
0001
0000
0000
0000
,
0100
0010
0000
0010
0100
0000
0010
0100
,
0001
1000
0000
1000
0001
0000
0000
0000
,
0220
0330
2002
3003
,
0220
0330
2002
3003
,
0100
0010
1000
0100
0001
0100
1000
0001
,
1000
0010
0001
0010
1000
0100
0010
0001
,
0100
0010
0100
0010
1000
0001
1000
0001
,
1000
0001
0100
0001
1000
0100
1000
0001
,
1000
0010
0100
0001
0010
0100
0010
0100
,
1000
0001
0010
0001
1000
0010
1000
0001
,
1000
0010
1000
0100
0010
0001
0100
0001
,
1000
0100
0001
0100
1000
0010
0001
0010
,
1000
1000
0100
0010
0001
0001
0100
0010
,
0100
0100
0010
1000
0001
0001
1000
0010
,
1000
1000
0001
1000
0010
0010
0100
0001
,
0100
0100
0001
1000
0001
0001
0010
0100
,
1000
1000
0100
0001
0100
0100
1000
0001
,
1000
1000
0010
0001
0010
0010
1000
0001
,
2000
3000
0200
0300
0002
0003
0020
0030
,
0002
0003
0200
0300
2000
3000
0020
0030
,
2002
0000
0000
3003
,
0100
0010
0100
0100
0010
1000
0100
0010
,
0001
1000
0001
0001
1000
0010
0100
0001
,
1000
0001
1000
1000
0001
0010
0100
1000
,
0010
0100
0010
0010
1000
0001
0100
0001
,
1000
0010
0100
0010
1000
0100
0010
0100
,
1000
0010
1000
0100
1000
0010
1000
0100
,
0010
0001
0100
0010
0100
0001
0010
0100
,
0010
0001
0100
0001
0010
0001
0100
0010
,
1000
0001
0100
0100
0001
0010
0100
1000
,
0010
0100
0001
0001
1000
0100
1000
0001
,
0100
0010
1000
1000
0001
0010
0001
0100
,
0010
1000
0010
0010
1000
0100
0010
0001
,
1000
0100
0001
0100
1000
0010
0100
0010
,
1000
0010
0001
0010
0100
0001
1000
1000
,
0001
0100
1000
0100
0001
0010
0100
0010
,
0001
0010
1000
0010
0100
1000
0001
0001
,
0100
0000
0010
0000
1000
0000
0100
0000
0010
0001
0000
0010
0001
0000
0000
0000
,
1000
0000
0001
0000
0010
0000
0100
0000
1000
0010
0000
1000
0010
0000
0000
0000
,
1000
0000
0100
0000
0001
0000
0100
0000
1000
0001
0000
1000
0001
0000
0000
0000
,
0010
0000
0100
0000
1000
0000
0001
0000
0100
0010
0000
0100
0010
0000
0000
0000
,
2000
0000
0000
0000
0001
0000
0000
0001
0000
0001
0000
0000
3001
0000
0000
0000
,
0002
0000
0000
0000
1000
0000
0000
1000
0000
1000
0000
0000
1003
0000
0000
0000
,
0200
0000
0000
0000
0010
0000
0000
0010
0000
0010
0000
0000
0310
0000
0000
0000
,
0020
0000
0000
0000
0100
0000
0000
0100
0000
0100
0000
0000
0130
0000
0000
0000
,
2002
0000
0000
0000
,
0000
0000
0000
3003
0000
0000
0000
0000
;

//---------------dance-single - ----------------
#NOTES:
     dance-single:
     :
     Medium:
     6:
     0.395,0.464,0.130,0.466,0.043,200.000,12.000,43.000,0.000,0.000:
0020
0000
0000
0100
,
0200
0000
0000
0330
,
0002
0000
0000
1000
,
2000
0000
0000
3003
,
0100
0000
0010
0000
0001
1000
0001
0002
,
0000
0003
1000
0002
0000
0003
0100
0020
,
0000
0030
1000
0200
0000
0300
0010
0002
,
0000
0000
1000
2000
0000
0000
3003
0000
,
0001
0000
1000
0000
0010
0100
0010
0020
,
0000
0030
1000
0002
0000
0003
1000
0200
,
0000
0300
0010
0002
0000
0003
0100
0020
,
0000
0030
1000
0002
0000
0000
0000
0003
,
1000
0100
1100
0000
0010
0001
0011
0000
,
0100
0001
0101
0000
0010
1000
1010
0000
,
0001
0010
1100
0000
0010
0100
1001
0000
,
0100
0010
0110
0000
1000
0001
1001
0000
,
0010
0000
0100
0001
1000
0001
1000
1000
,
0000
0100
0010
0001
0000
1100
0000
0011
,
0000
0100
0010
0200
0000
0000
0301
0000
,
1000
1000
0001
0010
0000
0100
0000
1000
,
0000
0010
0100
0020
0000
0000
0000
0030
,
1000
0001
0010
0100
,
2000
0001
0000
0001
,
0000
0010
0000
3010
,
0220
0000
0000
0330
,
0002
0010
1000
0013
,
2000
0001
0100
3001
,
0200
1000
0001
1300
,
0020
1000
0001
1030
,
0200
0001
1000
0301
,
0020
0001
1000
0031
,
2000
0010
0100
3010
,
0002
0000
0013
0000
0100
0010
0100
1000
,
0002
1000
0100
1003
,
0200
0001
1000
0301
,
2000
0010
0100
3010
,
0002
0010
0100
0013
,
0200
1000
0001
0310
,
2000
0010
0100
3001
,
0020
1000
0001
1030
,
0002
0100
0010
0103
,
0010
0000
0000
0000
1000
0000
0000
0000
0001
0100
0000
0100
0001
0000
0000
0000
,
1000
0000
0000
0000
0100
0000
0000
0000
0010
0001
0000
0001
0010
0000
0000
0000
,
0001
0000
0000
0000
0100
0000
0000
0000
0010
1000
0000
1000
0010
0000
0000
0000
,
1000
0000
0000
0000
0001
0000
0000
0000
1000
0100
0000
0100
1000
0000
0000
0000
,
0020
0100
0000
0130
,
0200
0000
0000
0000
0001
0000
0000
0000
0000
0000
0000
0000
0001
0300
0000
0000
,
0002
1000
0000
1003
,
2000
0010
0000
3010
,
0220
0000
0000
0000
,
0000
0000
0000
0330
0000
0000
0000
0000
;

//---------------dance-single - ----------------
#NOTES:
     dance-single:
     :
     Easy:
     4:
     0.302,0.355,0.304,0.119,0.000,156.000,28.000,11.000,0.000,0.000:
2000
0000
0000
0000
,
0000
0000
0000
3000
,
0002
0000
0000
0000
,
0000
0000
0000
0003
,
1000
0000
1000
0000
,
0010
0000
0010
0000
,
0100
0000
0100
0000
,
0001
0000
0001
0000
,
1000
0100
1000
1100
,
0010
0001
0010
0011
,
0001
0100
0001
0101
,
1000
0010
1000
1010
,
0001
0010
0001
0001
,
1000
0010
1000
1000
,
0001
0100
0001
0001
,
1000
0100
1000
1000
,
0010
0100
0010
0110
,
0001
1000
0001
1001
,
0100
0001
0100
0010
,
1000
0100
1000
0010
,
1000
0001
1000
1000
,
0001
1000
0001
0001
,
0020
0000
0100
0000
,
0100
0000
0130
0000
,
2002
0000
0000
3003
,
0010
1010
0100
0101
,
1000
1100
0010
0011
,
0100
0110
0010
1001
,
1000
0101
1000
0001
,
0010
1100
0001
1010
,
0100
1001
0001
1000
,
0001
1100
1000
0101
,
1000
0011
0001
1010
,
0101
0001
0100
0001
,
1010
0010
1000
0010
,
1100
0100
1000
0100
,
0011
0001
0010
0001
,
0110
0010
0100
0010
,
1001
0001
1000
0001
,
1000
0100
1000
0010
,
0100
0001
0010
0001
,
1000
0010
0010
0010
,
0100
0001
0001
0001
,
0010
0100
0100
0100
,
1000
0001
0001
0001
,
2000
0000
0000
3000
,
0200
0000
0000
0300
,
0020
0000
0000
0030
,
0002
0000
0000
0003
,
0220
0000
0000
0000
,
0000
0000
0000
0330
0000
0000
0000
0000
;

//---------------dance-single - ----------------
#NOTES:
     dance-single:
     :
     Challenge:
     9:
     0.627,0.573,0.098,0.347,0.737,364.000,9.000,32.000,0.000,0.000:
2000
0010
0000
0100
3100
0000
0010
0100
,
0002
0010
0000
0100
0203
0000
0300
0000
,
0020
0100
0000
1000
1030
0000
0001
0010
,
0200
0010
0000
1000
2300
0000
3000
0000
,
0002
1000
0000
0010
0013
0000
0100
0010
,
2000
0001
0000
0010
3020
0000
0030
0000
,
2200
3300
2002
3003
,
0202
0303
2002
3003
,
0010
0000
0000
0010
0000
1000
0001
0000
1000
0000
0000
1000
0000
0100
0010
0000
,
0001
0000
0000
0001
0000
0100
0010
0000
1000
0000
0000
1000
0000
0001
0010
0000
,
0100
0000
0000
0100
0000
1000
0001
0000
1000
0000
0000
1000
0000
0001
0100
0000
,
0010
0000
0000
0010
0000
1000
0100
0000
1000
0000
0000
1000
0000
0010
0100
0000
,
0001
0000
0000
0100
0000
1000
0100
0000
0001
0000
0000
0010
0000
0010
0001
0000
,
1000
0000
0000
0100
0000
0001
0100
0000
1000
0000
0000
0010
0000
0010
1000
0000
,
0001
0000
0000
0010
0000
1000
0010
0000
0001
0000
0000
0100
0000
0100
0001
0000
,
1000
0000
0000
0010
0000
0001
0010
0000
1000
0000
0000
0100
0000
0100
1000
0000
,
0001
0000
0000
0011
0000
0010
0001
0000
1000
0000
0000
1010
0000
0010
1000
0000
,
0001
0000
0000
0101
0000
0100
0001
0000
1000
0000
0000
1100
0000
0100
1000
0000
,
0010
0000
0000
0010
0000
0100
0001
0000
1000
0000
0000
1000
0000
0100
0010
0000
,
0001
0000
0000
0001
0000
1000
0010
0000
1000
0000
0000
1000
0000
0001
0010
0000
,
1000
0000
0000
1000
0000
0001
0100
0000
0001
0000
0000
0001
0000
1000
0100
0000
,
0010
0000
0000
0010
0000
0001
1000
0000
0010
0000
0000
0010
0000
1000
0001
0000
,
1000
0010
0100
0010
1000
0100
0010
0100
,
0010
0001
0100
0010
0100
0001
0010
0100
,
2000
0000
0000
3000
,
0001
0000
0000
0010
0000
0100
1000
0000
0010
0000
0000
0010
0000
0000
0100
0000
,
0001
0000
0000
1000
0000
0010
1000
0000
0100
0000
0000
0100
0000
0000
0010
0000
,
0100
0000
0000
1000
0000
0010
0100
0000
0001
0000
0000
0001
0000
0000
1000
0000
,
0100
0000
0000
0010
0000
0001
0100
0000
0010
0000
0000
0010
0000
0000
1000
0000
,
0100
0000
0000
0100
0000
1000
0001
0000
0010
0000
0000
0100
0000
0000
1000
0000
,
0010
0000
0000
0010
0000
1000
0001
0000
0100
0000
0000
0010
0000
0000
1000
0000
,
0001
0000
0000
0001
0000
0100
0010
0000
0100
0000
0000
0001
0000
0000
0010
0000
,
0100
0000
0000
0100
0000
1000
0010
0000
1000
0000
0000
0100
0000
0000
0010
0000
,
0001
0000
0100
0000
1000
0200
0000
0001
0000
0301
0000
0010
0100
0000
1000
0000
,
0010
0000
0100
0000
0001
0020
0000
0100
0000
0130
0000
1000
0001
0000
0100
0000
,
0001
0000
0010
0000
1000
0020
0000
0001
0000
0031
0000
0100
0010
0000
1000
0000
,
0100
0000
0010
0000
0100
2000
0000
0001
0000
3001
0000
0001
0010
0000
0100
0000
,
1000
0000
0100
0000
0001
0200
0000
1000
0000
1300
0000
0001
0100
0000
0010
0000
,
1000
0000
0100
0000
0010
0002
0000
1000
0000
1003
0000
0010
1000
0000
0001
0000
,
1000
0000
0010
0000
0001
0020
0000
1000
0000
1030
0000
0001
0010
0000
0100
0000
,
0010
0000
0001
0000
0100
0020
0000
0100
0000
0130
0000
0010
1000
0000
0001
0000
,
1000
0000
0010
0000
1000
0000
0100
0000
1000
0010
0000
0010
1000
0000
0100
0000
,
0010
0000
0001
0000
0100
0000
0001
0000
0010
0100
0000
0100
0010
0000
0001
0000
,
0100
0000
0010
0000
1000
0000
0001
0000
1000
0100
0000
0100
1000
0000
0001
0000
,
0010
0000
0100
0000
1000
0000
0010
0000
0100
0001
0000
0001
0100
0000
0010
0000
,
1000
0000
0100
0000
1000
0002
0000
0010
0000
0013
0000
0001
1000
0000
0010
0000
,
1000
0000
0001
0000
0100
0002
0000
1000
0000
1003
0000
0100
1000
0000
0001
0000
,
1000
0000
0100
0000
0010
0200
0000
1000
0000
1300
0000
0010
0100
0000
0001
0000
,
0010
0000
0100
0000
0010
0002
0000
0100
0003
0100
0000
0010
1000
0000
0001
0000
,
2002
0000
0000
0000
,
0000
0000
0000
3003
0000
0000
0000
0000
;
