#TITLE:Slaget vid blodsalv;
#SUBTITLE:;
#ARTIST:Finntroll;
#TITLETRANSLIT:;
#SUBTITLETRANSLIT:;
#ARTISTTRANSLIT:;
#CREDIT:;
#BANNER:1ff5b47cb607de57d6bf076060e7899f_full copia.jpg;
#BACKGROUND:1ff5b47cb607de57d6bf076060ecc7899f_full.jpg;
#LYRICSPATH:;
#CDTITLE:CDTITLE.jpg;
#MUSIC:Finntroll - slaget vid blodsalv.mp3;
#OFFSET:0.020;
#SAMPLESTART:100.000;
#SAMPLELENGTH:12.000;
#SELECTABLE:YES;
#BPMS:0.000=212.181;
#STOPS:;
#BGCHANGES:;
// cache tags:
#FIRSTBEAT:1.000;
#LASTBEAT:688.000;
#SONGFILENAME:Songs/Definitive Keyboard Megapack/Slaget Vid Blodsalv - Finntroll(Leone510)/Finntroll - slaget vid blodsalv.sm;
#HASMUSIC:1;
#HASBANNER:1;
#MUSICLENGTH:196.997;
// end cache tags

//---------------dance-single - ----------------
#NOTES:
     dance-single:
     :
     Challenge:
     12:
     1.000,1.000,1.000,0.772,1.000,1380.000,351.000,152.000,0.000,21.000:
0000
2020
3030
0022
,
0033
0000
0220
0000
0330
0000
0010
1000
,
0010
1000
0110
0001
0100
0010
1001
0010
,
0100
0010
1100
0001
0010
0100
1000
0100
,
0010
0101
1000
0001
0100
1001
0010
1000
,
0010
0101
0010
0100
1000
0100
0010
0001
,
0110
1000
0010
0001
1010
0100
0010
0001
,
1100
0001
0010
0100
1000
0100
0010
1001
,
0100
0001
0100
1010
0001
0010
0100
0011
,
0010
0100
1000
0100
0010
0001
2020
0000
,
3030
0202
0303
0220
,
0330
0000
0110
0110
0011
1010
0101
0001
,
1100
0001
1010
0001
1100
0110
0000
0000
,
0000
0000
0010
0100
1000
0000
0001
0000
0000
0000
0100
0000
0011
0000
0100
0000
,
1010
0001
1100
0100
1010
0001
0101
0010
,
0110
1000
0101
0010
1100
0010
0101
0100
,
1010
0010
0110
0001
0011
0100
1010
0100
,
0011
0100
1001
0010
0101
1000
1010
0100
,
0011
0001
1010
0100
1010
0100
0110
1000
,
0011
1000
0101
0010
1100
0010
0101
0010
,
1100
0010
0101
0010
1001
0001
1010
0001
,
0011
0000
0100
0000
0010
1000
0100
0010
1000
0010
0200
0000
0302
0000
0203
0000
,
0320
2030
0000
3001
0000
0001
0110
1000
,
0101
0010
1100
0001
0101
0020
0230
2300
,
3020
0032
0000
1003
0000
0100
0011
0100
,
0011
1000
1001
0010
0000
0200
0302
0203
,
0320
2030
0000
3001
0000
0001
0110
1000
,
0101
0010
1100
0001
0101
0020
0230
2300
,
3020
0032
0000
1003
0000
0100
0011
0100
,
0011
0000
1000
0000
1001
0010
0100
1000
0010
1000
0010
0000
0101
0000
0010
0000
,
0101
1000
0110
0001
1100
0010
0001
0010
,
0100
1000
0100
0010
0001
1000
0101
0010
,
1100
0010
1001
0100
0011
0100
1000
0100
,
0010
0001
0010
0100
1000
0001
1010
0001
,
1100
0010
0101
1000
0110
0001
0010
0100
,
1000
0100
0010
0001
1100
0010
0101
0010
,
0110
1000
0011
0100
0001
0010
0100
1000
,
0100
0000
0010
0000
0001
0000
2200
0000
0000
3300
0000
0000
0000
0202
0000
0000
,
0000
0303
0000
0000
0000
2002
0000
0000
3003
0000
0000
0000
0101
0000
1010
0000
,
0101
0110
1001
0001
1010
0100
0110
1000
,
0011
0000
1000
0000
0101
0010
0100
1000
0010
0001
1000
0000
0010
0100
0010
0001
,
0100
0000
0100
0011
0100
1010
0001
1100
,
0100
1010
0001
0101
0010
0110
1000
0101
,
0010
1100
0010
0101
0100
1010
0010
0110
,
0001
0011
0100
1010
0100
0011
0100
1001
,
0010
0101
1000
1010
0100
0011
0001
1010
,
0100
1010
0100
0110
1000
0011
1000
0101
,
0010
1100
0010
0101
0010
1100
0010
0101
,
0010
0000
1001
0000
0001
0000
1010
0000
0001
0010
0100
1000
0010
0000
0200
0000
,
0302
0000
0203
0000
0320
0000
2030
0000
0000
0000
3001
0000
0000
0001
0000
0110
,
0000
1000
0000
0101
0000
0010
0000
1100
0000
0001
0000
0101
0000
0020
0000
0230
,
0000
2300
0000
3020
0000
0032
0000
0000
1003
0000
0000
0000
0100
0000
0011
0000
,
0100
0011
1000
1001
0010
1001
0200
0302
,
0203
0000
0320
0000
2030
0000
0000
3001
0000
0000
0000
0001
0000
0110
0000
1000
,
0000
0101
0000
0010
0000
1100
0000
0001
0000
0000
0002
0000
0023
0000
0230
0000
,
2300
0000
0000
0000
3020
0000
0000
0000
0000
0000
0000
0000
1030
0000
0000
0000
0000
0000
0000
0001
0000
0000
0000
1100
0000
0000
0000
0010
0000
0000
0000
0101
,
0000
0000
0000
0010
0000
0000
0100
0001
0000
0000
0010
1000
0000
0000
0100
0000
0000
0001
0000
0000
1000
0000
0000
0000
0011
0000
0000
0000
0100
0000
0000
0000
,
1010
0001
0110
0100
1001
0010
0101
1000
,
0110
0001
1100
0010
0101
0100
1001
0100
,
0011
1000
0011
1000
1010
0001
1100
0010
,
0001
0100
1001
0010
1100
0010
0101
0010
,
1001
0100
1001
0010
0011
0100
1010
0001
,
1100
0010
0101
0001
0200
0001
0320
0001
,
1030
0002
0000
1013
0000
0110
0000
0101
,
0000
0001
0110
0001
1100
0001
0101
0010
,
1100
0020
0032
0023
0230
0302
0023
0031
,
1100
0010
0101
0010
1100
0100
0011
0001
,
1010
0100
1001
0010
1001
0001
1100
0010
,
0101
0010
1100
0010
0101
0010
1100
0001
,
0110
1000
0101
0010
0011
0100
1010
0001
,
0110
1000
0101
0001
1001
0100
0011
0000
,
1010
0000
1001
0000
0110
0000
0020
0032
,
0203
0320
2030
0000
3020
0032
0203
0000
,
0320
0000
2030
0000
3020
0000
0000
0000
0230
0000
0000
0300
0200
0000
0320
0000
,
0032
0203
2300
0000
3020
0032
0203
0000
,
0322
0000
2233
0000
0000
3300
0020
2000
,
3002
0000
0203
0000
0302
0000
0000
0000
0000
0203
0000
2300
0000
3200
0000
0000
,
0300
0002
0000
2003
0000
3002
0000
0000
0003
0200
0000
0000
0300
0200
0000
2300
,
0000
3200
0000
0302
0000
0203
0000
0000
0000
0000
2300
0000
3002
0000
2003
0000
,
3030
0000
0000
0000
0202
0000
0000
0000
0303
0000
0000
0000
0220
0000
0000
0000
0001
0000
1000
0000
0331
0000
0100
0000
0010
0000
0000
0000
1000
0000
0000
0001
,
0000
0000
0100
0000
0000
0001
0000
0000
0010
0000
0000
0100
0000
0000
0001
0000
0000
0010
0000
0000
1000
0000
0000
0010
0000
0000
0001
0000
0000
0100
0000
0000
,
0010
0000
0000
0001
0000
0000
1000
0000
0000
0100
0000
0000
0010
0000
0000
0001
0000
0000
0100
0000
0000
1000
0000
0000
0010
0000
0000
0100
0000
0000
0001
0000
,
0000
0100
0000
0000
0010
0000
0000
0010
0000
0000
0100
0000
0000
1000
0000
0000
0010
0000
0000
0001
0000
0000
0100
0000
0000
0010
0000
0000
0001
0000
0000
0010
,
0000
0000
0100
0000
0000
1000
0000
0000
0100
0000
0000
1000
0000
0000
0010
0000
0000
1000
0000
0000
0001
0000
0000
1000
0000
0000
0100
0000
0000
0001
0000
0000
,
0010
0000
0000
0100
0000
0000
0001
0000
0000
0010
0000
0000
1000
0000
0000
0010
0000
0000
0001
0000
0000
0100
0000
0000
0010
0000
0000
0001
0000
0000
1000
0000
,
0000
0100
0000
0000
0010
0000
0000
0001
0000
0000
0100
0000
0000
1000
0000
0000
0010
0000
0000
0100
0000
0000
0001
0000
0000
0100
0000
0000
0010
0000
0000
0001
,
0000
0000
0010
0000
0000
0100
0000
0000
1000
0000
0000
0001
0000
0000
0100
0000
0000
0010
0000
0000
0001
0000
0000
0010
0000
0000
0100
0000
0000
1000
0000
0000
,
0100
0000
0000
1000
0000
0000
0110
0000
0000
1000
0000
0000
0101
0000
0000
1000
0000
0000
0110
0000
0000
0001
0000
0000
1010
0000
0000
0100
0000
0000
0010
0000
,
0000
0001
0000
0000
1000
0000
0000
0010
0000
0000
0001
0000
0000
0100
0000
0000
0010
0000
0000
0001
0000
0000
1000
0000
0000
0100
0000
0000
0010
0000
0000
0001
,
0000
0000
0100
0000
0000
1000
0000
0000
0010
0000
0000
0100
0000
0000
0001
0000
0000
0100
0000
0000
0010
0000
0000
1000
0000
0000
0001
0000
0000
1000
0000
0000
,
0010
0000
0000
0001
0000
0000
0100
0000
0000
0010
0000
0000
0001
0000
0000
0010
0000
0000
0100
0000
0000
1000
0000
0000
0100
0000
0000
1000
0000
0000
0010
0000
,
0000
1000
0000
0000
0100
0000
0000
0001
0000
0000
0100
0000
0000
0001
0000
0000
0010
0000
0000
0100
0000
0000
0001
0000
0000
0010
0000
0000
1000
0000
0000
0010
,
0000
0000
0001
0000
0000
0100
0000
0000
0010
0000
0000
0001
0000
0000
1000
0000
0000
0100
0000
0000
0010
0000
0000
0001
0000
0000
0100
0000
0000
1000
0000
0000
,
0010
0000
0000
0100
0000
0000
0001
0000
0000
0100
0000
0000
0001
0000
0000
0100
0000
0000
0001
0000
0000
1000
0000
0000
0010
0000
0000
0001
0000
0000
0100
0000
,
0000
0010
0000
0000
0001
0000
0000
0010
0000
0000
0000
0000
0101
0000
0000
0000
0000
0000
0000
0000
1010
0000
0000
0000
0000
0000
0000
0000
1001
0000
0000
0000
,
0000
0000
0000
0000
0110
0000
0000
0000
0000
0000
0000
0000
1010
0000
0000
0000
0010
0000
0000
0001
0000
0000
0010
0000
0000
0100
0000
0000
1000
0000
0000
0010
,
0000
0000
1000
0000
0000
0010
0000
0000
0001
0000
0000
0010
0000
0000
0100
0000
0000
0000
0000
0000
0010
0000
1000
0000
0010
0000
1000
0000
0101
0000
0000
0000
,
0000
0000
0010
0001
0010
0001
1100
0000
0000
0000
0100
0001
0100
0001
1010
0000
,
0000
0000
0110
0000
0000
0000
0011
0000
0000
0000
0010
0100
0010
0100
1001
0000
,
0000
0000
0100
1000
0100
1000
0110
0000
0000
0000
0202
0000
0303
0000
2020
0000
,
3030
0000
0000
0000
0000
0000
0110
0000
0000
0000
0010
1000
0010
1000
0101
0000
,
0000
0000
0010
0001
0010
0001
1100
0000
0000
0000
0100
0001
0100
0001
1010
0000
,
0000
0000
0110
0000
0000
0000
0011
0000
0000
0000
0010
0100
0010
0100
1001
0000
,
0000
0000
0000
0000
0100
0000
1000
0000
0100
0000
1000
0000
0110
0000
0000
0000
0000
0000
0000
0000
0001
0000
1100
0000
0000
0000
0000
0000
0000
0001
0000
2020
,
0000
0000
0000
3030
0000
0000
0000
0000
0000
0000
0000
0000
0000
0000
0000
0000
0110
0000
0000
0000
0000
0000
0000
0000
0010
0000
0000
0100
0000
0000
1000
0000
,
0000
0010
0000
0000
0001
0000
0000
0100
0000
0000
0001
0000
0000
0010
0000
0000
0100
0000
0000
1000
0000
0000
0010
0000
0000
1000
0000
0000
0100
0000
0000
0010
,
0000
0000
0001
0000
0000
0100
0000
0000
0001
0000
0000
0010
0000
0000
0100
0000
0000
0001
0000
0000
0100
0000
0000
0001
0000
0000
0100
0000
0000
0010
0000
0000
,
0100
0000
0000
0010
0000
0000
1000
0000
0000
0001
0000
0000
0010
0000
0000
1000
0000
0000
0100
0000
0000
0000
0000
0000
0000
0000
0000
0000
2002
0000
0000
0000
,
3003
0000
0000
0000
0220
0000
0000
0000
0330
0000
0000
0000
0000
0000
0000
0000
0000
0000
0000
0000
0010
0000
0000
0100
0000
0000
1000
0000
0000
0010
0000
0000
,
0100
0000
0000
1000
0000
0000
0100
0000
0000
1000
0000
0000
0010
0000
0000
1000
0000
0000
0001
0000
0000
1000
0000
0000
0010
0000
0000
0100
0000
0000
1000
0000
,
0000
0001
0000
0000
0010
0000
0000
0100
0000
0000
1000
0000
0000
0010
0000
0000
0001
0000
0000
0010
0000
0000
0100
0000
0000
0001
0000
0000
0010
0000
0000
0100
,
0000
0000
0001
0000
0000
1000
0000
0000
0010
0000
0000
0100
0000
0000
1000
0000
0000
0100
0000
0000
0010
0000
0000
0001
0000
0000
1000
0000
0000
0000
0000
0000
,
0000
2002
3003
0220
0330
0000
0000
0010
,
0101
1000
0001
1000
0011
0100
0001
1000
,
0110
0000
0100
0000
0001
0000
1000
0000
0010
0100
1000
0010
0001
0000
1000
0000
,
0001
1000
0101
0010
0001
0010
1100
0010
,
0100
0000
0001
0000
1010
0000
0100
0000
1000
0000
0010
0000
0001
0010
0100
1000
,
0001
1000
0011
0100
0010
1000
0101
0010
,
0001
0100
1001
0100
0001
0010
0011
1000
,
0100
0010
0101
0010
0100
1000
0110
0001
,
0010
0000
0000
0000
0100
0000
0000
0000
0010
0000
0100
0000
0001
0000
0100
0000
0001
0000
1000
0000
0010
0000
0000
0100
0000
0000
0010
0000
0000
1000
0000
0000
,
0010
0000
0000
0100
0000
0000
0001
0000
0000
1000
0000
0000
0010
0000
0000
1000
0000
0000
0010
0000
0000
0001
0000
0000
1000
0000
0000
0010
0000
0000
0100
0000
,
0000
1000
0000
0000
0001
0000
0000
0010
0000
0000
0001
0000
0000
0100
0000
0000
0001
0000
0000
1000
0000
0000
0001
0000
0000
1000
0000
0000
0100
0000
0000
0010
,
0000
0000
0001
0000
0000
1000
0000
0000
0100
0000
0000
0010
0000
0000
0100
0000
0000
0001
0000
0000
0010
0000
0000
0001
0000
0000
0100
0000
0000
0001
0000
0000
,
0100
0000
0000
0001
0000
0000
0010
0000
0000
0100
0000
0000
1000
0000
0000
0010
0000
0000
0100
0000
0000
1000
0000
0000
0100
0000
0000
1000
0000
0000
0001
0000
,
0000
0010
0000
0000
1000
0000
0000
0001
0000
0000
0100
0000
0000
0010
0000
0000
0001
0000
0000
1000
0000
0000
0001
0000
0000
1000
0000
0000
0001
0000
0000
0100
,
0000
0000
0001
0000
0000
1000
0000
0000
0010
0000
0000
0100
0000
0000
0010
0000
0000
0001
0000
0000
1000
0000
0000
0001
0000
0000
1000
0000
0000
0001
0000
0000
,
1000
0000
0000
0010
0000
0000
0100
0000
0000
1000
0000
0000
0001
0000
0000
0010
0000
0000
0100
0000
0000
1000
0000
0000
0000
0000
0000
0000
0000
0000
0011
0000
,
0000
0000
0000
1001
0000
0000
0000
0101
0000
0000
0000
0110
0000
0000
0010
0100
,
0010
1000
0010
0100
0001
0100
0001
1000
0010
0001
0100
0000
0010
0000
0100
0000
,
1001
0100
0011
1000
0101
0010
1001
0100
,
1010
0001
1010
0100
0110
0001
1010
0100
,
0011
1000
0110
1000
0101
0010
1100
0001
,
0000
2020
3030
0220
0330
0000
0000
0010
,
0010
0001
1100
0010
0101
0010
1001
0100
,
1010
0100
0011
0100
1001
0010
1100
0010
,
0101
0000
1000
0000
0110
0000
0001
0000
0100
1000
0100
0010
0001
0000
0010
0000
,
0000
0100
1000
0000
0000
0100
1010
0000
0000
0000
0000
0000
0000
0000
0011
0000
,
0010
0000
0000
0100
0000
0000
1000
0000
0000
0010
0000
0000
1000
0000
0000
0010
0000
0000
0001
0000
0000
0100
0000
0000
0010
0000
0000
1000
0000
0000
0100
0000
,
0000
0010
0000
0000
0100
0000
0000
0010
0000
0000
0001
0000
0000
0010
0000
0000
0100
0000
1000
0000
0000
0100
0000
0000
1000
0000
0000
0010
0000
0000
0100
0000
,
0000
0010
0000
0000
0001
0000
0000
0100
0000
0000
0010
0000
0000
0001
0000
0000
0100
0000
0000
0001
0000
0000
1000
0000
0000
0010
0000
0000
1000
0000
0000
0001
,
0000
0100
0000
0000
0000
0000
0022
0000
0033
0000
2002
0000
3003
0000
0000
0000
,
0000
0000
0000
0000
0010
0000
0000
0000
0010
0000
0000
0100
0000
0000
1000
0000
0000
0010
0000
0000
1000
0000
0000
0010
0000
0000
0001
0000
0000
0100
0000
0000
,
0010
0000
0000
1000
0000
0000
0100
0000
0000
0010
0000
0000
0100
0000
0000
0010
0000
0000
0001
0000
0000
0010
0000
0000
0100
0000
1000
0000
0000
0100
0000
0000
,
1000
0000
0000
0010
0000
0000
0100
0000
0000
0010
0000
0000
0001
0000
0000
0100
0000
0000
0010
0000
0000
0001
0000
0000
0100
0000
0000
0001
0000
0000
1000
0000
,
0000
0010
0000
0000
1000
0000
0000
0001
0000
0000
0100
0000
0000
0000
0000
0000
0000
0000
0000
0000
0022
0000
0000
0000
0033
0000
0000
0000
2002
0000
0000
0000
,
3003
0000
0000
0010
1010
0100
1001
0010
,
1100
0010
0101
1000
0011
0100
1010
0100
,
0011
0000
0000
0000
1000
0000
0000
0000
0110
0000
0000
0000
0101
0000
0000
0000
0001
0000
0010
0000
0100
0000
1000
0000
0010
0000
0100
0000
1000
0000
0000
0001
,
0000
0000
0010
0000
0000
0100
0000
0000
0010
0000
0000
0001
0000
0000
1000
0000
0000
0010
0000
0000
0001
0000
0000
0100
0000
0000
0001
0000
0000
0010
0000
0000
,
1100
0100
0011
0100
1001
0010
1100
0001
,
1001
0100
1010
0100
0011
0100
1010
0001
,
1010
0000
0110
0000
1000
0001
1000
0000
0010
0100
0010
0000
0010
0100
0010
0100
,
0000
0002
0000
2003
0000
3020
0000
0130
,
0110
0001
1100
0010
1010
0100
1001
0100
,
0011
0100
1010
0100
1001
0010
1100
0001
,
1010
0010
0101
0010
1100
0001
1010
0100
,
1001
0100
0011
0100
1010
0001
0110
0010
,
1100
0001
1010
0001
1100
0010
0101
0010
,
0110
1000
0011
0100
1010
0100
0011
0100
,
1001
0010
0101
0010
1100
0000
0110
0000
,
0011
0000
1001
0000
0101
0010
1100
0010
,
0101
0010
0101
0010
0001
0010
0100
1000
,
0100
0010
0001
1000
0101
0010
1100
0010
,
0101
0010
1001
0001
0010
0100
1000
0100
,
0010
0001
1000
0001
1100
0010
0101
0010
,
1100
0001
1000
0100
0010
0001
0010
0100
,
1000
0100
1001
0100
1001
0010
0101
0010
,
1100
0010
0001
0010
0100
1000
0100
0010
,
0001
0000
2020
0000
0000
3030
0000
0000
2020
0000
0000
0000
3030
0000
0000
0000
,
0220
0000
0330
0011
1100
1001
0110
0001
,
1010
0100
1010
0100
1010
0001
0101
0220
,
0330
0000
0000
0000
;
