#TITLE:As Long As You Love Me;
#SUBTITLE:Sexuality Violation;
#ARTIST:Justin Bieber feat. Big Sean;
#TITLETRANSLIT:;
#SUBTITLETRANSLIT:;
#ARTISTTRANSLIT:;
#CREDIT:;
#BANNER:As Long As You Love Me-bn.png;
#BACKGROUND:As Long As You Love Me-bg.png;
#LYRICSPATH:;
#CDTITLE:GazeboCD.png;
#MUSIC:As Long As You Love Me.ogg;
#OFFSET:0.074;
#SAMPLESTART:55.393;
#SAMPLELENGTH:14.500;
#SELECTABLE:YES;
#DISPLAYBPM:140.000;
#BPMS:0.000=140.005,100.000=70.003,116.000=140.005,280.000=70.002,296.000=140.005,312.000=70.003,328.000=140.005,344.000=70.002,360.000=140.005;
#STOPS:;
#BGCHANGES:;
// cache tags:
#FIRSTBEAT:1.500;
#LASTBEAT:457.500;
#SONGFILENAME:Songs/Sexuality Violation 2/As Long As You Love Me - [Gazebo]/As Long As You Love Me.sm;
#HASMUSIC:1;
#HASBANNER:1;
#MUSICLENGTH:226.799;
// end cache tags

//---------------dance-single - Gazebo----------------
#NOTES:
     dance-single:
     Gazebo:
     Challenge:
     14:
     0.812,1.000,0.243,0.238,1.000,1180.000,55.000,54.000,25.000,7.000:
0000
0000
0000
M000
00M0
000M
00M0
0M00
,
0000
0000
0000
0M00
0000
0000
0000
0M00
,
0000
0000
0000
0M00
0000
0000
0000
0M00
,
0000
0000
0000
0M00
0000
0000
0000
0M00
,
0000
0000
0000
M000
00M0
000M
00M0
0M00
,
0000
0000
0000
0M00
0000
0000
0000
0M00
,
0000
0000
0000
0M00
0000
0000
0000
0M00
,
0000
0000
0000
0M00
0000
0000
0000
0000
,
1000
0000
1000
0000
0001
1000
0001
1000
0000
0000
0000
0000
0000
0000
0000
0000
,
0001
0001
0001
0000
1010
0000
0000
0000
,
1000
0000
0000
1000
1001
0000
0000
0000
,
0001
0001
0001
0000
0011
0000
0000
0000
,
1000
0000
0000
0000
0000
0000
1000
0000
1001
0000
0000
0000
0000
0000
1000
0010
,
0100
0100
0100
0000
0101
0000
0000
0000
,
0001
0000
0000
0001
1001
0000
0000
0000
,
1000
1000
1000
0000
1100
0000
0000
0000
,
0001
0000
0001
0000
1000
0001
1000
0001
0100
0000
0000
0000
0000
0000
0010
1000
,
0001
0001
0001
0000
1100
0000
0000
0000
,
1000
0000
0000
1000
1001
0000
0000
0000
,
0001
0001
0001
0000
0101
0000
0000
0000
,
1000
0000
0000
0000
0000
0000
1000
0000
1001
0000
0000
0000
1001
0000
1000
0100
,
0010
0010
0010
0000
0011
0000
0000
0000
,
0001
0000
0000
0001
1001
0000
0000
0000
,
1000
1000
1000
0000
1010
0000
0000
0000
,
0001
0000
0001
0001
1001
0000
1001
0000
,
2000
0000
0000
0000
3001
0010
0001
0001
0000
2000
0000
0000
3001
0010
0001
0001
,
0000
0200
0000
0000
0301
1000
0001
0010
0000
0000
0000
0001
1000
0010
1000
1000
,
0000
0002
0000
0000
1003
0010
1000
1000
0000
0002
0000
0000
1003
0010
1000
1000
,
0000
0200
0000
0000
1300
0001
1000
0020
0000
0000
0030
0100
0001
0010
0004
0000
,
1003
0100
1000
0100
0010
0001
1000
0001
1000
0100
1000
0001
0100
0001
1000
0001
0010
0100
1000
0010
1000
0010
0100
0001
,
1000
0001
1000
0010
1000
0001
0100
0001
1000
0001
1000
0100
0010
0001
1000
0010
1000
0001
1000
0100
0010
0001
1000
0001
,
1000
0010
1000
0010
0100
0001
1000
0001
1000
0010
1000
0001
0010
0001
1000
0001
1000
0010
0200
0000
0000
0000
0000
0000
,
0302
0000
0000
0000
0203
0000
0010
0000
1310
0000
0010
0000
1001
0000
0001
1000
,
0001
0010
0001
0010
0100
1000
0001
1000
0001
0010
0001
1000
0010
1000
0001
1000
0100
0010
0001
0100
0001
0100
0010
1000
,
0001
1000
0001
0100
0001
1000
0010
1000
0001
1000
0001
0010
0100
1000
0001
0100
0001
1000
0001
0010
0100
1000
0001
1000
,
0001
0100
0001
0100
0010
1000
0001
1000
0001
0100
0001
1000
0100
1000
0001
1000
0001
0100
0020
0000
0000
0000
0000
0000
,
2030
0000
0000
0000
3020
0000
1000
0000
1031
0000
0000
0000
1001
0000
0001
1000
,
0400
0000
0000
0000
,
1300
1000
1000
0000
0101
0000
0000
0000
,
0001
0000
0000
0001
1001
0000
0000
0000
,
1000
1000
1000
0000
1100
0000
0000
0000
,
0001
0000
0000
0000
0000
0000
0001
0000
1001
0000
0000
0000
1001
0000
0001
0100
,
0010
0010
0010
0000
1010
0000
0000
0000
,
1000
0000
0000
1000
1001
0000
0000
0000
,
0001
0001
0001
0000
0011
0000
0000
0000
,
0000
0000
0000
0000
0000
0000
0000
0000
1001
0000
0000
0000
0000
0000
1000
0001
,
0100
0100
0100
0000
0101
0000
0000
0000
,
0001
0000
0000
0001
1001
0000
0000
0000
,
1000
1000
1000
0000
1100
0000
0000
0000
,
0001
0000
0000
0000
0000
0000
0001
0000
1001
0000
0000
0000
1001
0000
0001
0100
,
0010
0010
0010
0000
1010
0000
0000
0000
,
1000
0000
0000
1000
1001
0000
0000
0000
,
0001
0001
0001
0000
0011
0000
0000
0000
,
1000
1000
1001
1001
,
0001
1000
0010
0100
0010
0100
0001
1000
0100
1000
0010
1000
0100
1000
0001
0010
,
0001
1000
0010
0100
0010
0100
0001
1000
0100
1000
0010
1000
0100
1000
0001
0010
,
0001
1000
0010
1000
0010
1000
0010
0100
0001
1000
0010
1000
0001
1000
0100
0010
,
0001
1000
0100
1000
0001
1000
0010
1000
0001
0100
0001
0010
0001
0100
0001
1000
,
0001
1000
0100
0010
0100
0010
0001
1000
0010
1000
0100
1000
0010
1000
0001
0100
,
0001
1000
0100
0010
0100
0010
0001
1000
0010
1000
0100
1000
0010
1000
0001
0100
,
0001
1000
0100
1000
0100
1000
0100
0010
0001
1000
0100
1000
0001
1000
0010
0100
,
0001
0000
0000
0000
0000
0000
1000
0000
0000
0000
0000
0000
0010
0000
0000
0000
0000
0000
1000
0000
0000
0000
0000
0000
0001
0000
0000
1000
0000
0000
0100
0000
0000
0010
0000
0000
0001
0000
1000
0000
0001
0000
1000
0000
0001
0000
1000
0000
,
0001
0100
0001
0100
0010
1000
0001
1000
0001
0100
0001
1000
0100
1000
0001
1000
0010
0100
0001
0010
0001
0010
0100
1000
,
0001
1000
0001
0010
0001
1000
0100
1000
0001
1000
0001
0100
0010
1000
0001
0010
0001
1000
0001
0100
0010
1000
0001
1000
,
0001
0010
0001
0010
0100
1000
0001
1000
0001
0010
0001
1000
0010
1000
0001
1000
0001
0010
0200
0000
0000
0000
0000
0000
,
2300
0000
0000
0000
3200
0000
0010
0000
0311
0000
0010
0000
1001
0000
1000
0001
,
1000
0010
1000
0010
0100
0001
1000
0001
1000
0010
1000
0001
0010
0001
1000
0001
0100
0010
1000
0100
1000
0100
0010
0001
,
1000
0001
1000
0100
1000
0001
0010
0001
1000
0001
1000
0010
0100
0001
1000
0100
1000
0001
1000
0010
0100
0001
1000
0001
,
1000
0100
1000
0100
0010
0001
1000
0001
1000
0100
1000
0001
0100
0001
1000
0001
1000
0100
0020
0000
0000
0000
0000
0000
,
0032
0000
0000
0000
0003
0000
1000
0000
1001
0000
0000
0000
1001
0000
0001
1000
,
0020
0000
0230
0000
,
0302
0000
0000
0000
,
2003
0000
3200
0000
,
0320
0000
0000
0000
0000
0000
0000
0000
0000
0000
0000
0000
0000
0000
0000
0000
0000
0000
M030
0M00
00M0
000M
0000
0000
0000
0000
0000
0000
0000
0000
0000
0000
,
0001
0010
0001
1000
0100
1000
0010
0100
0001
1000
0100
0010
0001
1000
0100
0010
,
0001
0100
0001
1000
0010
1000
0100
0010
0001
0010
0100
1000
0001
0100
0001
1000
,
0001
0010
0001
1000
0100
1000
0001
1000
0010
0100
0001
0010
0001
1000
0001
0100
,
0001
1000
0010
1000
0001
1000
0100
0010
0001
0100
0001
1000
0001
0010
0100
1000
,
0002
0000
0203
0000
,
0320
0000
0000
0000
,
2030
0000
0000
0000
,
0000
0000
0000
0000
,
3001
0010
0001
1000
0001
0010
0100
1000
0001
0100
0001
1000
0010
1000
0100
1000
,
0001
0010
0100
1000
0001
0100
0010
1000
0001
0010
0100
0010
0001
1000
0010
1000
,
0001
0100
0001
0010
0001
1000
0100
1000
0010
0100
0010
1000
0001
0100
0001
1000
,
0001
0010
0100
0010
0001
0100
0010
0100
0001
1000
0100
0010
0001
1000
0001
1000
,
0002
0000
0000
0000
1003
0010
1000
1000
0000
0002
0000
0000
1003
0010
1000
1000
,
0000
0200
0000
0000
1300
0001
1000
0010
0000
0000
0000
1000
0001
0010
0001
0001
,
0000
2000
0000
0000
3001
0010
0001
0001
0000
2000
0000
0000
3001
0010
0001
0001
,
0000
0200
0000
0000
0301
1000
0001
0020
0000
0000
0030
0100
1000
0010
2000
0000
,
3001
0100
0001
0100
0010
1000
0001
1000
0001
0100
0001
1000
0100
1000
0001
1000
0010
0100
0001
0010
0001
0010
0100
1000
,
0001
1000
0001
0010
0001
1000
0100
1000
0001
1000
0001
0100
0010
1000
0001
0010
0001
1000
0001
0100
0010
1000
0001
1000
,
0001
0010
0001
0010
0100
1000
0001
1000
0001
0010
0001
1000
0010
1000
0001
1000
0001
0010
0200
0000
0000
0000
0000
0000
,
2300
0000
0000
0000
3200
0000
0010
0000
0311
0000
0010
0000
1001
0000
1000
0001
,
1000
0010
1000
0010
0100
0001
1000
0001
1000
0010
1000
0001
0010
0001
1000
0001
0100
0010
1000
0100
1000
0100
0010
0001
,
1000
0001
1000
0100
1000
0001
0010
0001
1000
0001
1000
0010
0100
0001
1000
0100
1000
0001
1000
0010
0100
0001
1000
0001
,
1000
0100
1000
0100
0010
0001
1000
0001
1000
0100
1000
0001
0100
0001
1000
0001
1000
0100
0020
0000
0000
0000
0000
0000
,
0032
0000
0000
0000
0023
0000
0001
0000
1031
0000
0000
0000
1001
0000
1000
0001
,
1000
0100
1000
0100
0010
0001
1000
0001
1000
0100
1000
0001
0100
0001
1000
0001
0010
0100
1000
0010
1000
0010
0100
0001
,
1000
0001
1000
0010
1000
0001
0100
0001
1000
0001
1000
0100
0010
0001
1000
0010
1000
0001
1000
0100
0010
0001
1000
0001
,
1000
0010
1000
0010
0100
0001
1000
0001
1000
0010
1000
0001
0010
0001
1000
0001
1000
0010
0200
0000
0000
0000
0000
0000
,
0302
0000
0000
0000
0203
0000
0010
0000
1310
0000
0010
0000
1001
0000
0001
1000
,
0001
0010
0001
0010
0100
1000
0001
1000
0001
0010
0001
1000
0010
1000
0001
1000
0100
0010
0001
0100
0001
0100
0010
1000
,
0001
1000
0001
0100
0001
1000
0010
1000
0001
1000
0001
0010
0100
1000
0001
0100
0001
1000
0001
0010
0100
1000
0001
1000
,
0001
0100
0001
0100
0010
1000
0001
1000
0001
0100
0001
1000
0100
1000
0001
1000
0001
0100
0020
0000
0000
0000
0000
0000
,
2030
0000
0000
0000
3020
0000
1000
0000
1031
0000
0000
0000
1001
0000
0001
1000
,
0100
0010
0100
1000
0100
0010
0100
1000
0002
0000
0003
0000
1000
0010
0100
0001
,
0100
0010
0100
0001
0100
0010
0100
0001
2000
0000
3000
0000
0001
1000
0100
0010
,
0001
0010
0100
0010
0001
0010
0100
1000
0010
1000
0001
0100
0010
0100
0001
0100
,
0010
1000
0100
1000
0001
0010
0100
0010
0001
0000
0000
0000
1001
0000
1000
0001
,
0100
0010
0100
0001
0100
0010
0100
0001
2000
0000
3000
0000
0001
0010
0100
1000
,
0100
0010
0100
1000
0002
0000
1003
0000
1000
0010
0100
0010
2000
0000
3000
0000
,
0001
0010
0100
0010
0001
0010
0100
1000
0010
1000
0001
0100
0010
0100
0001
0100
,
0010
1000
0001
0010
0100
1000
0001
0000
0100
0000
0010
0000
0100
0000
0100
0000
,
0000
0002
0000
0003
0000
0000
0000
0000
;

//---------------dance-single - Gazebo----------------
#NOTES:
     dance-single:
     Gazebo:
     Hard:
     11:
     0.701,0.832,0.243,0.238,0.910,1004.000,55.000,54.000,25.000,7.000:

0000
0000
0000
M000
00M0
000M
00M0
0M00
,
0000
0000
0000
0M00
0000
0000
0000
0M00
,
0000
0000
0000
0M00
0000
0000
0000
0M00
,
0000
0000
0000
0M00
0000
0000
0000
0M00
,
0000
0000
0000
M000
00M0
000M
00M0
0M00
,
0000
0000
0000
0M00
0000
0000
0000
0M00
,
0000
0000
0000
0M00
0000
0000
0000
0M00
,
0000
0000
0000
0M00
0000
0000
0000
0000
,
1000
0000
1000
0000
0001
1000
0001
1000
0000
0000
0000
0000
0000
0000
0000
0000
,
0001
0001
0001
0000
1010
0000
0000
0000
,
1000
0000
0000
1000
1001
0000
0000
0000
,
0001
0001
0001
0000
0011
0000
0000
0000
,
1000
0000
0000
0000
0000
0000
1000
0000
1001
0000
0000
0000
0000
0000
1000
0010
,
0100
0100
0100
0000
0101
0000
0000
0000
,
0001
0000
0000
0001
1001
0000
0000
0000
,
1000
1000
1000
0000
1100
0000
0000
0000
,
0001
0000
0001
0000
1000
0001
1000
0001
0100
0000
0000
0000
0000
0000
0010
1000
,
0001
0001
0001
0000
1100
0000
0000
0000
,
1000
0000
0000
1000
1001
0000
0000
0000
,
0001
0001
0001
0000
0101
0000
0000
0000
,
1000
0000
0000
0000
0000
0000
1000
0000
1001
0000
0000
0000
1001
0000
1000
0100
,
0010
0010
0010
0000
0011
0000
0000
0000
,
0001
0000
0000
0001
1001
0000
0000
0000
,
1000
1000
1000
0000
1010
0000
0000
0000
,
0001
0000
0001
0001
1001
0000
1001
0000
,
2000
0000
0000
0000
3001
0010
0001
0001
0000
2000
0000
0000
3001
0010
0001
0001
,
0000
0200
0000
0000
0301
1000
0001
0010
0000
0000
0000
0001
1000
0010
1000
1000
,
0000
0002
0000
0000
1003
0010
1000
1000
0000
0002
0000
0000
1003
0010
1000
1000
,
0000
0200
0000
0000
1300
0001
1000
0020
0000
0000
0030
0100
0001
0010
0004
0000
,
1003
0100
1000
0001
1000
0010
0100
0001
0010
0001
1000
0001
0100
0010
0100
0001
,
1000
0100
1000
0001
1000
0010
0100
0001
0010
0001
1000
0001
0100
0010
0100
0001
,
1000
0100
1000
0001
1000
0010
0100
0001
0010
0001
1000
0010
0200
0000
0000
0000
,
0302
0000
0000
0000
0203
0000
0010
0000
1310
0000
0010
0000
1001
0000
0001
1000
,
0001
0010
0001
1000
0001
0100
0010
1000
0100
1000
0001
1000
0010
0100
0010
1000
,
0001
0010
0001
1000
0001
0100
0010
1000
0100
1000
0001
1000
0010
0100
0010
1000
,
0001
0010
0001
1000
0001
0100
0010
1000
0100
1000
0001
0100
0020
0000
0000
0000
,
2030
0000
0000
0000
3020
0000
1000
0000
1031
0000
0000
0000
1001
0000
0001
1000
,
0400
0000
0000
0000
,
1300
1000
1000
0000
0101
0000
0000
0000
,
0001
0000
0000
0001
1001
0000
0000
0000
,
1000
1000
1000
0000
1100
0000
0000
0000
,
0001
0000
0000
0000
0000
0000
0001
0000
1001
0000
0000
0000
1001
0000
0001
0100
,
0010
0010
0010
0000
1010
0000
0000
0000
,
1000
0000
0000
1000
1001
0000
0000
0000
,
0001
0001
0001
0000
0011
0000
0000
0000
,
0000
0000
0000
0000
0000
0000
0000
0000
1001
0000
0000
0000
0000
0000
1000
0001
,
0100
0100
0100
0000
0101
0000
0000
0000
,
0001
0000
0000
0001
1001
0000
0000
0000
,
1000
1000
1000
0000
1100
0000
0000
0000
,
0001
0000
0000
0000
0000
0000
0001
0000
1001
0000
0000
0000
1001
0000
0001
0100
,
0010
0010
0010
0000
1010
0000
0000
0000
,
1000
0000
0000
1000
1001
0000
0000
0000
,
0001
0001
0001
0000
0011
0000
0000
0000
,
1000
1000
1001
1001
,
0001
1000
0010
0100
0010
0100
0001
1000
0100
1000
0010
1000
0100
1000
0001
0010
,
0001
1000
0010
0100
0010
0100
0001
1000
0100
1000
0010
1000
0100
1000
0001
0010
,
0001
1000
0010
1000
0010
1000
0010
0100
0001
1000
0010
1000
0001
1000
0100
0010
,
0001
1000
0100
1000
0001
1000
0010
1000
0001
0100
0001
0010
0001
0100
0001
1000
,
0001
1000
0100
0010
0100
0010
0001
1000
0010
1000
0100
1000
0010
1000
0001
0100
,
0001
1000
0100
0010
0100
0010
0001
1000
0010
1000
0100
1000
0010
1000
0001
0100
,
0001
1000
0100
1000
0100
1000
0100
0010
0001
1000
0100
1000
0001
1000
0010
0100
,
0001
0000
0000
0000
0000
0000
1000
0000
0000
0000
0000
0000
0010
0000
0000
0000
0000
0000
1000
0000
0000
0000
0000
0000
0001
0000
0000
1000
0000
0000
0100
0000
0000
0010
0000
0000
0001
0000
1000
0000
0001
0000
1000
0000
0001
0000
1000
0000
,
0001
0100
0001
1000
0001
0010
0100
1000
0010
1000
0001
1000
0100
0010
0100
1000
,
0001
0100
0001
1000
0001
0010
0100
1000
0010
1000
0001
1000
0100
0010
0100
1000
,
0001
0100
0001
1000
0001
0010
0100
1000
0010
1000
0001
0010
0200
0000
0000
0000
,
2300
0000
0000
0000
3200
0000
0010
0000
0311
0000
0010
0000
1001
0000
1000
0001
,
1000
0010
1000
0001
1000
0100
0010
0001
0100
0001
1000
0001
0010
0100
0010
0001
,
1000
0010
1000
0001
1000
0100
0010
0001
0100
0001
1000
0001
0010
0100
0010
0001
,
1000
0010
1000
0001
1000
0100
0010
0001
0100
0001
1000
0100
0020
0000
0000
0000
,
0032
0000
0000
0000
0003
0000
1000
0000
1001
0000
0000
0000
1001
0000
0001
1000
,
0020
0000
0230
0000
,
0302
0000
0000
0000
,
2003
0000
3200
0000
,
0320
0000
0000
0000
0000
0000
0000
0000
0000
0000
0000
0000
0000
0000
0000
0000
0000
0000
M030
0M00
00M0
000M
0000
0000
0000
0000
0000
0000
0000
0000
0000
0000
,
0001
0010
0001
1000
0100
1000
0010
0100
0001
1000
0100
0010
0001
1000
0100
0010
,
0001
0100
0001
1000
0010
1000
0100
0010
0001
0010
0100
1000
0001
0100
0001
1000
,
0001
0010
0001
1000
0100
1000
0001
1000
0010
0100
0001
0010
0001
1000
0001
0100
,
0001
1000
0010
1000
0001
1000
0100
0010
0001
0100
0001
1000
0001
0010
0100
1000
,
0002
0000
0203
0000
,
0320
0000
0000
0000
,
2030
0000
0000
0000
,
0000
0000
0000
0000
,
3001
0010
0001
1000
0001
0010
0100
1000
0001
0100
0001
1000
0010
1000
0100
1000
,
0001
0010
0100
1000
0001
0100
0010
1000
0001
0010
0100
0010
0001
1000
0010
1000
,
0001
0100
0001
0010
0001
1000
0100
1000
0010
0100
0010
1000
0001
0100
0001
1000
,
0001
0010
0100
0010
0001
0100
0010
0100
0001
1000
0100
0010
0001
1000
0001
1000
,
0002
0000
0000
0000
1003
0010
1000
1000
0000
0002
0000
0000
1003
0010
1000
1000
,
0000
0200
0000
0000
1300
0001
1000
0010
0000
0000
0000
1000
0001
0010
0001
0001
,
0000
2000
0000
0000
3001
0010
0001
0001
0000
2000
0000
0000
3001
0010
0001
0001
,
0000
0200
0000
0000
0301
1000
0001
0020
0000
0000
0030
0100
1000
0010
2000
0000
,
3001
0100
0001
1000
0001
0010
0100
1000
0010
1000
0001
1000
0100
0010
0100
1000
,
0001
0100
0001
1000
0001
0010
0100
1000
0010
1000
0001
1000
0100
0010
0100
1000
,
0001
0100
0001
1000
0001
0010
0100
1000
0010
1000
0001
0010
0200
0000
0000
0000
,
2300
0000
0000
0000
3200
0000
0010
0000
0311
0000
0010
0000
1001
0000
1000
0001
,
1000
0010
1000
0001
1000
0100
0010
0001
0100
0001
1000
0001
0010
0100
0010
0001
,
1000
0010
1000
0001
1000
0100
0010
0001
0100
0001
1000
0001
0010
0100
0010
0001
,
1000
0010
1000
0001
1000
0100
0010
0001
0100
0001
1000
0100
0020
0000
0000
0000
,
0032
0000
0000
0000
0023
0000
0001
0000
1031
0000
0000
0000
1001
0000
1000
0001
,
1000
0100
1000
0001
1000
0010
0100
0001
0010
0001
1000
0001
0100
0010
0100
0001
,
1000
0100
1000
0001
1000
0010
0100
0001
0010
0001
1000
0001
0100
0010
0100
0001
,
1000
0100
1000
0001
1000
0010
0100
0001
0010
0001
1000
0010
0200
0000
0000
0000
,
0302
0000
0000
0000
0203
0000
0010
0000
1310
0000
0010
0000
1001
0000
0001
1000
,
0001
0010
0001
1000
0001
0100
0010
1000
0100
1000
0001
1000
0010
0100
0010
1000
,
0001
0010
0001
1000
0001
0100
0010
1000
0100
1000
0001
1000
0010
0100
0010
1000
,
0001
0010
0001
1000
0001
0100
0010
1000
0100
1000
0001
0100
0020
0000
0000
0000
,
2030
0000
0000
0000
3020
0000
1000
0000
1031
0000
0000
0000
1001
0000
0001
1000
,
0100
0010
0100
1000
0100
0010
0100
1000
0002
0000
0003
0000
1000
0010
0100
0001
,
0100
0010
0100
0001
0100
0010
0100
0001
2000
0000
3000
0000
0001
1000
0100
0010
,
0001
0010
0100
0010
0001
0010
0100
1000
0010
1000
0001
0100
0010
0100
0001
0100
,
0010
1000
0100
1000
0001
0010
0100
0010
0001
0000
0000
0000
1001
0000
1000
0001
,
0100
0010
0100
0001
0100
0010
0100
0001
2000
0000
3000
0000
0001
0010
0100
1000
,
0100
0010
0100
1000
0002
0000
1003
0000
1000
0010
0100
0010
2000
0000
3000
0000
,
0001
0010
0100
0010
0001
0010
0100
1000
0010
1000
0001
0100
0010
0100
0001
0100
,
0010
1000
0001
0010
0100
1000
0001
0000
0100
0000
0010
0000
0100
0000
0100
0000
,
0000
0002
0000
0003
0000
0000
0000
0000
;

//---------------dance-single - Gazebo----------------
#NOTES:
     dance-single:
     Gazebo:
     Medium:
     10:
     0.576,0.857,0.278,0.243,0.558,791.000,63.000,55.000,25.000,7.000:
0000
0000
0000
M000
00M0
000M
00M0
0M00
,
0000
0000
0000
0M00
0000
0000
0000
0M00
,
0000
0000
0000
0M00
0000
0000
0000
0M00
,
0000
0000
0000
0M00
0000
0000
0000
0M00
,
0000
0000
0000
M000
00M0
000M
00M0
0M00
,
0000
0000
0000
0M00
0000
0000
0000
0M00
,
0000
0000
0000
0M00
0000
0000
0000
0M00
,
0000
0000
0000
0M00
0000
0000
0000
0000
,
1000
0000
1000
0000
0001
1000
0001
1000
0000
0000
0000
0000
0000
0000
0000
0000
,
0001
0001
0001
0000
1010
0000
0000
0000
,
1000
0000
0000
1000
1001
0000
0000
0000
,
0001
0001
0001
0000
0011
0000
0000
0000
,
1000
0000
0000
0000
0000
0000
1000
0000
1001
0000
0000
0000
0000
0000
1000
0010
,
0100
0100
0100
0000
0101
0000
0000
0000
,
0001
0000
0000
0001
1001
0000
0000
0000
,
1000
1000
1000
0000
1100
0000
0000
0000
,
0001
0000
0001
0000
1000
0001
1000
0001
0100
0000
0000
0000
0000
0000
0010
1000
,
0001
0001
0001
0000
1100
0000
0000
0000
,
1000
0000
0000
1000
1001
0000
0000
0000
,
0001
0001
0001
0000
0101
0000
0000
0000
,
1000
0000
0000
0000
0000
0000
1000
0000
1001
0000
0000
0000
1001
0000
1000
0100
,
0010
0010
0010
0000
0011
0000
0000
0000
,
0001
0000
0000
0001
1001
0000
0000
0000
,
1000
1000
1000
0000
1010
0000
0000
0000
,
0001
0000
0001
0001
1001
0000
1001
0000
,
2000
0000
0000
0000
3001
0010
0001
0001
0000
2000
0000
0000
3001
0010
0001
0001
,
0000
0200
0000
0000
0301
1000
0001
0010
0000
0000
0000
0001
1000
0010
1000
1000
,
0000
0002
0000
0000
1003
0010
1000
1000
0000
0002
0000
0000
1003
0010
1000
1000
,
0000
0200
0000
0000
1300
0001
1000
0020
0000
0000
0030
0100
0001
0010
0004
0000
,
1003
0100
1000
0001
1000
0010
0100
0001
0010
0001
1000
0001
0100
0010
0100
0001
,
1000
0100
1000
0001
1000
0010
0100
0001
0010
0001
1000
0001
0100
0010
0100
0001
,
1000
0100
1000
0001
1000
0010
0100
0001
0010
0001
1000
0010
0200
0000
0000
0000
,
0302
0000
0000
0000
0203
0000
0010
0000
1310
0000
0010
0000
1001
0000
0001
1000
,
0001
0010
0001
1000
0001
0100
0010
1000
0100
1000
0001
1000
0010
0100
0010
1000
,
0001
0010
0001
1000
0001
0100
0010
1000
0100
1000
0001
1000
0010
0100
0010
1000
,
0001
0010
0001
1000
0001
0100
0010
1000
0100
1000
0001
0100
0020
0000
0000
0000
,
2030
0000
0000
0000
3020
0000
1000
0000
1031
0000
0000
0000
1001
0000
0001
1000
,
0400
0000
0000
0000
,
1300
1000
1000
0000
0101
0000
0000
0000
,
0001
0000
0000
0001
1001
0000
0000
0000
,
1000
1000
1000
0000
1100
0000
0000
0000
,
0001
0000
0000
0000
0000
0000
0001
0000
1001
0000
0000
0000
1001
0000
0001
0100
,
0010
0010
0010
0000
1010
0000
0000
0000
,
1000
0000
0000
1000
1001
0000
0000
0000
,
0001
0001
0001
0000
0011
0000
0000
0000
,
0000
0000
0000
0000
0000
0000
0000
0000
1001
0000
0000
0000
0000
0000
1000
0001
,
0100
0100
0100
0000
0101
0000
0000
0000
,
0001
0000
0000
0001
1001
0000
0000
0000
,
1000
1000
1000
0000
1100
0000
0000
0000
,
0001
0000
0000
0000
0000
0000
0001
0000
1001
0000
0000
0000
1001
0000
0001
0100
,
0010
0010
0010
0000
1010
0000
0000
0000
,
1000
0000
0000
1000
1001
0000
0000
0000
,
0001
0001
0001
0000
0011
0000
0000
0000
,
1000
1000
1001
1001
,
1000
0100
0010
0100
1000
0010
1000
0001
,
1000
0100
0010
0100
1000
0010
1000
0001
,
1000
0100
0010
0001
1000
0100
1000
0001
,
0100
0001
1000
0001
0010
0100
0010
0001
,
1000
0100
0010
0100
1000
0010
1000
0001
,
1000
0100
0010
0100
1000
0010
1000
0001
,
1000
0100
0010
0001
1000
0100
1000
0001
,
0100
0000
0001
0000
1000
0000
0001
0000
1000
0100
1000
0100
4000
0000
0000
0000
,
3001
0100
0001
1000
0001
0010
0100
1000
0010
1000
0001
1000
0100
0010
0100
1000
,
0001
0100
0001
1000
0001
0010
0100
1000
0010
1000
0001
1000
0100
0010
0100
1000
,
0001
0100
0001
1000
0001
0010
0100
1000
0010
1000
0001
0010
0200
0000
0000
0000
,
2300
0000
0000
0000
3200
0000
0010
0000
0311
0000
0010
0000
1001
0000
1000
0001
,
1000
0010
1000
0001
1000
0100
0010
0001
0100
0001
1000
0001
0010
0100
0010
0001
,
1000
0010
1000
0001
1000
0100
0010
0001
0100
0001
1000
0001
0010
0100
0010
0001
,
1000
0010
1000
0001
1000
0100
0010
0001
0100
0001
1000
0100
0020
0000
0000
0000
,
0032
0000
0000
0000
0003
0000
1000
0000
1001
0000
0000
0000
1001
0000
0001
1000
,
0020
0000
0230
0000
,
0302
0000
0000
0000
,
2003
0000
3200
0000
,
0320
0000
0000
0000
0000
0000
0000
0000
0000
0000
0000
0000
0000
0000
0000
0000
0000
0000
M030
0M00
00M0
000M
0000
0000
0000
0000
0000
0000
0000
0000
0000
0000
,
0001
0000
0000
0001
0000
1000
0001
0000
0200
0000
0000
0000
0000
0000
0000
0310
,
1000
0000
0000
1000
0000
0001
1000
0000
0100
0000
0000
0000
0010
0000
0001
0000
,
1000
0001
1000
0010
0100
0010
1000
0010
,
0100
0001
1000
0100
0010
0000
0100
1000
,
0002
0000
0203
0000
,
0320
0000
0000
0000
,
2030
0000
0000
0000
,
0000
0000
0000
0000
,
3001
0010
0001
1000
0010
0100
0010
0100
,
0001
1000
0100
1000
0001
1000
0010
0100
,
0001
0100
0001
1000
0100
1000
0001
1000
,
0001
0000
0100
0000
0010
0000
1000
0000
0001
0010
0001
1000
0100
0010
0001
1000
,
0002
0000
0000
0000
1003
0010
1000
1000
0000
0002
0000
0000
1003
0010
1000
1000
,
0000
0200
0000
0000
1300
0001
1000
0010
0000
0000
0000
1000
0001
0010
0001
0001
,
0000
2000
0000
0000
3001
0010
0001
0001
0000
2000
0000
0000
3001
0010
0001
0001
,
0000
0200
0000
0000
0301
1000
0001
0020
0000
0000
0030
0100
1000
0010
2000
0000
,
3001
0100
0001
1000
0001
0010
0100
1000
0010
1000
0001
1000
0100
0010
0100
1000
,
0001
0100
0001
1000
0001
0010
0100
1000
0010
1000
0001
1000
0100
0010
0100
1000
,
0001
0100
0001
1000
0001
0010
0100
1000
0010
1000
0001
0010
0200
0000
0000
0000
,
2300
0000
0000
0000
3200
0000
0010
0000
0311
0000
0010
0000
1001
0000
1000
0001
,
1000
0010
1000
0001
1000
0100
0010
0001
0100
0001
1000
0001
0010
0100
0010
0001
,
1000
0010
1000
0001
1000
0100
0010
0001
0100
0001
1000
0001
0010
0100
0010
0001
,
1000
0010
1000
0001
1000
0100
0010
0001
0100
0001
1000
0100
0020
0000
0000
0000
,
0032
0000
0000
0000
0023
0000
0001
0000
1031
0000
0000
0000
1001
0000
1000
0001
,
1000
0100
1000
0001
1000
0010
0100
0001
0010
0001
1000
0001
0100
0010
0100
0001
,
1000
0100
1000
0001
1000
0010
0100
0001
0010
0001
1000
0001
0100
0010
0100
0001
,
1000
0100
1000
0001
1000
0010
0100
0001
0010
0001
1000
0010
0200
0000
0000
0000
,
0302
0000
0000
0000
0203
0000
0010
0000
1310
0000
0010
0000
1001
0000
0001
1000
,
0001
0010
0001
1000
0001
0100
0010
1000
0100
1000
0001
1000
0010
0100
0010
1000
,
0001
0010
0001
1000
0001
0100
0010
1000
0100
1000
0001
1000
0010
0100
0010
1000
,
0001
0010
0001
1000
0001
0100
0010
1000
0100
1000
0001
0100
0020
0000
0000
0000
,
2030
0000
0000
0000
3020
0000
1000
0000
1031
0000
0000
0000
1001
0000
0001
1000
,
0400
0000
0000
1300
0002
0003
4000
0000
,
3040
0000
0000
0000
2030
3000
0004
0000
,
0043
0000
0034
0000
,
4003
0000
0000
0000
0000
0000
0000
0000
3010
0000
0000
0000
1001
0000
1000
0001
,
0400
0000
0000
0301
2000
3000
0004
0000
,
0000
0013
0002
1003
0040
0000
2030
3000
,
0004
0000
0043
0000
,
0034
0000
0000
1003
0010
0100
0010
0010
,
0000
2000
0000
3000
0000
0000
0000
0000
;
