#TITLE:Distorted Media;
#SUBTITLE:;
#ARTIST:RoughSketch;
#TITLETRANSLIT:;
#SUBTITLETRANSLIT:;
#ARTISTTRANSLIT:;
#CREDIT:Rynker;
#BANNER:distorted media bn.png;
#BACKGROUND:distorted media bg.png;
#LYRICSPATH:;
#CDTITLE:;
#MUSIC:RoughSketch - Distorted Media (vs Noizenecio).ogg;
#OFFSET:-0.248;
#SAMPLESTART:75.134;
#SAMPLELENGTH:12.000;
#SELECTABLE:YES;
#BPMS:0.000=172.000;
#STOPS:;
#BGCHANGES:;
// cache tags:
#FIRSTBEAT:3.000;
#LASTBEAT:426.000;
#SONGFILENAME:Songs/SPEEEDCOOOORE 2/Distorted Media - [Rynker]/Distorted Media.sm;
#HASMUSIC:1;
#HASBANNER:1;
#MUSICLENGTH:150.141;
// end cache tags

//---------------dance-single - Rynker----------------
#NOTES:
     dance-single:
     Rynker:
     Challenge:
     12:
     0.998,1.000,0.240,0.360,0.843,959.000,36.000,54.000,1.000,0.000:

0000
0000
0000
0001
,
1002
0000
0103
0010
0100
0001
0010
0100
,
1000
0001
0100
0010
0100
0001
1000
0100
,
0200
0000
0310
0001
0100
0010
1000
0001
,
1001
1100
0100
0010
,
0002
0103
0010
0100
0001
1000
0100
0010
,
0001
0100
0010
1000
0001
0010
0100
1000
,
0002
0000
0103
0010
0100
0001
1000
0100
,
0010
0100
1000
0001
0100
0010
0100
0001
,
1000
0001
0001
0001
,
0001
1000
0000
1000
0000
1000
0000
1000
,
0001
0000
0001
1000
0000
1000
0001
1000
,
0001
1001
1000
0100
,
0010
0000
0000
0000
1001
0000
0000
0000
0001
0100
0001
0000
2000
0000
3000
0000
,
0100
0000
0020
0000
0030
0000
0001
1000
0001
0000
1000
0000
0200
0000
0000
0000
,
2300
0000
0000
3000
0101
0000
0001
0000
1000
0000
0010
0000
0200
0000
0000
0000
,
0301
0020
0030
0001
0001
1000
0020
0000
,
0130
0100
0001
0000
0001
0000
0001
0000
,
0001
1000
0000
1000
0000
1000
0000
1000
,
0001
0000
0001
1000
0000
1000
0001
1000
,
0001
0000
0100
0000
0020
0000
0030
0000
1000
0000
0200
0300
0200
0000
0300
0000
,
1000
0000
0000
0000
1001
0000
1000
0100
1000
0000
0001
0000
0100
0001
0100
0000
,
0001
1000
0000
0001
0100
0000
0001
0100
0001
0000
1000
0000
0100
1000
0100
0000
,
0010
0001
0010
0001
1000
0000
0001
0100
0001
0000
0100
0000
0010
1000
0010
0000
,
1000
0001
0000
0010
0001
0000
0010
0001
0010
0000
0001
1000
0001
0000
1000
0000
,
1000
0000
0001
0000
0001
0000
0100
0010
0100
0000
0001
0000
1000
0001
1000
0000
,
0100
0010
0000
0001
1000
0000
0001
0010
0001
0000
1000
0000
0010
1000
0010
0000
,
0100
0001
0100
0001
1000
0000
0001
0100
0001
0000
1000
0000
0010
1000
0010
0000
,
0100
0000
0001
1000
0100
0000
0010
0001
1000
0000
0001
0100
0010
0000
0100
0000
,
0100
0000
0001
0000
0001
0000
1000
0100
1000
0000
0001
0000
0010
0001
0010
0000
,
0001
1000
0001
0000
1000
0000
0010
1000
0010
0000
0100
0000
0001
0100
0001
0000
,
1000
0100
1000
0000
0001
0000
0010
0001
0010
0000
0100
0000
1000
0100
1000
0000
,
0100
0010
0100
0000
0010
0000
0001
1000
0001
0000
0100
0000
0010
0100
0010
0000
,
1000
0001
1000
0000
1000
0000
1000
0000
,
1000
0000
0001
0000
0000
0000
0001
0000
0000
0000
0001
0000
1001
0000
1000
0100
,
0010
0100
1000
0001
0020
0000
0030
0000
0000
0000
0000
0000
0000
0000
0000
0000
,
0000
1001
0101
0000
1000
0000
0001
1000
,
0001
0000
0000
0000
1100
0000
0100
0010
0001
0000
0010
0100
1000
0000
0100
0010
,
0001
0000
0010
0100
1000
0000
0100
0010
0001
0000
1000
0001
0100
0001
0100
0001
,
0000
0020
0030
0200
1300
0000
0001
1000
0010
0000
0100
0010
1000
0000
0010
0100
,
0001
0000
0100
0010
1000
0000
0010
0100
0001
0100
0001
0100
0010
0000
2000
0000
,
3001
0000
2000
0000
3001
0000
1000
0100
0010
0000
0001
0010
0100
0000
1000
0100
,
0010
0000
0001
0010
0100
0000
1000
0100
0010
0000
0001
0010
0100
0010
0001
1000
,
0000
0020
0030
0200
0301
0000
1000
0010
0100
0000
0001
0100
0010
0000
1000
0010
,
0100
0001
0100
0001
0000
1000
0200
0000
0310
0000
0002
0000
0203
0000
0320
0000
,
2030
0000
3002
0003
1001
0000
1000
0100
0010
0000
0001
0100
0010
0000
1000
0100
,
0010
0000
0001
0100
0010
0000
1000
0100
0010
0000
0001
0100
0010
1000
0001
1000
,
0000
0020
0030
0200
0301
0000
1000
0010
0100
0000
0001
0010
0100
0000
1000
0010
,
0100
0000
0001
0010
0100
0000
1000
0010
0100
0001
0100
0001
1000
0000
0002
0000
,
0013
0000
0002
0000
1003
0000
0001
0100
0010
0000
1000
0100
0010
0000
0001
0100
,
0010
0000
1000
0100
0010
0000
0001
0100
0010
0000
1000
0100
0010
0001
1000
0001
,
0000
0020
0030
0200
1300
0000
0001
0100
0010
0000
1000
0001
0010
0000
0000
0000
,
0001
0000
0000
0000
1000
0000
0100
1000
0010
0000
0100
0001
0010
0000
0100
0000
,
1100
0000
1000
0000
1001
0000
0001
0100
0010
0000
1000
0000
0100
0010
0001
0000
,
1000
0100
0000
0010
0001
0000
1000
0010
0100
0000
0001
0000
0100
0010
1000
0000
,
0100
1000
0010
0100
0001
0000
1000
0100
0010
0000
0001
0000
1000
0010
0100
0000
,
0001
0100
0000
0001
0010
0000
0100
1000
0100
0000
0010
0001
0010
0000
0001
0000
,
1001
0000
1000
0000
1010
0000
0010
0100
0001
0000
0010
0000
0100
1000
0001
0000
,
1000
0010
0000
0100
0001
0000
0010
0100
1000
0000
0001
0000
0010
0100
1000
0000
,
0001
1000
0010
1000
0100
0000
1000
0001
0100
0000
0010
0000
1000
0001
0100
0000
,
0010
1000
0010
1000
0001
0000
0010
0001
0010
0000
0100
1000
0100
1000
0001
0100
,
0001
1000
1100
0001
,
0101
0100
1010
0001
,
1001
1000
1000
1000
,
1000
0001
0000
0001
0000
0001
0000
0001
,
1000
1001
0001
0011
,
0010
0110
0100
1100
,
1000
0002
0000
0000
,
0003
1000
0010
0000
0100
0000
0010
0100
,
0010
0000
0000
0000
1010
0000
0010
1000
0001
0000
0010
0001
1000
0000
0100
1000
,
0001
0000
0010
0001
0100
0000
0010
1000
0100
0000
1000
0001
0100
0001
0100
0001
,
0000
0020
0030
0200
1300
0000
0010
0100
0001
0000
0010
0100
1000
0000
0100
0010
,
0001
0000
0010
0001
0100
0000
0010
0100
0001
0100
0001
0100
0010
1000
0002
0010
,
0103
1000
0002
1000
0013
0000
1000
0100
0010
0000
0001
0010
0100
0000
1000
0100
,
0010
0000
0100
1000
0010
0000
0100
0001
0010
0000
0001
0010
0100
1000
0001
1000
,
0000
0020
0030
0200
0301
0000
1000
0010
0100
0000
0001
0100
0010
0000
1000
0010
,
0100
0001
0100
0001
1000
0000
0200
0000
0310
0000
0002
0000
0203
0000
0320
0000
,
2030
0000
3002
0003
1001
0000
1000
0100
0010
0000
0001
0100
0010
0000
0100
0010
,
1000
0000
0100
1000
0010
0000
0100
0001
0010
0000
0001
0100
0010
1000
0001
1000
,
0000
0200
0300
0020
0031
0000
1000
0010
0100
0000
0001
0010
0100
0000
1000
0010
,
0100
0000
0001
0010
0100
0000
1000
0010
0100
0001
0100
0001
1000
0000
0002
0000
,
0013
0000
0002
0000
1003
0000
0001
0100
0010
0000
1000
0100
0010
0000
0001
1000
,
0100
0000
0010
0001
0100
0000
0010
1000
0100
0000
1000
0100
0010
0001
1000
0001
,
0000
0200
0300
0020
1030
0000
0001
1000
0010
0000
1000
0001
0010
0000
0100
1000
,
0010
0100
0001
0010
0100
0000
1000
0010
1000
0000
0001
0010
0001
0000
1000
0000
,
1001
0000
0001
0000
1000
0000
0001
0100
0010
0000
1010
0000
1000
0001
0010
0000
,
0100
1000
0000
0001
1000
0000
0100
0010
0001
0000
0011
0000
0010
0100
1000
0000
,
0010
0100
0010
1000
0001
0000
0010
0100
1000
0000
1100
0000
0100
1000
0010
0000
,
0100
0010
0000
1000
0001
0000
0010
0100
1000
0000
0001
1000
0010
0000
0100
0000
,
0110
0000
0010
0000
1010
0000
1000
0100
0010
0000
0011
0000
0001
1000
0010
0000
,
0100
0001
0000
0010
0100
0000
1000
0001
0010
0000
0110
0000
0100
1000
0001
0000
,
0100
0001
0100
0010
1000
0000
0010
1000
0100
0000
0110
0000
0010
0001
1000
0000
,
0001
0100
0001
0010
0100
0000
1000
0001
0010
0000
0001
0100
0010
0000
1000
0000
,
0100
0000
0010
0000
0001
0000
1000
0010
1000
0000
0001
0000
0010
0001
0010
0000
,
0100
1000
0000
0001
1000
0000
0001
0100
0001
0000
0100
0000
0010
0100
0010
0000
,
1000
0001
1000
0001
1000
0000
0001
0010
0001
0000
0010
0000
0100
1000
0100
0000
,
1000
0001
0000
0100
0001
0000
0100
0001
0100
0000
0010
1000
0010
0000
1000
0000
,
0001
1000
1000
0000
1000
0000
1000
0000
,
1000
0001
0000
0001
0000
0001
0000
0001
,
1000
0000
0100
0000
0010
0000
0001
0000
0100
0000
0010
1000
0010
0100
0001
1000
,
0100
0010
0100
0000
0010
0000
0000
0000
0001
0000
0000
0000
1000
0000
0010
0000
,
1000
0000
1001
0000
0001
0010
0100
1000
,
0100
0010
0001
1000
0010
0100
0001
0100
,
0010
2000
0000
3000
1000
0100
0010
0001
,
0010
0100
1000
0001
0100
0010
1000
0010
,
0100
0002
0000
0003
0000
0000
0000
0000
,
0000
0000
000M
0000
;
