#TITLE:MAX -full circle-;
#SUBTITLE:;
#ARTIST:Kita Keru;
#TITLETRANSLIT:;
#SUBTITLETRANSLIT:;
#ARTISTTRANSLIT:;
#CREDIT:;
#BANNER:Max -full circle- bn.png;
#BACKGROUND:Max -full circle- bg.png;
#LYRICSPATH:;
#CDTITLE:;
#MUSIC:Max -full circle-.mp3;
#OFFSET:0.000;
#SAMPLESTART:56.000;
#SAMPLELENGTH:12.000;
#SELECTABLE:YES;
#BPMS:0.000=90.000,32.000=135.000,56.000=180.000,89.000=153.180,90.000=91.160,91.000=65.940,91.500=36.000,92.000=359.999,477.000=313.180,478.000=229.180,479.000=153.180,480.000=75.960,480.500=36.000,480.938=359.999;
#STOPS:480.938=0.360
;
#BGCHANGES:;
// cache tags:
#FIRSTBEAT:16.000;
#LASTBEAT:626.000;
#SONGFILENAME:Songs/toune/Max -full circle-/Max -full circle-.sm;
#HASMUSIC:1;
#HASBANNER:1;
#MUSICLENGTH:138.840;
// end cache tags

//---------------dance-single - ----------------
#NOTES:
     dance-single:
     :
     Hard:
     11:
     0.853,1.000,0.324,0.908,0.054,658.000,45.000,126.000,0.000,4.000:
0000
0000
0000
0000
,
0000
0000
0000
0000
,
0000
0000
0000
0000
,
0000
0000
0000
0000
,
0002
0000
0203
0320
2030
0000
3002
0023
,
0032
0000
0000
0000
0203
0000
0320
0000
0032
0000
1003
0100
0010
0100
2000
0000
,
3200
0000
0302
0203
0302
0000
2003
3200
,
2300
0000
3200
0320
0032
0203
0320
0230
,
2300
0000
0000
0000
0000
0000
3020
0000
0000
0230
0000
0000
0302
0000
0000
0000
,
0000
0000
2003
0000
0000
3200
0000
0000
2300
0000
0000
0000
0000
0000
3020
0000
,
0000
0000
0230
0000
0000
0000
0000
0000
2300
0000
0000
0000
0000
0000
3001
0000
0000
0010
0000
0000
0100
0000
0000
0010
0000
0000
0002
0000
0000
0000
0000
0000
,
0023
0000
0000
0000
0000
0000
2030
0000
0000
3020
0000
0000
2030
0000
0000
0000
,
0000
0000
3002
0000
0000
0023
0000
0000
0032
0000
0000
0000
0000
0000
0023
0000
,
0000
0230
0000
0000
2300
0000
0000
3020
0000
0000
0230
0000
0000
0320
0000
0000
,
2030
0000
3002
2003
,
3200
0000
0320
2030
,
3020
0000
0032
2003
,
3020
0000
0130
0001
1000
0001
0200
0000
,
0302
0000
0023
0032
,
0023
0000
0230
0302
,
0203
0000
0302
2003
,
3020
0032
2003
3002
,
0223
0000
0000
0000
0000
0000
0000
0330
,
1001
0010
0001
0010
,
1000
0010
0001
0010
,
0001
0010
0100
1000
,
0001
0010
0100
1000
,
0100
0010
0100
0010
,
1000
0001
0010
0001
,
1000
0001
0010
0001
,
0010
0000
0100
0000
0001
0010
0001
0000
,
1001
0100
1000
0100
,
0001
0100
1000
0100
,
1000
0100
0010
0001
,
1000
0100
0010
0001
,
0010
0100
0010
0100
,
0001
1000
0100
1000
,
0001
1000
0100
1000
,
0100
0000
0010
0000
1000
0100
1000
0000
,
0110
0010
1000
0010
,
0001
0000
1000
0100
1000
0100
1000
0100
,
1000
0100
0010
1000
,
0010
0000
0001
0010
0001
0010
0001
0010
,
0001
0010
0100
1000
,
0010
0000
0001
0010
0100
1000
0100
0010
,
0001
0100
0010
0001
,
1001
0000
0110
0000
,
1001
0100
0010
1000
,
0001
0000
1000
0010
0001
0010
1000
0010
,
0001
0100
0001
1000
,
0100
0000
0001
0100
1000
0100
0001
0100
,
1000
0100
0001
0010
,
1000
0000
1000
0100
1000
0100
0010
0001
,
0010
0001
0010
0000
0010
0001
0010
0000
,
1000
0100
0010
0001
0010
0001
0010
0000
,
0100
0000
0010
0000
0100
0010
0000
0100
,
0010
0000
1000
0000
0100
0001
0000
0100
,
0001
0000
1000
0000
0001
0010
0000
0001
,
0010
0100
1001
0000
,
0001
0000
1000
0100
1000
0100
0000
1000
,
0100
0000
0010
0001
0010
0100
0000
0010
,
0100
0000
0001
0010
0100
0010
0000
0100
,
0010
1000
0101
0000
,
0001
0000
0100
0000
0010
1000
0000
0001
,
0010
0000
0001
0000
0100
0010
0000
1000
,
0001
0000
0100
0000
0010
0100
0000
0001
,
0010
1000
1010
0000
,
0001
0000
0100
0010
0001
0100
0000
1000
,
0100
0000
0001
0010
0001
1000
0000
0100
,
0010
1000
0001
0000
0100
0010
0000
1000
,
0001
0010
1001
0000
,
0002
1000
0000
1000
,
2003
0000
3200
0000
,
0320
1000
0000
0001
,
0230
0000
0302
0000
,
0023
0100
0000
1000
,
0230
0000
2300
0000
,
3001
0010
0001
1000
,
0001
0010
0001
0010
0100
1000
0100
1000
,
0020
0001
0000
1000
,
2030
0000
3002
0000
,
0023
0001
0000
0100
,
2030
0000
3002
0000
,
0023
1000
0000
0100
,
0230
0000
0302
0000
,
1103
0000
0011
0000
,
0110
0000
1001
0000
,
2000
0001
0000
0001
,
3002
0000
0023
0000
,
0230
0001
0000
1000
,
0320
0000
2030
0000
,
3200
0010
0000
0001
,
0320
0000
0032
0000
,
1003
0100
1000
0001
,
1000
0100
1000
0100
0010
0001
0010
0001
,
0200
1000
0000
0001
,
0302
0000
2003
0000
,
3200
1000
0000
0010
,
0302
0000
2003
0000
,
3200
0001
0000
0010
,
0320
0000
2030
0000
,
3011
0000
1100
0000
,
0110
0000
1001
0000
,
0001
0010
0001
0000
0001
0010
0001
0000
,
0010
0100
0010
0100
1000
0100
1000
0000
,
0010
1000
0010
0000
0010
1000
0010
0000
,
1000
0001
1000
0001
0100
0001
0100
0000
,
1000
0100
1000
0000
1000
0100
1000
0000
,
0100
0010
0100
0010
0001
0010
0001
0000
,
0100
0001
0100
0000
0100
0001
0100
0000
,
0001
1000
0001
1000
0010
1000
0010
0000
,
1000
0100
1000
0000
1000
0100
1000
0000
,
0100
0010
0100
0010
0001
0010
0001
0000
,
0100
0001
0100
0000
0100
0001
0100
0000
,
0001
1000
0001
1000
0010
1000
0010
0000
,
0001
0010
0001
0000
0001
0010
0001
0000
,
0010
0100
0010
0100
1000
0100
1000
0000
,
0010
1000
0010
0000
0010
1000
0010
0000
,
1000
0001
1000
0001
0100
0001
0100
0000
,
2002
0000
0000
0000
,
0000
0000
0000
0000
0000
0000
0000
0000
0000
0000
0000
0000
0000
0000
0000
0100
3003
0000
0000
0000
0000
0000
0000
0000
0000
0000
0000
0000
0000
0000
0000
0000
0110
0000
0000
0000
0000
0000
0000
0000
0000
0000
0000
0000
0000
0000
0000
0000
0001
0000
0000
0000
0000
0000
0000
0000
0000
0000
0000
0000
0000
0000
0000
0000
,
0010
0001
0100
0001
,
0010
0001
0010
0001
,
1000
0100
0010
0001
,
1000
0100
1000
0001
,
1000
0001
0100
0010
,
0001
0010
0100
0010
,
0001
0010
0001
1000
,
0010
0001
0010
0000
0110
0000
1000
0000
,
0100
1000
0010
1000
,
0100
1000
0100
1000
,
0001
0010
0100
1000
,
0001
0010
0001
1000
,
0001
1000
0010
0100
,
1000
0000
0001
0010
0001
0000
1000
0100
,
1000
0000
0100
1000
0100
1000
0100
1000
,
0100
1000
0100
0000
1001
0000
0001
0010
,
0001
0010
0001
0010
1100
0000
1000
0000
,
0110
0000
0100
0000
0101
0000
1000
0100
,
1000
0100
1000
0100
0011
0000
0010
0000
,
0110
0000
0100
0000
1100
0000
0100
0010
,
0100
0010
0100
0010
1100
0000
0100
0000
,
0011
0000
0010
0000
0110
0000
0001
0010
,
0001
0000
0010
0000
1000
0100
1000
0000
,
0100
0000
0000
0000
1001
0000
1000
0100
,
1000
0100
1000
0100
0011
0000
0001
0000
,
0110
0000
0010
0000
1010
0000
0001
0010
,
0001
0010
0001
0010
1100
0000
0100
0000
,
0110
0010
2020
0000
,
0000
0000
0000
3030
0022
0000
0000
0000
,
0000
0000
0000
0033
0220
0000
0000
0330
,
2002
0000
0000
3003
2200
3300
0022
0033
,
0001
0010
0100
0010
2002
0000
0000
0000
,
0000
0000
0000
0000
,
0000
0000
0000
0000
,
0000
0000
0000
0000
,
0000
0000
3003
0000
;

//---------------dance-single - ----------------
#NOTES:
     dance-single:
     :
     Medium:
     8:
     0.552,0.784,0.288,0.375,0.022,444.000,40.000,52.000,0.000,0.000:
0000
0000
0000
0000
,
0000
0000
0000
0000
,
0000
0000
0000
0000
,
0000
0000
0000
0000
,
0001
0000
1000
0010
1000
0000
0001
0010
,
0001
0000
0010
0100
0010
0100
0010
0100
,
1000
0000
0001
0010
0001
0000
1000
0100
,
1000
0000
0001
0010
0100
1000
0100
0010
,
0001
0000
0000
0001
0000
0000
0001
0000
,
0000
0000
0010
0000
0000
0100
0000
0000
1000
0000
0000
0000
0000
0000
1000
0000
,
0000
0000
0000
0000
1000
0000
0000
0001
0000
0000
0010
0000
0000
0100
0000
0000
,
1000
0000
0000
1000
0000
0000
1000
0000
,
0000
0000
0100
0000
0000
0010
0000
0000
0001
0000
0000
0000
0000
0000
0001
0000
,
0000
0000
0000
0000
0001
0000
0000
1000
0000
0000
0100
0000
0000
0010
0000
0000
,
0001
0010
0001
0010
0001
0000
0010
0000
,
1000
0100
1000
0100
1000
0000
0100
0000
,
0010
0100
0010
0100
0010
0000
0100
0000
,
0100
0010
0100
0010
0100
0010
0100
0000
,
1000
0100
0010
0001
0010
0000
0100
0000
,
0001
0010
0100
1000
0100
0000
0010
0000
,
0001
0100
0010
1000
0100
0000
0010
0000
,
1000
0010
0100
0001
0010
0000
0100
0000
,
2002
0000
0000
0000
0000
0000
0000
3003
,
0110
0000
0110
0000
,
0001
0010
0100
0000
,
0001
0010
0100
1000
,
0001
1000
0100
0000
,
0110
0000
0110
0000
,
1000
0100
0010
0000
,
1000
0100
0010
0001
,
1000
0001
0010
0000
,
1001
0000
1001
0000
,
0010
1000
0001
0000
,
0010
1000
0001
0100
,
0010
0100
0001
0000
,
1001
0000
1001
0000
,
0100
0001
1000
0000
,
0100
0001
1000
0010
,
0100
0010
1000
0000
,
0001
0010
0001
0000
,
1000
0100
1000
0000
,
0001
0010
1000
0010
,
0001
0000
1001
0000
,
1000
0100
1000
0000
,
0001
0010
0001
0000
,
1000
0100
0001
0100
,
1000
0000
1001
0000
,
0010
1000
0010
0000
,
0100
0001
0100
0000
,
0010
1000
0100
1000
,
0010
0000
0110
0000
,
0100
0001
0100
0000
,
0010
1000
0010
0000
,
0100
0001
0010
0001
,
0100
0000
0110
0000
,
0001
0001
0001
0000
,
0100
0100
0100
0000
,
0010
0010
0010
0010
,
1000
1000
1000
0000
,
0010
0010
0010
0000
,
0001
0001
0001
0000
,
1000
1000
1000
1000
,
0100
0100
0100
0000
,
0001
0001
0001
0000
,
1000
1000
1000
0000
,
0010
0010
0010
0010
,
0100
0100
0100
0000
,
0010
0001
1000
0000
,
0010
0100
1000
0000
,
0100
0001
0010
0100
,
1000
0010
1000
0000
,
0002
0000
0000
0000
,
0203
0000
0320
0000
,
2030
0000
0000
0000
,
3002
0000
2003
0000
,
3020
0000
0000
0000
,
2030
0000
3002
0000
,
2003
0000
3100
0010
,
0001
0010
0100
0000
,
0200
0000
0000
0000
,
2300
0000
3002
0000
,
0023
0000
0000
0000
,
0230
0000
0320
0000
,
0032
0000
0000
0000
,
0023
0000
0230
0000
,
0320
0000
0230
0000
,
0302
0000
0203
0000
,
0302
0000
1000
0000
,
2003
0000
3020
0000
,
0230
0000
0001
0000
,
0302
0000
0203
0000
,
0320
0000
1000
0000
,
0230
0000
0302
0000
,
0203
0000
1300
0010
,
0001
0010
1000
0000
,
2000
0000
0001
0000
,
3200
0000
0302
0000
,
0023
0000
1000
0000
,
2030
0000
3020
0000
,
0032
0000
0100
0000
,
0023
0000
2030
0000
,
3020
0000
2030
0000
,
3002
0000
2003
0000
,
3001
0010
0001
0000
,
0001
0010
0001
0000
,
0001
0010
0100
0010
,
1000
0001
0100
0000
,
1000
0100
1000
0000
,
1000
0100
1000
0000
,
1000
0100
0010
0100
,
0001
1000
0010
0000
,
0010
1000
0010
0000
,
0010
1000
0010
0000
,
0010
1000
0001
1000
,
0100
0010
0001
0000
,
0100
0001
0100
0000
,
0100
0001
0100
0000
,
0100
0001
1000
0001
,
0010
0100
1000
0000
,
2002
0000
0000
0000
,
0000
3003
1001
0000
,
0010
0000
1000
0100
,
1000
0000
0001
0010
,
0001
0010
0000
0001
0010
0000
0100
0000
,
1000
0000
0110
0000
,
1000
0000
0100
0001
,
0100
0000
0010
1000
,
0010
1000
0000
0010
1000
0000
0001
0000
,
0100
0000
0101
0000
,
0010
0000
0100
1000
,
0100
0000
0001
0010
,
0001
0010
0000
0001
0010
0000
1000
0000
,
0100
0000
1010
0000
,
0100
0000
1000
0001
,
1000
0000
0010
0100
,
0010
0100
0000
0010
0100
0000
0001
0000
,
1000
0000
1001
0000
,
0000
0000
1001
0000
,
0110
0000
1001
0000
,
0000
0000
0110
0000
,
0011
0000
1100
0000
,
0000
0000
0011
0000
,
0110
0000
0011
0000
,
0100
0010
0100
0010
,
0100
0000
0101
0000
,
0000
0000
0110
0000
,
0011
0000
0011
0000
,
0000
0000
1100
0000
,
0110
0000
1010
0000
,
0000
0000
0110
0000
,
0011
0000
0110
0000
,
1100
0000
0010
0001
,
0010
0001
2002
0000
,
0000
0000
0000
0000
,
0000
0000
0000
0000
,
0000
0000
3003
0000
;

//---------------dance-single - Copied from----------------
#NOTES:
     dance-single:
     Copied from:
     Easy:
     5:
     0.443,0.560,0.331,0.375,0.022,333.000,46.000,52.000,0.000,0.000:
0000
0000
0000
0000
,
0000
0000
0000
0000
,
0000
0000
0000
0000
,
0000
0000
0000
0000
,
0001
0100
0100
0001
,
0001
0010
0010
0010
,
0100
0001
0001
0100
,
0100
0001
1000
1000
,
0001
0000
0000
0001
0000
0000
0001
0000
,
0000
0000
0010
0000
0000
1000
0000
0000
0100
0000
0000
0000
0000
0000
0100
0000
,
0000
0000
0000
0000
0100
0000
0000
0001
0000
0000
0010
0000
0000
1000
0000
0000
,
0100
0000
0000
0100
0000
0000
0100
0000
,
0000
0000
1000
0000
0000
0010
0000
0000
0001
0000
0000
0000
0000
0000
0001
0000
,
0000
0000
0000
0000
0001
0000
0000
0100
0000
0000
1000
0000
0000
0010
0000
0000
,
0001
0001
0001
0010
,
0100
0100
0100
1000
,
0010
0010
0010
1000
,
1000
1000
1000
1000
,
0100
0010
0010
1000
,
0001
1000
1000
0010
,
0001
0010
1000
0010
,
0100
1000
0010
1000
,
0202
0000
0000
0000
0000
0000
0000
0303
,
1010
0000
0001
0000
,
0100
0000
0001
0000
,
1000
0000
0010
0000
,
0100
0000
0001
0000
,
0101
0000
0010
0000
,
1000
0000
0001
0000
,
0010
0000
0001
0000
,
0100
0000
1000
0000
,
1010
0000
0100
0000
,
0001
0000
0010
0000
,
0001
0000
1000
0000
,
0010
0000
0001
0000
,
0100
0000
0001
0000
,
0010
0000
0001
0000
,
1000
0000
0010
0000
,
0100
0000
0001
0000
,
0101
0000
1000
0000
,
0001
0000
0100
0000
,
0001
0000
1000
0000
,
0010
0000
0100
0000
,
0001
0000
0010
0000
,
0001
0000
0100
0000
,
1000
0000
0001
0000
,
0010
0000
0001
0000
,
1010
0000
0100
0000
,
0001
0000
0010
0000
,
0001
0000
0100
0000
,
0001
0000
1000
0000
,
0010
0000
0100
0000
,
0001
0000
1000
0000
,
0100
0000
0001
0000
,
1000
0000
0010
0000
,
0001
0000
0011
0000
,
1000
0000
1010
0000
,
0010
0000
0110
0000
,
0100
0000
1100
0000
,
0010
0000
1010
0000
,
0001
0000
1001
0000
,
0100
0000
0110
0000
,
1000
0000
1100
0000
,
0001
0000
0101
0000
,
0100
0000
0101
0000
,
0010
0000
1010
0000
,
1000
0000
1001
0000
,
0010
0000
0101
0000
,
0010
1000
0100
0000
,
1000
0001
0010
1000
,
0100
0010
0100
0000
,
0002
0000
0000
0000
,
2003
0000
3020
0000
,
0230
0000
0000
0000
,
0302
0000
0203
0000
,
0320
0000
0000
0000
,
0230
0000
0302
0000
,
0203
0000
1300
0000
,
0001
0000
1000
0000
,
2000
0000
0000
0000
,
3200
0000
0302
0000
,
0023
0000
0000
0000
,
2030
0000
3020
0000
,
0032
0000
0000
0000
,
0023
0000
2030
0000
,
3020
0000
2030
0000
,
3002
0000
2003
0000
,
3002
0000
0000
0000
,
0203
0000
0320
0000
,
2030
0000
0000
0000
,
3002
0000
2003
0000
,
3020
0000
0000
0000
,
2030
0000
3002
0000
,
2003
0000
3100
0000
,
0001
0000
0100
0000
,
0200
0000
0000
0000
,
2300
0000
3002
0000
,
0023
0000
0000
0000
,
0230
0000
0320
0000
,
0032
0000
0000
0000
,
0023
0000
0230
0000
,
0320
0000
0230
0000
,
0302
0000
0203
0000
,
0301
0000
0001
0000
,
0001
0000
0001
0000
,
0001
0000
1000
0000
,
0100
0000
1000
0000
,
0100
0000
0100
0000
,
0100
0000
0100
0000
,
0100
0000
0010
0000
,
0001
0000
0010
0000
,
0010
0000
0010
0000
,
0010
0000
0010
0000
,
0010
0000
0001
0100
,
0000
0010
0000
0000
,
1000
0000
1000
0000
,
1000
0000
1000
0000
,
1000
0000
0100
0001
,
0010
1000
0100
0000
,
0202
0000
0000
0000
,
0000
0303
0101
0000
,
0010
0000
0100
1000
,
0100
0000
0001
0010
,
0001
0000
0010
1000
,
0100
0000
1010
0000
,
0100
0000
1000
0001
,
1000
0000
0010
0100
,
0010
0000
0100
0001
,
1000
0000
1001
0000
,
0010
0000
1000
0100
,
1000
0000
0001
0010
,
0001
0000
0010
0100
,
1000
0000
0110
0000
,
1000
0000
0100
0001
,
0100
0000
0010
1000
,
0010
0000
1000
0001
,
0100
0000
0101
0000
,
0000
0000
0101
0000
,
1010
0000
0101
0000
,
0000
0000
1010
0000
,
0011
0000
1100
0000
,
0000
0000
0011
0000
,
1010
0000
0011
0000
,
1000
0010
1000
0010
,
1000
0000
1001
0000
,
0000
0000
1010
0000
,
0011
0000
0011
0000
,
0000
0000
1100
0000
,
1010
0000
0110
0000
,
0000
0000
1010
0000
,
0011
0000
1010
0000
,
1100
0000
0010
0001
,
0010
0001
0202
0000
,
0000
0000
0000
0000
,
0000
0000
0000
0000
,
0000
0000
0303
0000
;

//---------------dance-single - ----------------
#NOTES:
     dance-single:
     :
     Beginner:
     3:
     0.208,0.451,0.187,0.029,0.000,172.000,26.000,4.000,0.000,0.000:
0000
0000
0000
0000
,
0000
0000
0000
0000
,
0000
0000
0000
0000
,
0000
0000
0000
0000
,
1000
0000
0001
0000
,
1000
0000
0001
0000
,
1000
0000
0001
0000
,
1000
0000
1001
0000
,
0010
0000
0000
0010
0000
0000
0010
0000
,
0000
0000
0000
0000
0100
0000
0000
0100
,
0000
0100
0000
0000
,
1000
0000
0000
1000
0000
0000
1000
0000
,
0000
0000
0000
0000
0001
0000
0000
0001
,
0000
0001
0000
0000
,
1000
0000
0100
0000
,
0010
0000
0001
0000
,
0100
0000
0010
0000
,
1000
0000
0001
0000
,
1001
0000
0100
0000
,
0001
0000
1000
0000
,
0001
0000
0010
0000
,
0001
0000
0010
0000
,
1001
0000
0000
0000
,
1001
0000
0000
0000
,
0001
0000
0000
0000
,
1000
0000
0000
0000
,
0001
0000
0000
0000
,
0100
0000
0000
0000
,
0010
0000
0000
0000
,
1000
0000
0000
0000
,
0001
0000
0000
0000
,
1001
0000
0000
0000
,
0001
0000
0000
0000
,
0010
0000
0000
0000
,
0001
0000
0000
0000
,
0100
0000
0000
0000
,
0010
0000
0000
0000
,
1000
0000
0000
0000
,
0001
0000
0000
0000
,
0110
0000
0000
0000
,
1000
0000
0000
0000
,
0001
0000
0000
0000
,
1000
0000
0000
0000
,
0001
0000
0000
0000
,
0010
0000
0000
0000
,
0001
0000
0000
0000
,
1000
0000
0000
0000
,
1001
0000
0000
0000
,
0100
0000
0000
0000
,
0010
0000
0000
0000
,
1000
0000
0000
0000
,
0001
0000
0000
0000
,
0010
0000
0000
0000
,
1000
0000
0000
0000
,
0001
0000
0000
0000
,
0100
0000
0000
0000
,
0010
0000
0000
0000
,
0001
0000
0000
0000
,
1000
0000
0000
0000
,
0001
0000
0000
0000
,
0100
0000
0000
0000
,
0010
0000
0001
0000
,
1001
0000
0000
0000
,
0001
0000
0000
0000
,
0100
0000
0000
0000
,
0001
0000
0000
0000
,
0100
0000
0000
0000
,
0001
0000
0000
0000
,
0100
0000
0000
0000
,
0001
0000
0100
0000
,
1001
0000
0000
0000
,
1000
0000
0000
0000
,
0001
0000
0000
0000
,
0100
0000
0000
0000
,
0010
0000
0000
0000
,
1000
0000
0000
0000
,
0001
0000
0000
0000
,
0010
0000
0000
0000
,
0001
0000
0000
0000
,
1000
0000
0000
0000
,
0001
0000
0000
0000
,
0100
0000
0000
0000
,
0010
0000
0000
0000
,
0001
0000
0000
0000
,
1000
0000
0000
0000
,
0001
0000
0000
0000
,
0100
0000
0000
0000
,
0010
0000
0000
0000
,
1000
0000
0000
0000
,
0001
0000
0000
0000
,
0010
0000
0000
0000
,
0001
0000
0000
0000
,
0010
0000
0000
0000
,
1000
0000
0000
0000
,
0001
0000
0000
0000
,
0100
0000
0000
0000
,
0010
0000
0000
0000
,
1000
0000
0000
0000
,
0001
0000
0000
0000
,
0010
0000
0000
0000
,
0001
0000
0000
0000
,
1000
0000
0000
0000
,
0100
0000
0000
0000
,
1000
0000
0000
0000
,
1001
0000
0000
0000
,
0001
0000
0000
0000
,
0110
0000
0000
0000
,
0001
0000
0000
0000
,
1001
0000
0000
0000
,
1000
0000
0000
0000
,
0101
0000
0000
0000
,
0010
0000
0000
0000
,
1010
0000
0000
0000
,
0100
0000
0000
0000
,
0011
0000
0000
0000
,
0010
0000
0000
0000
,
1001
0000
0000
0000
,
0100
0000
0000
0000
,
1001
0000
0110
0000
,
2002
0000
0000
0000
,
0000
3003
1000
0000
,
0000
0000
0001
0000
,
0000
0000
1000
0000
,
0000
0000
0001
0000
,
0000
0000
0100
0000
,
0000
0000
0010
0000
,
0000
0000
0001
0000
,
0000
0000
1000
0000
,
0000
0000
0001
0000
,
0000
0000
0100
0000
,
0000
0000
0001
0000
,
0000
0000
0010
0000
,
0000
0000
0001
0000
,
0000
0000
1000
0000
,
0000
0000
1000
0000
,
0000
0000
0001
0000
,
0000
0000
1000
0000
,
0000
0000
0001
0000
,
0000
0000
0100
0000
,
0000
0000
0100
0000
,
0000
0000
0001
0000
,
0000
0000
1000
0000
,
0000
0000
0001
0000
,
0000
0000
1000
0000
,
0000
0000
0100
0000
,
0000
0000
0001
0000
,
0000
0000
0010
0000
,
0000
0000
0001
0000
,
0000
0000
1001
0000
,
0000
0000
0110
0000
,
0000
0000
0110
0000
,
1001
0000
0110
0000
,
1001
0000
0220
0000
,
0000
0000
0000
0000
,
0000
0000
0000
0000
,
0000
0000
0000
0000
,
0000
0000
0330
0000
;
