#TITLE:The Evil That Warmen Do;
#SUBTITLE:;
#ARTIST:Warmen;
#TITLETRANSLIT:;
#SUBTITLETRANSLIT:;
#ARTISTTRANSLIT:;
#CREDIT:;
#BANNER:AlbumArt_{BEE966BD-562F-43B8-88B5-551F99350CF7}_Large.jpg;
#BACKGROUND:Warmen bild 2.png;
#LYRICSPATH:;
#CDTITLE:Izzy MiniLittle copy.png;
#MUSIC:The evil that Warmen do.mp3;
#OFFSET:0.000;
#SAMPLESTART:19.047;
#SAMPLELENGTH:12.000;
#SELECTABLE:YES;
#BPMS:0.000=315.003,217.000=307.703,217.500=300.003,218.000=290.003,218.500=280.003,219.000=270.003,219.500=260.004,220.000=250.004,220.500=240.004,221.000=230.004,221.500=220.004,222.000=210.004,222.500=200.004,223.000=190.004,223.500=180.004,224.000=166.664,224.500=158.004,347.500=170.004,348.000=192.004,348.500=214.004,349.000=236.004,349.500=258.004,350.000=270.004,350.500=292.003,351.000=315.003,623.000=317.003,1008.500=315.003;
#STOPS:;
#BGCHANGES:;
// cache tags:
#FIRSTBEAT:13.000;
#LASTBEAT:1190.750;
#SONGFILENAME:Songs/IzzySM Keyboard Mega Pack/The Evil That Warmen Do/The evil that Warmen do.sm;
#HASMUSIC:1;
#HASBANNER:1;
#MUSICLENGTH:252.532;
// end cache tags

//---------------dance-single - ----------------
#NOTES:
     dance-single:
     :
     Challenge:
     11:
     1.000,1.000,0.531,0.139,0.004,1916.000,134.000,35.000,0.000,2.000:  // measure 1
0000
0000
0000
0000
,  // measure 2
0000
0000
0000
0000
,  // measure 3
0000
0000
0000
0000
,  // measure 4
0000
0000
1000
0001
1000
0010
1000
0100
,  // measure 5
1000
0010
1000
0001
1000
0010
1000
0100
,  // measure 6
1000
0010
1000
0001
1000
0010
1000
0100
,  // measure 7
1000
0010
1000
0001
1000
0010
1000
0100
,  // measure 8
1000
0010
1000
0001
1000
0010
1000
0100
,  // measure 9
1000
0010
1000
0001
1000
0010
1000
0100
,  // measure 10
1000
0010
1000
0001
1000
0010
1000
0100
,  // measure 11
1000
0010
1000
0001
1000
0010
1000
0100
,  // measure 12
1000
0010
1000
0001
1000
0010
1000
0100
,  // measure 13
1000
0010
1000
0001
1000
0010
1000
0100
,  // measure 14
1000
0010
1000
0001
1000
0010
1000
0100
,  // measure 15
1000
0010
1000
0001
1000
0010
1000
0100
,  // measure 16
1000
0010
1000
0001
1000
0010
1000
0100
,  // measure 17
1000
0010
1000
0001
1000
0010
1000
0100
,  // measure 18
1000
0010
1000
0001
1000
0010
1000
0100
,  // measure 19
1000
0010
1000
0001
1000
0010
1000
0100
,  // measure 20
1000
0001
1000
0010
1000
0100
1000
0010
,  // measure 21
1000
0001
1000
0100
0010
0001
1000
0100
,  // measure 22
0010
0001
0010
0001
0100
0100
0010
0001
,  // measure 23
0010
0001
0100
1000
0100
0010
0100
0010
,  // measure 24
0001
1000
0001
0010
0001
0001
0001
0010
,  // measure 25
0100
0100
1000
0100
0100
0010
0001
0100
,  // measure 26
0010
1000
0001
0100
0010
0010
0100
0001
,  // measure 27
0000
1100
0000
1100
0000
0011
0000
0011
,  // measure 28
0000
0110
0000
0110
0000
1001
0000
1001
,  // measure 29
0000
0000
1000
0100
0010
0010
0100
0001
,  // measure 30
1000
0001
0010
0100
1000
1000
0100
0010
,  // measure 31
0001
0100
0010
0001
0010
0001
0001
1000
,  // measure 32
0100
0010
0010
0100
1000
0001
0001
1000
,  // measure 33
0100
0010
0100
1000
0100
0010
0100
0100
,  // measure 34
0010
0100
0001
1000
0010
1000
0001
0100
,  // measure 35
0000
1100
0000
1100
0000
0011
0000
0011
,  // measure 36
0000
0110
0000
0110
0000
1001
0000
1001
,  // measure 37
0000
1000
0100
0010
0010
0100
0001
0001
,  // measure 38
0010
0100
0100
1000
0010
0100
0100
0001
,  // measure 39
0001
0100
0010
0010
0100
1000
0001
0100
,  // measure 40
0100
0010
0010
0001
0001
1000
1000
0100
,  // measure 41
0010
1000
0100
0100
0010
1000
0010
0100
,  // measure 42
0001
0001
0100
0010
1000
0100
1000
0001
,  // measure 43
0000
1100
0000
1100
0000
0011
0000
0011
,  // measure 44
0000
0110
0000
0110
0000
1001
0000
1001
,  // measure 45
0000
1000
0100
0001
0010
1000
0100
0100
,  // measure 46
1000
0001
0100
0001
0100
0010
0010
1000
,  // measure 47
0100
0001
0010
0100
1000
0001
0100
0010
,  // measure 48
0100
0100
0100
0001
0100
0010
0001
1000
,  // measure 49
0100
0010
0001
0100
0010
0010
0100
0010
,  // measure 50
0001
0100
0010
1000
0000
0010
1000
0001
,  // measure 51
0000
1100
0000
1100
0000
0011
0000
0011
,  // measure 52
0000
0110
0000
0110
0000
1001
0000
1001
,  // measure 53
0000
1100
0000
1100
0000
0011
0000
0011
,  // measure 54
0000
0110
0000
0110
0000
1001
0000
1001
,  // measure 55
0000
2002
0000
0000
0000
0000
0000
0000
,  // measure 56
0000
0000
3003
0000
,  // measure 57
0000
1000
0100
0100
0001
0010
0010
0100
,  // measure 58
0001
1000
0001
1000
0010
0100
0010
0001
,  // measure 59
1000
0100
0010
0001
0001
0010
0100
1000
,  // measure 60
0001
0010
0100
0100
0001
0010
0010
1000
,  // measure 61
0100
0001
0001
0100
0010
0001
0100
0010
,  // measure 62
1000
0100
1000
0010
1000
0001
0100
0001
,  // measure 63
1000
1000
0010
0100
0001
0100
0001
1000
,  // measure 64
0010
0100
0100
0100
0001
1000
0010
0100
,  // measure 65
0001
0100
0010
1000
0001
0100
0010
0100
,  // measure 66
0100
0001
1000
0010
0100
0001
0001
0100
,  // measure 67
1000
0010
0100
0001
0001
1000
0100
0010
,  // measure 68
1000
0100
0010
0010
0100
0100
0001
1000
,  // measure 69
0001
1000
0100
0010
0001
0010
0010
0100
,  // measure 70
0100
0001
1000
0010
1000
1000
0001
0100
,  // measure 71
0010
0001
1000
0100
0010
0001
1000
0100
,  // measure 72
0010
0001
0001
1000
0100
0010
2002
0000
,  // measure 73
0000
0000
0000
0000
,  // measure 74
3003
0000
1000
0001
0100
0010
0100
0100
,  // measure 75
0001
1000
0010
0010
1000
0100
0001
0001
,  // measure 76
0100
0010
0001
1000
0100
0100
2002
0000
,  // measure 77
0000
0000
0000
0000
,  // measure 78
3003
0000
1000
0100
0001
1000
0010
0100
,  // measure 79
0100
0001
1000
0010
0010
1000
0100
0001
,  // measure 80
0100
0001
1000
0100
0010
0001
2002
0000
,  // measure 81
0000
0000
0000
0000
,  // measure 82
3003
0000
1000
0100
0100
1000
0001
0100
,  // measure 83
0010
0001
0001
0100
0010
0010
0100
0001
,  // measure 84
1000
0001
0100
0001
0100
0001
0010
1000
,  // measure 85
0010
0100
0100
0001
1000
0100
0010
0001
,  // measure 86
0001
0010
0100
1000
1000
0100
1000
0100
,  // measure 87
0001
0010
0001
0010
0100
0000
2002
0000
,  // measure 88
0000
0000
3003
0000
,  // measure 89
0000
0000
1000
0001
1000
0010
1000
0100
,  // measure 90
1000
0010
1000
0001
1000
0010
1000
0100
,  // measure 91
1000
0010
1000
0001
1000
0010
1000
0100
,  // measure 92
1000
0010
1000
0001
1000
0010
1000
0100
,  // measure 93
1000
0010
1000
0001
1000
0010
1000
0100
,  // measure 94
1000
0010
1000
0001
1000
0010
1000
0100
,  // measure 95
1000
1100
1100
0011
,  // measure 96
0011
0110
0110
1001
,  // measure 97
1001
0000
1000
0100
1000
0010
1000
0001
,  // measure 98
0001
0100
0010
1000
0001
0001
0100
0010
,  // measure 99
1000
0001
1000
0100
0100
1000
0001
0010
,  // measure 100
0100
0001
1000
0100
0100
1000
0100
0001
,  // measure 101
0010
1000
0001
0001
0001
0001
1000
0100
,  // measure 102
0100
1000
0010
0010
0001
1000
0100
0001
,  // measure 103
0010
1100
1100
0011
,  // measure 104
0011
0110
0110
1001
,  // measure 105
1001
0000
1000
0100
0010
0001
0100
0010
,  // measure 106
0010
1000
0001
0001
0100
0010
1000
0100
,  // measure 107
0100
1000
0010
1000
0001
0001
0100
0100
,  // measure 108
1000
0010
1000
0001
0001
0100
0100
1000
,  // measure 109
0010
0100
0001
0001
0100
0100
1000
0010
,  // measure 110
1000
0100
0010
0010
0100
0001
1000
0001
,  // measure 111
1000
1100
1100
0011
,  // measure 112
0011
0110
0110
1001
,  // measure 113
1001
0000
1000
0001
0100
0010
1000
1000
,  // measure 114
0100
1000
0001
0010
0100
0001
0100
0010
,  // measure 115
0010
1000
0001
0100
0100
0010
0100
0001
,  // measure 116
1000
0100
0010
0100
0100
0100
0001
1000
,  // measure 117
0010
0100
0100
0001
1000
0001
0001
0100
,  // measure 118
0010
0100
1000
0001
0001
0100
0100
1000
,  // measure 119
0010
1100
1100
0011
,  // measure 120
0011
0110
0110
1001
,  // measure 121
1001
1100
1100
0011
,  // measure 122
0011
0110
0110
1001
,  // measure 123
1001
2002
0000
0000
,  // measure 124
0000
0000
0000
0000
0000
3003
0000
0000
,  // measure 125
0000
0000
1000
0100
0100
0001
0010
0010
,  // measure 126
0100
0001
1000
0001
1000
0010
0100
0010
,  // measure 127
0001
1000
0100
0010
0001
0001
0010
0100
,  // measure 128
1000
0001
0010
0100
0100
0001
0010
0010
,  // measure 129
1000
0100
0001
0001
0100
0010
0001
0100
,  // measure 130
0010
1000
0100
1000
0010
1000
0001
0100
,  // measure 131
0001
1000
1000
0010
0100
0001
0100
0001
,  // measure 132
1000
0010
0100
0100
0100
0001
1000
0010
,  // measure 133
0100
0001
0100
0010
1000
0001
0100
0010
,  // measure 134
0100
0100
0001
1000
0010
0100
0001
0001
,  // measure 135
0100
1000
0010
0100
0001
0001
1000
0100
,  // measure 136
0010
1000
0100
0010
0010
0100
0100
0001
,  // measure 137
1000
0001
1000
0100
0010
0001
0010
0010
,  // measure 138
0100
0100
0001
1000
0010
1000
1000
0001
,  // measure 139
0100
0010
0001
1000
0100
0010
0001
1000
,  // measure 140
0100
0010
0001
0001
1000
0100
0010
0001
,  // measure 141
0010
0100
0100
0010
1000
0001
0001
0010
,  // measure 142
0100
0010
0010
0100
1000
0001
1000
0100
,  // measure 143
0010
0001
0100
0100
1000
0001
0100
0100
,  // measure 144
0010
0001
0001
0010
0100
1000
0100
0100
,  // measure 145
1000
0001
0001
0100
1000
0010
0100
1000
,  // measure 146
0001
0100
0010
1000
0001
0001
0010
0100
,  // measure 147
0100
0010
1000
0001
0001
1000
0001
0100
,  // measure 148
0010
0001
0010
0010
0001
0100
1000
0001
,  // measure 149
0010
0000
0000
0000
,  // measure 150
0000
2000
0000
0000
0000
0000
0000
0000
,  // measure 151
3000
0000
0000
0000
,  // measure 152
0000
0000
0000
1000
0100
0010
0001
1000
,  // measure 153
0100
0010
0002
0000
0010
0000
0000
0000
,  // measure 154
0123
0000
1000
0100
,  // measure 155
0100
1000
0001
0001
,  // measure 156
0100
0100
0001
1030
,  // measure 157
0000
1000
0100
0010
0001
0100
0010
0001
,  // measure 158
0100
0001
0001
0100
0100
0010
0010
1000
,  // measure 159
1000
0001
0100
0100
1000
1000
0010
0001
,  // measure 160
0010
0100
0001
0010
1000
1000
0100
0001
,  // measure 161
0100
1000
0010
0100
0100
0010
0001
1000
,  // measure 162
0100
0100
0010
0100
1000
1000
0010
0010
,  // measure 163
0100
0001
0001
0100
0001
0010
0100
1000
,  // measure 164
0010
0001
1000
1000
0100
0100
0010
0010
,  // measure 165
0001
0002
0000
1000
0000
0010
0000
1000
,  // measure 166
0000
0103
0000
0010
0100
1000
0010
0001
,  // measure 167
0100
0001
0010
0010
0100
0100
0001
0100
,  // measure 168
1000
0001
0100
1000
0010
0010
1000
1000
,  // measure 169
0100
0010
0001
0100
0010
0001
0100
0010
,  // measure 170
0010
0001
0100
0100
0001
0010
0010
0001
,  // measure 171
1000
1000
0100
0010
0001
1000
1000
0001
,  // measure 172
0010
1000
0100
0010
0001
0100
0010
0010
,  // measure 173
1000
1000
0001
0001
0100
0010
0010
0100
,  // measure 174
1000
0001
0001
1000
0100
0100
0100
0010
,  // measure 175
1000
1000
0010
0001
0100
0010
0001
0100
,  // measure 176
0001
0100
1000
0001
0100
1000
0001
0010
,  // measure 177
0000
0200
0000
0000
0000
0000
1000
0001
,  // measure 178
1000
0000
0000
0000
0000
0000
0000
1000
,  // measure 179
0001
1000
0000
0000
0000
0000
0000
0000
,  // measure 180
0300
0000
1000
0100
0010
0001
1000
0100
,  // measure 181
0010
0002
0000
1000
0000
0010
0000
0100
,  // measure 182
0000
1000
0000
0010
0000
0010
0000
1000
,  // measure 183
0003
0100
0100
0010
0001
1000
0010
0001
,  // measure 184
0100
0100
0010
0010
0001
1000
1000
0001
,  // measure 185
0010
0010
0001
0100
0100
0010
0001
1000
,  // measure 186
1000
0001
0100
0010
1000
0001
0010
1000
,  // measure 187
1000
0100
0100
0010
0001
1000
1000
0001
,  // measure 188
0010
0100
0001
0010
1000
1000
0010
0001
,  // measure 189
0000
1000
0100
0010
0001
0001
0010
0100
,  // measure 190
0100
0010
1000
0001
0100
0100
0010
1000
,  // measure 191
0100
0100
1000
0010
1000
0001
0001
0100
,  // measure 192
0001
0100
0010
0100
1000
0010
0100
1000
,  // measure 193
0100
0010
0001
0100
0001
1000
0001
0010
,  // measure 194
0100
0010
0001
1000
1000
0100
0010
1000
,  // measure 195
0001
1000
0001
0010
0100
1000
0100
0010
,  // measure 196
0100
1000
0001
0010
0100
0100
0001
1000
,  // measure 197
0010
2002
0000
0000
,  // measure 198
0000
0000
0000
0000
,  // measure 199
3003
0000
1000
0100
0010
0010
1000
0001
,  // measure 200
0001
0100
0010
0010
1000
0001
0001
0100
,  // measure 201
0010
0010
0100
0001
1000
0010
0100
0100
,  // measure 202
1000
0001
0010
0100
0100
0001
1000
0001
,  // measure 203
0100
0010
1000
0010
0010
1000
0100
0100
,  // measure 204
1000
0010
0100
0001
0001
0100
0010
0100
,  // measure 205
1000
0001
0001
0100
0010
1000
0001
0001
,  // measure 206
0100
0010
0001
0100
0100
1000
0001
0010
,  // measure 207
0010
0100
1000
0100
0010
0100
0100
0001
,  // measure 208
1000
0001
1000
0001
1000
0010
0100
0001
,  // measure 209
0100
0010
0100
1000
0001
0010
0010
0001
,  // measure 210
0100
0001
0100
0100
1000
0010
0010
1000
,  // measure 211
0010
0100
0001
0010
1000
0010
0100
0100
,  // measure 212
0001
0100
0010
0010
1000
0100
0100
1000
,  // measure 213
0010
1000
0100
0100
0100
0100
0010
0001
,  // measure 214
1000
0100
0010
0001
1000
0100
0010
0001
,  // measure 215
1000
0100
0010
0001
1000
0100
0010
0001
,  // measure 216
1000
0100
0010
0001
0010
0100
0100
1000
,  // measure 217
0010
0010
0100
0001
1000
0100
0100
0010
,  // measure 218
1000
0001
0001
0100
0010
1000
0010
0100
,  // measure 219
0100
0010
0001
0100
0010
0010
0100
1000
,  // measure 220
0100
0010
0010
0001
0100
0100
0010
1000
,  // measure 221
0100
0022
0000
0000
,  // measure 222
0000
0000
0000
0000
,  // measure 223
0000
0000
0000
0000
,  // measure 224
0000
0000
0033
0000
1000
0100
0010
0010
,  // measure 225
0100
0100
1000
0010
0010
0100
0001
1000
,  // measure 226
0001
0100
0010
0010
1000
0100
0010
0100
,  // measure 227
1000
0010
0001
0010
0100
0100
0010
0001
,  // measure 228
1000
0100
0100
1000
0010
0010
1000
0100
,  // measure 229
0010
0001
0001
1000
0010
0100
0001
0010
,  // measure 230
0100
0010
0010
0100
0001
0001
0010
0100
,  // measure 231
1000
0100
0010
0010
0001
0100
0010
1000
,  // measure 232
0100
0100
1000
0010
0010
1000
0100
0100
,  // measure 233
0100
1000
0100
0010
0010
0001
0100
0100
,  // measure 234
0001
1000
0100
0010
0010
0100
0001
1000
,  // measure 235
0100
0010
0001
0001
0010
0100
0100
1000
,  // measure 236
0001
0010
0100
0100
1000
0010
0100
0100
,  // measure 237
0001
0100
0000
2002
0000
0000
0000
0000
,  // measure 238
0000
0000
0000
0000
,  // measure 239
0000
0000
0000
0000
,  // measure 240
0000
0000
0000
3003
0000
0100
0010
1000
,  // measure 241
0001
0001
0100
0010
0010
1000
0100
0100
,  // measure 242
0001
1000
0010
0010
0100
1000
0001
0100
,  // measure 243
0010
0001
0100
0010
1000
0100
0010
0100
,  // measure 244
1000
0001
0001
0100
0010
0001
0100
1000
,  // measure 245
0010
0001
0100
0000
2002
0000
0000
0000
,  // measure 246
0000
0000
0000
0000
,  // measure 247
0000
0000
0000
0000
,  // measure 248
3003
0000
0000
2000
0000
0000
0000
3200
,  // measure 249
0000
0000
0000
0320
0000
0000
0000
0000
,  // measure 250
0000
0000
0000
0000
,  // measure 251
0000
0000
2032
0000
,  // measure 252
0000
0000
0000
0000
,  // measure 253
3003
0000
0000
1000
0001
1000
0010
1000
,  // measure 254
0100
1000
0010
1000
0001
1000
0010
1000
,  // measure 255
0100
1000
0010
1000
0001
1000
0010
1000
,  // measure 256
0100
1000
0010
1000
0001
1000
0010
1000
,  // measure 257
0100
1000
0010
1000
0001
1000
0010
1000
,  // measure 258
0100
1000
0010
1000
0001
1000
0010
1000
,  // measure 259
0100
1000
0000
1100
0000
1100
0000
0011
,  // measure 260
0000
0011
0000
0110
0000
0110
0000
1001
,  // measure 261
0000
1001
0000
1000
0100
0010
0100
0100
,  // measure 262
0001
1000
0010
0010
1000
0100
0100
1000
,  // measure 263
0001
0001
0100
0001
0100
0001
0100
0010
,  // measure 264
0010
1000
0010
0100
0100
0001
1000
0010
,  // measure 265
0100
0001
1000
0100
0100
1000
0010
1000
,  // measure 266
0001
0100
0010
0010
1000
0001
0100
0010
,  // measure 267
1000
0100
0000
1100
0000
1100
0000
0011
,  // measure 268
0000
0011
0000
0110
0000
0110
0000
1001
,  // measure 269
0000
1001
0000
1000
0100
0100
1000
0010
,  // measure 270
0010
0100
0001
0001
0010
0100
0001
1000
,  // measure 271
0010
1000
0100
0100
1000
0100
0010
1000
,  // measure 272
0010
0001
0100
0010
1000
0001
0100
0010
,  // measure 273
1000
0100
0010
0010
1000
0100
0100
0001
,  // measure 274
1000
0010
1000
0001
0100
0010
0001
1000
,  // measure 275
0010
1100
1100
0011
,  // measure 276
0011
0110
0110
1001
,  // measure 277
1001
0000
1000
0100
0010
1000
0100
0010
,  // measure 278
1000
0001
1000
0100
0010
1000
0100
1000
,  // measure 279
0010
1000
0001
0100
0100
1000
0010
1000
,  // measure 280
0001
0100
0010
0010
1000
0001
0100
0010
,  // measure 281
1000
0100
0010
0001
1000
0100
0100
1000
,  // measure 282
0001
0010
0100
0100
1000
0001
0100
0010
,  // measure 283
1000
1100
1100
0011
,  // measure 284
0011
0110
0110
1001
,  // measure 285
1001
1100
1100
0011
,  // measure 286
0011
0110
0110
1001
,  // measure 287
1001
0000
0000
0000
0000
2002
0000
0000
0000
0000
0000
0000
0000
0000
0000
0000
,  // measure 288
0000
0000
0000
0000
,  // measure 289
0000
0000
0000
0000
0000
3003
0000
0000
1000
0000
0001
0000
1000
0000
0010
0000
,  // measure 290
1000
0100
1000
0010
1000
0001
1000
0010
,  // measure 291
1000
0100
1000
0010
1000
0001
1000
0010
,  // measure 292
1000
0100
1000
0010
1000
0001
1000
0010
,  // measure 293
1000
0100
1000
0010
1000
0001
1000
0010
,  // measure 294
1000
0100
1000
0010
1000
0001
1000
0010
,  // measure 295
1000
0100
1000
0010
1000
0001
1000
0010
,  // measure 296
1000
0100
1000
0010
1000
0001
1000
0010
,  // measure 297
1000
0000
0000
0000
0100
0000
0000
0000
0000
0000
0000
2002
0000
0000
0000
0000
0000
0000
0000
0000
0000
0000
0000
0000
0000
0000
0000
0000
0000
0000
0000
0000
,  // measure 298
0000
0000
0000
0000
0000
0000
0000
0000
0000
0000
0000
3003
0000
0000
0000
0000
;

//---------------dance-single - ----------------
#NOTES:
     dance-single:
     :
     Easy:
     4:
     0.320,0.295,0.051,0.139,0.004,517.000,13.000,35.000,0.000,1.000:  // measure 1
0000
0000
0000
0000
,  // measure 2
0000
0000
0000
0000
,  // measure 3
0000
0000
0000
0000
,  // measure 4
0000
1000
0000
0100
,  // measure 5
0000
0010
0000
0100
,  // measure 6
0000
0001
0000
0010
,  // measure 7
0000
0100
0000
0100
,  // measure 8
0000
0001
0000
0010
,  // measure 9
0000
1000
0000
0100
,  // measure 10
0000
1000
0000
0100
,  // measure 11
0000
0010
0000
0100
,  // measure 12
0000
0010
0000
1000
,  // measure 13
0000
0001
0000
0100
,  // measure 14
0000
0001
0000
0010
,  // measure 15
0000
0001
0000
0100
,  // measure 16
0000
0010
0000
1000
,  // measure 17
0000
0100
0000
1000
,  // measure 18
0000
0001
0000
0010
,  // measure 19
0000
0100
0000
0001
,  // measure 20
0000
1000
0000
0000
,  // measure 21
0000
1000
0000
0100
,  // measure 22
0000
0010
0000
1000
,  // measure 23
0000
0100
0000
1000
,  // measure 24
0000
0001
0000
0100
,  // measure 25
0000
0010
0000
0100
,  // measure 26
0000
0001
0000
0100
,  // measure 27
0000
1000
0000
0100
,  // measure 28
0000
0010
0000
0001
,  // measure 29
0000
1000
0000
0010
,  // measure 30
0000
0100
0000
0100
,  // measure 31
0000
0010
0000
1000
,  // measure 32
0000
0001
0000
0100
,  // measure 33
0000
0010
0000
0100
,  // measure 34
0000
0001
0000
0001
,  // measure 35
0000
1000
0000
0100
,  // measure 36
0000
0010
0000
0001
,  // measure 37
0000
0100
0000
0100
,  // measure 38
0000
0001
0000
1000
,  // measure 39
0000
0010
0000
0100
,  // measure 40
0000
1000
0000
0001
,  // measure 41
0000
0100
0000
0010
,  // measure 42
0000
0100
0000
1000
,  // measure 43
0000
1000
0000
0100
,  // measure 44
0000
0010
0000
0001
,  // measure 45
0000
0100
0000
1000
,  // measure 46
0000
1000
0000
0100
,  // measure 47
0000
0001
0000
0100
,  // measure 48
0000
0010
0000
0001
,  // measure 49
0000
0100
0000
0010
,  // measure 50
0000
0100
0000
1000
,  // measure 51
0000
1000
0000
0100
,  // measure 52
0000
0010
0000
0001
,  // measure 53
0000
1000
0000
0100
,  // measure 54
0000
0010
0000
0001
,  // measure 55
0000
2002
0000
0000
0000
0000
0000
0000
,  // measure 56
0000
0000
3003
0000
,  // measure 57
0000
0100
0000
0010
,  // measure 58
0000
0100
0000
0001
,  // measure 59
0000
0100
0000
0010
,  // measure 60
0000
0100
0000
0001
,  // measure 61
0000
0010
0000
1000
,  // measure 62
0000
0100
0000
1000
,  // measure 63
0000
0001
0000
0010
,  // measure 64
0000
1000
0000
0100
,  // measure 65
0000
0001
0000
1000
,  // measure 66
0000
0100
0000
1000
,  // measure 67
0000
0010
0000
0100
,  // measure 68
0000
0001
0000
0010
,  // measure 69
0000
1000
0000
0100
,  // measure 70
0000
1000
0000
0010
,  // measure 71
0000
0100
0000
0001
,  // measure 72
0000
0100
0000
2002
,  // measure 73
0000
0000
0000
0000
,  // measure 74
3003
1000
0000
0100
,  // measure 75
0000
0010
0000
1000
,  // measure 76
0000
0001
0000
2002
,  // measure 77
0000
0000
0000
0000
,  // measure 78
3003
1000
0000
0100
,  // measure 79
0000
0010
0000
1000
,  // measure 80
0000
0001
0000
2002
,  // measure 81
0000
0000
0000
0000
,  // measure 82
3003
1000
0000
0100
,  // measure 83
0000
0010
0000
1000
,  // measure 84
0000
0100
0000
0001
,  // measure 85
0000
0010
0000
0100
,  // measure 86
0000
1000
0000
0100
,  // measure 87
0000
0001
0000
2002
,  // measure 88
0000
0000
3003
0000
,  // measure 89
0000
1000
0000
0100
,  // measure 90
0000
0010
0000
1000
,  // measure 91
0000
0100
0000
0001
,  // measure 92
0000
0100
0000
0010
,  // measure 93
0000
0001
0000
0100
,  // measure 94
0000
1000
0000
1000
,  // measure 95
0000
1000
0000
0100
,  // measure 96
0000
0010
0000
0001
,  // measure 97
0000
1000
0000
0100
,  // measure 98
0000
0010
0000
1000
,  // measure 99
0000
0100
0000
0001
,  // measure 100
0000
0010
0000
0100
,  // measure 101
0000
0010
0000
1000
,  // measure 102
0000
0100
0000
0100
,  // measure 103
0000
1000
0000
0100
,  // measure 104
0000
0010
0000
0001
,  // measure 105
0000
1000
0000
0100
,  // measure 106
0000
0010
0000
1000
,  // measure 107
0000
0100
0000
0001
,  // measure 108
0000
0100
0000
0001
,  // measure 109
0000
0010
0000
1000
,  // measure 110
0000
0100
0000
1000
,  // measure 111
0000
1000
0000
0100
,  // measure 112
0000
0010
0000
0001
,  // measure 113
0000
1000
0000
0100
,  // measure 114
0000
0010
0000
1000
,  // measure 115
0000
0100
0000
1000
,  // measure 116
0000
0010
0000
0001
,  // measure 117
0000
0100
0000
0010
,  // measure 118
0000
0001
0000
1000
,  // measure 119
0000
1000
0000
0100
,  // measure 120
0000
0010
0000
0001
,  // measure 121
0000
1000
0000
0100
,  // measure 122
0000
0010
0000
0001
,  // measure 123
0000
2002
0000
0000
,  // measure 124
0000
0000
0000
0000
0000
3003
0000
0000
,  // measure 125
0000
1000
0000
0100
,  // measure 126
0000
0010
0000
1000
,  // measure 127
0000
0001
0000
0100
,  // measure 128
0000
0010
0000
1000
,  // measure 129
0000
0100
0000
1000
,  // measure 130
0000
0010
0000
0001
,  // measure 131
0000
0100
0000
0010
,  // measure 132
0000
0001
0000
0001
,  // measure 133
0000
0010
0000
0010
,  // measure 134
0000
0100
0000
0100
,  // measure 135
0000
1000
0000
1000
,  // measure 136
0000
0100
0000
1000
,  // measure 137
0000
0010
0000
0001
,  // measure 138
0000
0100
0000
0010
,  // measure 139
0000
1000
0000
0001
,  // measure 140
0000
0100
0000
0010
,  // measure 141
0000
1000
0000
0100
,  // measure 142
0000
0100
0000
0010
,  // measure 143
0000
1000
0000
0100
,  // measure 144
0000
0001
0000
0010
,  // measure 145
0000
0100
0000
0001
,  // measure 146
0000
0100
0000
0010
,  // measure 147
0000
1000
0000
0001
,  // measure 148
0000
0010
0000
0100
,  // measure 149
0000
0010
0000
0100
,  // measure 150
0000
2000
0000
0000
0000
0000
0000
0000
,  // measure 151
3000
0000
0000
0000
,  // measure 152
0000
0000
0000
0000
,  // measure 153
0000
0002
0000
0000
,  // measure 154
0023
0000
0000
0000
,  // measure 155
0000
0000
0000
0000
,  // measure 156
0000
0000
0000
0030
,  // measure 157
0000
0100
0000
0010
,  // measure 158
0000
1000
0000
0100
,  // measure 159
0000
1000
0000
0001
,  // measure 160
0000
1000
0000
0100
,  // measure 161
0000
0010
0000
1000
,  // measure 162
0000
0100
0000
0001
,  // measure 163
0000
0010
0000
0100
,  // measure 164
0000
0010
0000
0010
,  // measure 165
0000
0002
0000
0000
0000
0000
0000
0000
,  // measure 166
0000
0003
0000
0000
0100
0000
0000
0000
,  // measure 167
1000
0000
0100
0000
,  // measure 168
0010
0000
0001
0000
,  // measure 169
0001
0000
0010
0000
,  // measure 170
0100
0000
1000
0000
,  // measure 171
0100
0000
0010
0000
,  // measure 172
1000
0000
0001
0000
,  // measure 173
0100
0000
0010
0000
,  // measure 174
0001
0000
0100
0000
,  // measure 175
0010
0000
1000
0000
,  // measure 176
0001
0000
0100
0000
,  // measure 177
0000
0200
0000
0000
0000
0000
0000
0000
,  // measure 178
0000
0000
0000
0000
,  // measure 179
0000
0000
0000
0000
,  // measure 180
0300
0000
0000
0000
,  // measure 181
0000
0002
0000
0000
0000
0000
0000
0000
,  // measure 182
0000
0000
0000
0000
,  // measure 183
0003
0000
0001
0000
,  // measure 184
0010
0000
0100
0000
,  // measure 185
0100
0000
0001
0000
,  // measure 186
1000
0000
0010
0000
,  // measure 187
1000
0000
0100
0000
,  // measure 188
0100
0000
1000
0000
,  // measure 189
0010
0000
1000
0000
,  // measure 190
0001
0000
0010
0000
,  // measure 191
0100
0000
0001
0000
,  // measure 192
0010
0000
1000
0000
,  // measure 193
0100
0000
1000
0000
,  // measure 194
0001
0000
0100
0000
,  // measure 195
0001
0000
0100
0000
,  // measure 196
0010
0000
0001
0000
,  // measure 197
0000
2002
0000
0000
,  // measure 198
0000
0000
0000
0000
,  // measure 199
3003
1000
0000
1000
,  // measure 200
0000
0100
0000
1000
,  // measure 201
0000
0010
0000
1000
,  // measure 202
0000
0100
0000
0001
,  // measure 203
0000
0100
0000
0010
,  // measure 204
0000
0100
0000
0001
,  // measure 205
0000
0100
0000
0010
,  // measure 206
0000
1000
0000
0100
,  // measure 207
0000
0100
0000
0010
,  // measure 208
0000
1000
0000
0001
,  // measure 209
0000
0100
0000
0010
,  // measure 210
0000
0100
0000
0001
,  // measure 211
0000
0100
0000
1000
,  // measure 212
0000
0100
0000
0010
,  // measure 213
0000
1000
0000
0100
,  // measure 214
0000
1000
0000
0001
,  // measure 215
0000
0100
0000
0010
,  // measure 216
0000
0100
0000
0001
,  // measure 217
0000
0010
0000
0100
,  // measure 218
0000
0100
0000
1000
,  // measure 219
0000
0100
0000
0100
,  // measure 220
0000
0001
0000
0001
,  // measure 221
0000
0022
0000
0000
,  // measure 222
0000
0000
0000
0000
,  // measure 223
0000
0000
0000
0000
,  // measure 224
0000
0033
0000
0010
,  // measure 225
0000
0100
0000
0001
,  // measure 226
0000
1000
0000
0100
,  // measure 227
0000
1000
0000
0010
,  // measure 228
0000
0100
0000
0001
,  // measure 229
0000
0100
0000
0010
,  // measure 230
0000
1000
0000
1000
,  // measure 231
0000
0001
0000
0100
,  // measure 232
0000
0001
0000
0010
,  // measure 233
0000
0010
0000
0100
,  // measure 234
0000
0001
0000
0100
,  // measure 235
0000
0010
0000
0001
,  // measure 236
0000
1000
0000
0100
,  // measure 237
0000
0000
0000
2002
0000
0000
0000
0000
,  // measure 238
0000
0000
0000
0000
,  // measure 239
0000
0000
0000
0000
,  // measure 240
0000
0000
0000
3003
0000
0000
0010
0000
,  // measure 241
0000
0001
0000
0100
,  // measure 242
0000
0010
0000
1000
,  // measure 243
0000
0100
0000
1000
,  // measure 244
0000
0010
0000
0010
,  // measure 245
0000
0000
2002
0000
,  // measure 246
0000
0000
0000
0000
,  // measure 247
0000
0000
0000
0000
,  // measure 248
3003
0000
0000
2000
0000
0000
0000
3200
,  // measure 249
0000
0000
0000
0320
0000
0000
0000
0000
,  // measure 250
0000
0000
0000
0000
,  // measure 251
0000
0000
2032
0000
,  // measure 252
0000
0000
0000
0000
,  // measure 253
3003
0000
1000
0000
,  // measure 254
0100
0000
0010
0000
,  // measure 255
0100
0000
0010
0000
,  // measure 256
0001
0000
0010
0000
,  // measure 257
0100
0000
0001
0000
,  // measure 258
0010
0000
0100
0000
,  // measure 259
0100
0000
1000
0000
,  // measure 260
0100
0000
0010
0000
,  // measure 261
0001
0000
0100
0000
,  // measure 262
0010
0000
0100
0000
,  // measure 263
0001
0000
0010
0000
,  // measure 264
0010
0000
0001
0000
,  // measure 265
0100
0000
0100
0000
,  // measure 266
0010
0000
1000
0000
,  // measure 267
1000
0000
1000
0000
,  // measure 268
0100
0000
0010
0000
,  // measure 269
0001
0000
0100
0000
,  // measure 270
0100
0000
0010
0000
,  // measure 271
1000
0000
0001
0000
,  // measure 272
0100
0000
0010
0000
,  // measure 273
0100
0000
0001
0000
,  // measure 274
0010
0000
0100
0000
,  // measure 275
0000
1000
0000
0100
,  // measure 276
0000
0010
0000
0001
,  // measure 277
0000
1000
0000
0100
,  // measure 278
0000
0010
0000
1000
,  // measure 279
0000
0100
0000
0001
,  // measure 280
0000
0010
0000
0001
,  // measure 281
0000
0100
0000
0001
,  // measure 282
0000
1000
0000
0100
,  // measure 283
0000
1000
0000
0100
,  // measure 284
0000
0010
0000
0001
,  // measure 285
0000
1000
0000
0100
,  // measure 286
0000
0010
0000
0001
,  // measure 287
0000
0000
0000
0000
0000
2002
0000
0000
0000
0000
0000
0000
0000
0000
0000
0000
,  // measure 288
0000
0000
0000
0000
,  // measure 289
0000
0000
0000
0000
0000
3003
0000
0000
0000
0000
0000
0000
1000
0000
0000
0000
,  // measure 290
0000
0100
0000
0010
,  // measure 291
0000
0100
0000
0001
,  // measure 292
0000
1000
0000
0010
,  // measure 293
0000
0010
0000
0100
,  // measure 294
0000
0001
0000
0010
,  // measure 295
0000
0001
0000
0100
,  // measure 296
0000
0010
0000
1000
,  // measure 297
0000
0000
0000
0000
0000
0000
0000
0000
0000
0000
0000
2002
0000
0000
0000
0000
0000
0000
0000
0000
0000
0000
0000
0000
0000
0000
0000
0000
0000
0000
0000
0000
,  // measure 298
0000
0000
0000
0000
0000
0000
0000
0000
0000
0000
0000
3003
0000
0000
0000
0000
;

//---------------dance-single - ----------------
#NOTES:
     dance-single:
     :
     Medium:
     6:
     0.598,0.530,0.051,0.139,0.004,1009.000,13.000,35.000,0.000,1.000:  // measure 1
0000
0000
0000
0000
,  // measure 2
0000
0000
0000
0000
,  // measure 3
0000
0000
0000
0000
,  // measure 4
0000
1000
0010
0100
,  // measure 5
1000
0010
0001
0100
,  // measure 6
0100
0001
0010
0010
,  // measure 7
0001
0100
0100
0100
,  // measure 8
0001
0001
0100
0010
,  // measure 9
0100
1000
0100
0100
,  // measure 10
1000
1000
0010
0100
,  // measure 11
0010
0010
0100
0100
,  // measure 12
0001
0010
0001
1000
,  // measure 13
0100
0001
0010
0100
,  // measure 14
0001
0001
0100
0010
,  // measure 15
1000
0001
0010
0100
,  // measure 16
0001
0010
0100
1000
,  // measure 17
0010
0100
0100
1000
,  // measure 18
0001
0001
1000
0010
,  // measure 19
0100
0100
0001
0001
,  // measure 20
0100
1000
0001
0000
,  // measure 21
0000
1000
1000
0100
,  // measure 22
0100
0010
0010
1000
,  // measure 23
0100
0100
0010
1000
,  // measure 24
0100
0001
0001
0100
,  // measure 25
1000
0010
0100
0100
,  // measure 26
0100
0001
0010
0100
,  // measure 27
1000
1000
1000
0100
,  // measure 28
0001
0010
0100
0001
,  // measure 29
0001
1000
0100
0010
,  // measure 30
0010
0100
1000
0100
,  // measure 31
0100
0010
1000
1000
,  // measure 32
0001
0001
0100
0100
,  // measure 33
0010
0010
1000
0100
,  // measure 34
0100
0001
0001
0001
,  // measure 35
0100
1000
1000
0100
,  // measure 36
0100
0010
0010
0001
,  // measure 37
0001
0100
0100
0100
,  // measure 38
0010
0001
0010
1000
,  // measure 39
0100
0010
0010
0100
,  // measure 40
0001
1000
0010
0001
,  // measure 41
0001
0100
0100
0010
,  // measure 42
0001
0100
0100
1000
,  // measure 43
1000
1000
0100
0100
,  // measure 44
0010
0010
0100
0001
,  // measure 45
0001
0100
0100
1000
,  // measure 46
1000
1000
0010
0100
,  // measure 47
1000
1000
0100
0100
,  // measure 48
0010
0010
0001
0001
,  // measure 49
1000
0100
0100
0010
,  // measure 50
0001
0100
0100
1000
,  // measure 51
0010
1000
0100
0100
,  // measure 52
0010
0010
0001
0001
,  // measure 53
0001
1000
0010
0100
,  // measure 54
1000
0010
0100
0001
,  // measure 55
0000
2002
0000
0000
0000
0000
0000
0000
,  // measure 56
0000
0000
3003
0000
,  // measure 57
0000
0100
0100
0010
,  // measure 58
0100
0100
0010
0001
,  // measure 59
0100
0100
0001
0010
,  // measure 60
0010
0100
0001
0001
,  // measure 61
1000
0010
1000
1000
,  // measure 62
0001
0100
1000
1000
,  // measure 63
0100
0001
1000
0010
,  // measure 64
0010
1000
1000
0100
,  // measure 65
0001
0001
0100
1000
,  // measure 66
0010
0100
0010
1000
,  // measure 67
0001
0010
0100
0100
,  // measure 68
0010
0001
0100
0010
,  // measure 69
0001
1000
1000
0100
,  // measure 70
0100
1000
0010
0010
,  // measure 71
0100
0100
0010
0001
,  // measure 72
0001
0100
0100
2002
,  // measure 73
0000
0000
0000
0000
,  // measure 74
3003
1000
0010
0100
,  // measure 75
0100
0010
0001
1000
,  // measure 76
1000
0001
0010
2002
,  // measure 77
0000
0000
0000
0000
,  // measure 78
3003
1000
0100
0100
,  // measure 79
0010
0010
0001
1000
,  // measure 80
0100
0001
0010
2002
,  // measure 81
0000
0000
0000
0000
,  // measure 82
3003
1000
0100
0100
,  // measure 83
0010
0010
1000
1000
,  // measure 84
1000
0100
0001
0001
,  // measure 85
0100
0010
0010
0100
,  // measure 86
0001
1000
0001
0100
,  // measure 87
0100
0001
0010
2002
,  // measure 88
0000
0000
3003
0000
,  // measure 89
0000
1000
0010
0100
,  // measure 90
0100
0010
0001
1000
,  // measure 91
0001
0100
0010
0001
,  // measure 92
0001
0100
0100
0010
,  // measure 93
0010
0001
1000
0100
,  // measure 94
0010
1000
0100
1000
,  // measure 95
0001
1000
0100
0100
,  // measure 96
0010
0010
0010
0001
,  // measure 97
0010
1000
0001
0100
,  // measure 98
1000
0010
0100
1000
,  // measure 99
0010
0100
1000
0001
,  // measure 100
0001
0010
0001
0100
,  // measure 101
0100
0010
0001
1000
,  // measure 102
0010
0100
1000
0100
,  // measure 103
0100
1000
0010
0100
,  // measure 104
0010
0010
0100
0001
,  // measure 105
0001
1000
1000
0100
,  // measure 106
0010
0010
1000
1000
,  // measure 107
0100
0100
0001
0001
,  // measure 108
0100
0100
0001
0001
,  // measure 109
1000
0010
0010
1000
,  // measure 110
1000
0100
0100
1000
,  // measure 111
1000
1000
0010
0100
,  // measure 112
0100
0010
0001
0001
,  // measure 113
1000
1000
0010
0100
,  // measure 114
0100
0010
0010
1000
,  // measure 115
1000
0100
0001
1000
,  // measure 116
0100
0010
0010
0001
,  // measure 117
0001
0100
0100
0010
,  // measure 118
0010
0001
0100
1000
,  // measure 119
0001
1000
0001
0100
,  // measure 120
0100
0010
0010
0001
,  // measure 121
0001
1000
1000
0100
,  // measure 122
0100
0010
0010
0001
,  // measure 123
0001
2002
0000
0000
,  // measure 124
0000
0000
0000
0000
0000
3003
0000
0000
,  // measure 125
0000
1000
0010
0100
,  // measure 126
0100
0010
0001
1000
,  // measure 127
0001
0001
0100
0100
,  // measure 128
0010
0010
1000
1000
,  // measure 129
0100
0100
0010
1000
,  // measure 130
0001
0010
0100
0001
,  // measure 131
0010
0100
0001
0010
,  // measure 132
0100
0001
0100
0001
,  // measure 133
0010
0010
0001
0010
,  // measure 134
0100
0100
0001
0100
,  // measure 135
0001
1000
1000
1000
,  // measure 136
0100
0100
1000
1000
,  // measure 137
0010
0010
1000
0001
,  // measure 138
0001
0100
0001
0010
,  // measure 139
0001
1000
0100
0001
,  // measure 140
0010
0100
0100
0010
,  // measure 141
0001
1000
1000
0100
,  // measure 142
0100
0100
0010
0010
,  // measure 143
0010
1000
0010
0100
,  // measure 144
1000
0001
0100
0010
,  // measure 145
1000
0100
0001
0001
,  // measure 146
1000
0100
0100
0010
,  // measure 147
0010
1000
0001
0001
,  // measure 148
1000
0010
0100
0100
,  // measure 149
1000
0010
0010
0100
,  // measure 150
0000
2000
0000
0000
0000
0000
0000
0000
,  // measure 151
3000
0000
0000
0000
,  // measure 152
0000
0000
0000
0000
,  // measure 153
0000
0002
0000
0000
,  // measure 154
0023
0000
0000
0000
,  // measure 155
0000
0000
0000
0000
,  // measure 156
0000
0000
0000
0030
,  // measure 157
0100
0100
0010
0010
,  // measure 158
0001
1000
0100
0100
,  // measure 159
0010
1000
1000
0001
,  // measure 160
0100
1000
0001
0100
,  // measure 161
0100
0010
0010
1000
,  // measure 162
0100
0100
0001
0001
,  // measure 163
1000
0010
1000
0100
,  // measure 164
0001
0010
1000
0010
,  // measure 165
0000
0002
0000
0000
0000
0000
0000
0000
,  // measure 166
0000
0003
0000
0000
0100
0000
0010
0000
,  // measure 167
1000
0100
0100
0001
,  // measure 168
0010
0100
0001
1000
,  // measure 169
0001
0001
0010
0010
,  // measure 170
0100
0100
1000
1000
,  // measure 171
0100
0100
0010
0010
,  // measure 172
1000
1000
0001
0100
,  // measure 173
0100
0100
0010
0100
,  // measure 174
0001
0010
0100
0001
,  // measure 175
0010
0100
1000
0001
,  // measure 176
0001
1000
0100
0100
,  // measure 177
0000
0200
0000
0000
0000
0000
0000
0000
,  // measure 178
0000
0000
0000
0000
,  // measure 179
0000
0000
0000
0000
,  // measure 180
0300
0000
0000
0000
,  // measure 181
0000
0002
0000
0000
0000
0000
0000
0000
,  // measure 182
0000
0000
0000
0000
,  // measure 183
0003
0000
0001
0001
,  // measure 184
0010
0010
0100
0100
,  // measure 185
0100
1000
0001
0100
,  // measure 186
1000
0100
0010
0010
,  // measure 187
1000
1000
0100
0001
,  // measure 188
0100
0100
1000
0010
,  // measure 189
0010
1000
1000
0001
,  // measure 190
0001
0001
0010
0010
,  // measure 191
0100
0100
0001
0001
,  // measure 192
0010
0010
1000
0100
,  // measure 193
0100
1000
1000
0001
,  // measure 194
0001
0100
0100
0010
,  // measure 195
0001
0100
0100
0010
,  // measure 196
0010
1000
0001
0001
,  // measure 197
0000
2002
0000
0000
,  // measure 198
0000
0000
0000
0000
,  // measure 199
3003
1000
0010
1000
,  // measure 200
0001
0100
0100
1000
,  // measure 201
0010
0010
1000
1000
,  // measure 202
0001
0100
0001
0001
,  // measure 203
0100
0100
0010
0010
,  // measure 204
0001
0100
1000
0001
,  // measure 205
1000
0100
0001
0010
,  // measure 206
0100
1000
0010
0100
,  // measure 207
1000
0100
0001
0010
,  // measure 208
1000
1000
0010
0001
,  // measure 209
0001
0100
1000
0010
,  // measure 210
0010
0100
1000
0001
,  // measure 211
0001
0100
0100
1000
,  // measure 212
0010
0100
1000
0010
,  // measure 213
0001
1000
0100
0100
,  // measure 214
0010
1000
1000
0001
,  // measure 215
1000
0100
0010
0010
,  // measure 216
1000
0100
0001
0001
,  // measure 217
0010
0010
0100
0100
,  // measure 218
1000
0100
0001
1000
,  // measure 219
0010
0100
1000
0100
,  // measure 220
0010
0001
1000
0001
,  // measure 221
0000
0022
0000
0000
,  // measure 222
0000
0000
0000
0000
,  // measure 223
0000
0000
0000
0000
,  // measure 224
0000
0033
0000
0010
,  // measure 225
0010
0100
0100
0001
,  // measure 226
0001
1000
0010
0100
,  // measure 227
1000
1000
0100
0010
,  // measure 228
1000
0100
0010
0001
,  // measure 229
1000
0100
0001
0010
,  // measure 230
0100
1000
0010
1000
,  // measure 231
1000
0001
0001
0100
,  // measure 232
0010
0001
1000
0010
,  // measure 233
1000
0010
0010
0100
,  // measure 234
1000
0001
1000
0100
,  // measure 235
0001
0010
0010
0001
,  // measure 236
0001
1000
0010
0100
,  // measure 237
0100
0000
0000
2002
0000
0000
0000
0000
,  // measure 238
0000
0000
0000
0000
,  // measure 239
0000
0000
0000
0000
,  // measure 240
0000
0000
0000
3003
0000
0000
0010
0000
,  // measure 241
1000
0001
0001
0100
,  // measure 242
1000
0010
0010
1000
,  // measure 243
1000
0100
1000
1000
,  // measure 244
0001
0010
0100
0010
,  // measure 245
0010
0000
2002
0000
,  // measure 246
0000
0000
0000
0000
,  // measure 247
0000
0000
0000
0000
,  // measure 248
3003
0000
0000
2000
0000
0000
0000
3200
,  // measure 249
0000
0000
0000
0320
0000
0000
0000
0000
,  // measure 250
0000
0000
0000
0000
,  // measure 251
0000
0000
2032
0000
,  // measure 252
0000
0000
0000
0000
,  // measure 253
3003
0000
1000
1000
,  // measure 254
0100
0100
0010
0010
,  // measure 255
0100
0001
0010
1000
,  // measure 256
0001
0010
0010
0001
,  // measure 257
0100
0100
0001
0001
,  // measure 258
0010
0010
0100
0100
,  // measure 259
0100
1000
1000
0100
,  // measure 260
0100
1000
0010
0010
,  // measure 261
0001
1000
0100
0001
,  // measure 262
0010
0100
0100
0010
,  // measure 263
0001
1000
0010
0001
,  // measure 264
0010
1000
0001
0010
,  // measure 265
0100
0100
0100
0010
,  // measure 266
0010
0001
1000
0001
,  // measure 267
1000
0001
1000
1000
,  // measure 268
0100
0100
0010
0010
,  // measure 269
0001
0001
0100
0010
,  // measure 270
0100
1000
0010
0001
,  // measure 271
1000
0001
0001
1000
,  // measure 272
0100
0100
0010
0010
,  // measure 273
0100
0010
0001
1000
,  // measure 274
0010
0001
0100
0010
,  // measure 275
0000
1000
1000
0100
,  // measure 276
0100
0010
0010
0001
,  // measure 277
0001
1000
1000
0100
,  // measure 278
0100
0010
0010
1000
,  // measure 279
0001
0100
0100
0001
,  // measure 280
0010
0010
1000
0001
,  // measure 281
0010
0100
1000
0001
,  // measure 282
0001
1000
0010
0100
,  // measure 283
1000
1000
1000
0100
,  // measure 284
0100
0010
0010
0001
,  // measure 285
0001
1000
1000
0100
,  // measure 286
0100
0010
0010
0001
,  // measure 287
0001
0000
0000
0000
0000
2002
0000
0000
0000
0000
0000
0000
0000
0000
0000
0000
,  // measure 288
0000
0000
0000
0000
,  // measure 289
0000
0000
0000
0000
0000
3003
0000
0000
0000
0000
0000
0000
1000
0000
0000
0000
,  // measure 290
0100
0100
0001
0010
,  // measure 291
1000
0100
0010
0001
,  // measure 292
1000
1000
0001
0010
,  // measure 293
1000
0010
0100
0100
,  // measure 294
0010
0001
0010
0010
,  // measure 295
0001
0001
1000
0100
,  // measure 296
0010
0010
0001
1000
,  // measure 297
0100
0000
0000
0000
0000
0000
0000
0000
0000
0000
0000
2002
0000
0000
0000
0000
0000
0000
0000
0000
0000
0000
0000
0000
0000
0000
0000
0000
0000
0000
0000
0000
,  // measure 298
0000
0000
0000
0000
0000
0000
0000
0000
0000
0000
0000
3003
0000
0000
0000
0000
;

//---------------dance-single - ----------------
#NOTES:
     dance-single:
     :
     Hard:
     10:
     0.955,1.000,0.531,0.139,0.004,1520.000,134.000,35.000,0.000,2.000:  // measure 1
0000
0000
0000
0000
,  // measure 2
0000
0000
0000
0000
,  // measure 3
0000
0000
0000
0000
,  // measure 4
0000
0000
1000
0001
1000
0010
1000
0100
,  // measure 5
1000
0010
1000
0001
1000
0010
1000
0100
,  // measure 6
1000
0010
1000
0001
1000
0010
1000
0100
,  // measure 7
1000
0010
1000
0001
1000
0010
1000
0100
,  // measure 8
1000
0010
1000
0001
1000
0010
1000
0100
,  // measure 9
1000
0010
1000
0001
1000
0010
1000
0100
,  // measure 10
1000
0010
1000
0001
1000
0010
1000
0100
,  // measure 11
1000
0010
1000
0001
1000
0010
1000
0100
,  // measure 12
1000
0010
1000
0001
1000
0010
1000
0100
,  // measure 13
1000
0010
1000
0001
1000
0010
1000
0100
,  // measure 14
1000
0010
1000
0001
1000
0010
1000
0100
,  // measure 15
1000
0010
1000
0001
1000
0010
1000
0100
,  // measure 16
1000
0010
1000
0001
1000
0010
1000
0100
,  // measure 17
1000
0010
1000
0001
1000
0010
1000
0100
,  // measure 18
1000
0010
1000
0001
1000
0010
1000
0100
,  // measure 19
1000
0010
1000
0001
1000
0010
1000
0100
,  // measure 20
1000
0001
1000
0010
1000
0100
1000
0010
,  // measure 21
1000
0001
1000
0001
1000
0010
1000
0100
,  // measure 22
1000
0010
1000
0001
1000
0010
1000
0100
,  // measure 23
1000
0010
1000
0001
1000
0010
1000
0100
,  // measure 24
1000
0010
1000
0001
1000
0010
1000
0100
,  // measure 25
1000
0010
1000
0001
1000
0010
1000
0100
,  // measure 26
1000
0010
1000
0001
1000
0010
1000
0000
,  // measure 27
0000
1100
0000
1100
0000
0011
0000
0011
,  // measure 28
0000
0110
0000
0110
0000
1001
0000
1001
,  // measure 29
0000
0000
1000
0001
1000
0010
1000
0100
,  // measure 30
1000
0010
1000
0001
1000
0010
1000
0100
,  // measure 31
1000
0010
1000
0001
1000
0010
1000
0100
,  // measure 32
1000
0010
1000
0001
1000
0010
1000
0100
,  // measure 33
1000
0010
1000
0001
1000
0010
1000
0100
,  // measure 34
1000
0010
1000
0001
1000
0010
1000
0000
,  // measure 35
0000
1100
0000
1100
0000
0011
0000
0011
,  // measure 36
0000
0110
0000
0110
0000
1001
0000
1001
,  // measure 37
0000
1000
0001
1000
0010
1000
0100
1000
,  // measure 38
0010
1000
0001
1000
0010
1000
0100
1000
,  // measure 39
0010
1000
0001
1000
0010
1000
0100
1000
,  // measure 40
0010
1000
0001
1000
0010
1000
0100
1000
,  // measure 41
0010
1000
0001
1000
0010
1000
0100
1000
,  // measure 42
0010
1000
0001
1000
0010
1000
0000
0000
,  // measure 43
0000
1100
0000
1100
0000
0011
0000
0011
,  // measure 44
0000
0110
0000
0110
0000
1001
0000
1001
,  // measure 45
0000
1000
0001
1000
0010
1000
0100
1000
,  // measure 46
0010
1000
0001
1000
0010
1000
0100
1000
,  // measure 47
0010
1000
0001
1000
0010
1000
0100
1000
,  // measure 48
0010
1000
0001
1000
0010
1000
0100
1000
,  // measure 49
0010
1000
0001
1000
0010
1000
0100
1000
,  // measure 50
0010
1000
0001
1000
0010
1000
0100
0000
,  // measure 51
0000
1100
0000
1100
0000
0011
0000
0011
,  // measure 52
0000
0110
0000
0110
0000
1001
0000
1001
,  // measure 53
0000
1100
0000
1100
0000
0011
0000
0011
,  // measure 54
0000
0110
0000
0110
0000
1001
0000
1001
,  // measure 55
0000
2002
0000
0000
0000
0000
0000
0000
,  // measure 56
0000
0000
3003
0000
,  // measure 57
0000
1000
0100
0100
0001
0010
0010
0100
,  // measure 58
0001
1000
0001
1000
0010
0100
0010
0001
,  // measure 59
1000
0100
0010
0001
0001
0010
0100
1000
,  // measure 60
0001
0010
0100
0100
0001
0010
0010
1000
,  // measure 61
0100
0001
0001
0100
0010
0001
0100
0010
,  // measure 62
1000
0100
1000
0010
1000
0001
0100
0001
,  // measure 63
1000
1000
0010
0100
0001
0100
0001
1000
,  // measure 64
0010
0100
0100
0100
0001
1000
0010
0100
,  // measure 65
0001
0100
0010
1000
0001
0100
0010
0100
,  // measure 66
0100
0001
1000
0010
0100
0001
0001
0100
,  // measure 67
1000
0010
0100
0001
0001
1000
0100
0010
,  // measure 68
1000
0100
0010
0010
0100
0100
0001
1000
,  // measure 69
0001
1000
0100
0010
0001
0010
0010
0100
,  // measure 70
0100
0001
1000
0010
1000
1000
0001
0100
,  // measure 71
0010
0001
1000
0100
0010
0001
1000
0100
,  // measure 72
0010
0001
0001
1000
0100
0010
2002
0000
,  // measure 73
0000
0000
0000
0000
,  // measure 74
3003
0000
1000
0001
0100
0010
0100
0100
,  // measure 75
0001
1000
0010
0010
1000
0100
0001
0001
,  // measure 76
0100
0010
0001
1000
0100
0100
2002
0000
,  // measure 77
0000
0000
0000
0000
,  // measure 78
3003
0000
1000
0100
0001
1000
0010
0100
,  // measure 79
0100
0001
1000
0010
0010
1000
0100
0001
,  // measure 80
0100
0001
1000
0100
0010
0001
2002
0000
,  // measure 81
0000
0000
0000
0000
,  // measure 82
3003
0000
1000
0100
0100
1000
0001
0100
,  // measure 83
0010
0001
0001
0100
0010
0010
0100
0001
,  // measure 84
1000
0001
0100
0001
0100
0001
0010
1000
,  // measure 85
0010
0100
0100
0001
1000
0100
0010
0001
,  // measure 86
0001
0010
0100
1000
1000
0100
1000
0100
,  // measure 87
0001
0010
0001
0010
0100
0000
2002
0000
,  // measure 88
0000
0000
3003
0000
,  // measure 89
0000
0000
1000
0001
1000
0010
1000
0100
,  // measure 90
1000
0010
1000
0001
1000
0010
1000
0100
,  // measure 91
1000
0010
1000
0001
1000
0010
1000
0100
,  // measure 92
1000
0010
1000
0001
1000
0010
1000
0100
,  // measure 93
1000
0010
1000
0001
1000
0010
1000
0100
,  // measure 94
1000
0010
1000
0001
1000
0010
1000
0100
,  // measure 95
0000
1100
1100
0011
,  // measure 96
0011
0110
0110
1001
,  // measure 97
1001
0000
1000
0001
1000
0010
1000
0100
,  // measure 98
1000
0010
1000
0001
1000
0010
1000
0100
,  // measure 99
1000
0010
1000
0001
1000
0010
1000
0100
,  // measure 100
1000
0010
1000
0001
1000
0010
1000
0100
,  // measure 101
1000
0010
1000
0001
1000
0010
1000
0100
,  // measure 102
1000
0010
1000
0001
1000
0010
1000
0100
,  // measure 103
0000
1100
1100
0011
,  // measure 104
0011
0110
0110
1001
,  // measure 105
1001
0000
1000
0001
1000
0010
1000
0100
,  // measure 106
1000
0010
1000
0001
1000
0010
1000
0100
,  // measure 107
1000
0010
1000
0001
1000
0010
1000
0100
,  // measure 108
1000
0010
1000
0001
1000
0010
1000
0100
,  // measure 109
1000
0010
1000
0001
1000
0010
1000
0100
,  // measure 110
1000
0010
1000
0001
1000
0010
1000
0100
,  // measure 111
0000
1100
1100
0011
,  // measure 112
0011
0110
0110
1001
,  // measure 113
1001
0000
1000
0001
1000
0010
1000
0100
,  // measure 114
1000
0010
1000
0001
1000
0010
1000
0100
,  // measure 115
1000
0010
1000
0001
1000
0010
1000
0100
,  // measure 116
1000
0010
1000
0001
1000
0010
1000
0100
,  // measure 117
1000
0010
1000
0001
1000
0010
1000
0100
,  // measure 118
1000
0010
1000
0001
1000
0010
1000
0100
,  // measure 119
0000
1100
1100
0011
,  // measure 120
0011
0110
0110
1001
,  // measure 121
1001
1100
1100
0011
,  // measure 122
0011
0110
0110
1001
,  // measure 123
1001
2002
0000
0000
,  // measure 124
0000
0000
0000
0000
0000
3003
0000
0000
,  // measure 125
0000
1000
0100
0010
,  // measure 126
0100
1000
1000
0100
,  // measure 127
0001
0100
0001
0010
,  // measure 128
1000
0010
0100
0010
,  // measure 129
1000
0001
0100
0001
,  // measure 130
0010
0100
0010
0001
,  // measure 131
0001
1000
0100
0100
,  // measure 132
1000
0100
0100
1000
,  // measure 133
0100
0100
1000
0100
,  // measure 134
0100
0001
0010
0001
,  // measure 135
0100
0010
0001
1000
,  // measure 136
0010
0100
0010
0100
,  // measure 137
1000
1000
0010
0010
,  // measure 138
0100
0001
0010
1000
,  // measure 139
0100
0001
0100
0001
,  // measure 140
0100
0001
1000
0010
,  // measure 141
0010
0100
1000
0001
,  // measure 142
0100
0010
1000
1000
,  // measure 143
0010
0100
1000
0100
,  // measure 144
0010
0001
0100
0100
,  // measure 145
1000
0001
1000
0100
,  // measure 146
0001
0010
0001
0010
,  // measure 147
0100
1000
0001
0001
,  // measure 148
0010
0010
0001
1000
,  // measure 149
0010
0000
0000
0000
,  // measure 150
0000
2000
0000
0000
0000
0000
0000
0000
,  // measure 151
3000
0000
0000
0000
,  // measure 152
0000
0000
0000
1000
0100
0010
0001
1000
,  // measure 153
0100
0010
0002
0000
0010
0000
0000
0000
,  // measure 154
0123
0000
1000
0100
,  // measure 155
0100
1000
0001
0001
,  // measure 156
0100
0100
0001
1030
,  // measure 157
0000
0100
0000
0001
0000
0010
0000
0100
,  // measure 158
0000
0010
0000
0010
0000
0010
0000
1000
,  // measure 159
0000
0001
0000
0100
0000
1000
0000
0001
,  // measure 160
0000
0100
0000
0010
0000
1000
0000
0001
,  // measure 161
0000
1000
0000
0100
0000
0010
0000
1000
,  // measure 162
0000
0100
0000
0100
0000
1000
0000
0010
,  // measure 163
0000
0001
0000
0100
0000
0010
0000
1000
,  // measure 164
0000
0001
0000
1000
0000
0100
0000
0010
,  // measure 165
0000
0002
0000
1000
0000
0010
0000
1000
,  // measure 166
0000
0103
0000
0010
0000
1000
0000
0001
,  // measure 167
0000
0001
0000
0010
0000
0100
0000
0100
,  // measure 168
0000
0001
0000
1000
0000
0010
0000
1000
,  // measure 169
0000
0010
0000
0100
0000
0001
0000
0010
,  // measure 170
0000
0001
0000
0100
0000
0010
0000
0001
,  // measure 171
0000
1000
0000
0010
0000
1000
0000
0001
,  // measure 172
0000
1000
0000
0010
0000
0100
0000
0010
,  // measure 173
0000
1000
0000
0001
0000
0010
0000
0100
,  // measure 174
0000
0001
0000
1000
0000
0100
0000
0010
,  // measure 175
0000
1000
0000
0001
0000
0010
0000
0100
,  // measure 176
0000
0100
0000
0001
0000
1000
0000
0010
,  // measure 177
0000
0200
0000
0000
0000
0000
1000
0001
,  // measure 178
1000
0000
0000
0000
0000
0000
0000
1000
,  // measure 179
0001
1000
0000
0000
0000
0000
0000
0000
,  // measure 180
0300
0000
1000
0100
0010
0001
1000
0100
,  // measure 181
0010
0002
0000
1000
0000
0010
0000
0100
,  // measure 182
0000
1000
0000
0010
0000
0010
0000
1000
,  // measure 183
0003
0100
0000
0010
0000
1000
0000
0001
,  // measure 184
0000
0100
0000
0010
0000
1000
0000
0001
,  // measure 185
0000
0010
0000
0100
0000
0010
0000
1000
,  // measure 186
0000
0001
0000
0010
0000
0001
0000
1000
,  // measure 187
0000
0100
0000
0010
0000
1000
0000
0001
,  // measure 188
0000
0100
0000
0010
0000
1000
0000
0001
,  // measure 189
0000
1000
0000
0010
0000
0001
0000
0100
,  // measure 190
0000
0010
0000
0001
0000
0100
0000
1000
,  // measure 191
0000
0100
0000
0010
0000
0001
0000
0100
,  // measure 192
0000
0100
0000
0100
0000
0010
0000
1000
,  // measure 193
0000
0010
0000
0100
0000
1000
0000
0010
,  // measure 194
0000
0010
0000
1000
0000
0100
0000
1000
,  // measure 195
0000
1000
0000
0010
0000
1000
0000
0010
,  // measure 196
0000
1000
0000
0010
0000
0100
0000
1000
,  // measure 197
0000
2002
0000
0000
,  // measure 198
0000
0000
0000
0000
,  // measure 199
3003
0000
0000
0100
0000
0010
0000
0001
,  // measure 200
0000
0100
0000
0010
0000
0001
0000
0100
,  // measure 201
0000
0010
0000
0001
0000
0010
0000
0100
,  // measure 202
0000
0001
0000
0100
0000
0001
0000
0001
,  // measure 203
0000
0010
0000
0010
0000
1000
0000
0100
,  // measure 204
0000
0010
0000
0001
0000
0100
0000
0100
,  // measure 205
0000
0001
0000
0100
0000
1000
0000
0001
,  // measure 206
0000
0010
0000
0100
0000
1000
0000
0010
,  // measure 207
0000
0100
0000
0100
0000
0100
0000
0001
,  // measure 208
0000
0001
0000
0001
0000
0010
0000
0001
,  // measure 209
0000
0010
0000
1000
0000
0010
0000
0001
,  // measure 210
0000
0001
0000
0100
0000
0010
0000
1000
,  // measure 211
0000
0100
0000
0010
0000
0010
0000
0100
,  // measure 212
0000
0100
0000
0010
0000
0100
0000
1000
,  // measure 213
0000
1000
0000
0100
0000
0100
0000
0001
,  // measure 214
0000
0100
0000
0001
0000
0100
0000
0001
,  // measure 215
0000
0100
0000
0001
0000
0100
0000
0001
,  // measure 216
0000
0100
0000
0001
0000
0100
0000
1000
,  // measure 217
0000
0010
0000
0001
0000
0100
0000
0010
,  // measure 218
0000
0001
0000
0100
0000
1000
0000
0100
,  // measure 219
0000
0010
0000
0100
0000
0010
0000
1000
,  // measure 220
0000
0010
0000
0001
0000
0100
0000
1000
,  // measure 221
0000
0022
0000
0000
,  // measure 222
0000
0000
0000
0000
,  // measure 223
0000
0000
0000
0000
,  // measure 224
0000
0000
0033
0000
0000
0100
0000
0010
,  // measure 225
0000
0100
0000
0010
0000
0100
0000
1000
,  // measure 226
0000
0100
0000
0010
0000
0100
0000
0100
,  // measure 227
0000
0010
0000
0010
0000
0100
0000
0001
,  // measure 228
0000
0100
0000
1000
0000
0010
0000
0100
,  // measure 229
0000
0001
0000
1000
0000
0100
0000
0010
,  // measure 230
0000
0010
0000
0100
0000
0001
0000
0100
,  // measure 231
0000
0100
0000
0010
0000
0100
0000
1000
,  // measure 232
0000
0100
0000
0010
0000
1000
0000
0100
,  // measure 233
0000
1000
0000
0010
0000
0001
0000
0100
,  // measure 234
0000
1000
0000
0010
0000
0100
0000
1000
,  // measure 235
0000
0010
0000
0001
0000
0100
0000
1000
,  // measure 236
0000
0010
0000
0100
0000
0010
0000
0100
,  // measure 237
0000
0100
0000
2002
0000
0000
0000
0000
,  // measure 238
0000
0000
0000
0000
,  // measure 239
0000
0000
0000
0000
,  // measure 240
0000
0000
0000
3003
0000
0100
0000
1000
,  // measure 241
0000
0001
0000
0010
0000
1000
0000
0100
,  // measure 242
0000
1000
0000
0010
0000
1000
0000
0100
,  // measure 243
0000
0001
0000
0010
0000
0100
0000
0100
,  // measure 244
0000
0001
0000
0100
0000
0001
0000
1000
,  // measure 245
0000
0001
0000
0000
2002
0000
0000
0000
,  // measure 246
0000
0000
0000
0000
,  // measure 247
0000
0000
0000
0000
,  // measure 248
3003
0000
0000
2000
0000
0000
0000
3200
,  // measure 249
0000
0000
0000
0320
0000
0000
0000
0000
,  // measure 250
0000
0000
0000
0000
,  // measure 251
0000
0000
2032
0000
,  // measure 252
0000
0000
0000
0000
,  // measure 253
3003
0000
0000
1000
0001
1000
0010
1000
,  // measure 254
0100
1000
0010
1000
0001
1000
0010
1000
,  // measure 255
0100
1000
0010
1000
0001
1000
0010
1000
,  // measure 256
0100
1000
0010
1000
0001
1000
0010
1000
,  // measure 257
0100
1000
0010
1000
0001
1000
0010
1000
,  // measure 258
0100
1000
0010
1000
0001
1000
0010
1000
,  // measure 259
0100
0000
0000
1100
0000
1100
0000
0011
,  // measure 260
0000
0011
0000
0110
0000
0110
0000
1001
,  // measure 261
0000
1001
0000
1000
0001
1000
0010
1000
,  // measure 262
0100
1000
0010
1000
0001
1000
0010
1000
,  // measure 263
0100
1000
0010
1000
0001
1000
0010
1000
,  // measure 264
0100
1000
0010
1000
0001
1000
0010
1000
,  // measure 265
0100
1000
0010
1000
0001
1000
0010
1000
,  // measure 266
0100
1000
0010
1000
0001
1000
0010
1000
,  // measure 267
0100
0000
0000
1100
0000
1100
0000
0011
,  // measure 268
0000
0011
0000
0110
0000
0110
0000
1001
,  // measure 269
0000
1001
0000
1000
0001
1000
0010
1000
,  // measure 270
0100
1000
0010
1000
0001
1000
0010
1000
,  // measure 271
0100
1000
0010
1000
0001
1000
0010
1000
,  // measure 272
0100
1000
0010
1000
0001
1000
0010
1000
,  // measure 273
0100
1000
0010
1000
0001
1000
0010
1000
,  // measure 274
0100
1000
0010
1000
0001
1000
0010
1000
,  // measure 275
0000
1100
1100
0011
,  // measure 276
0011
0110
0110
1001
,  // measure 277
1001
0000
0000
1000
0001
1000
0010
1000
,  // measure 278
0100
1000
0010
1000
0001
1000
0010
1000
,  // measure 279
0100
1000
0010
1000
0001
1000
0010
1000
,  // measure 280
0100
1000
0010
1000
0001
1000
0010
1000
,  // measure 281
0100
1000
0010
1000
0001
1000
0010
1000
,  // measure 282
0100
1000
0010
1000
0001
1000
0010
1000
,  // measure 283
0000
1100
1100
0011
,  // measure 284
0011
0110
0110
1001
,  // measure 285
1001
1100
1100
0011
,  // measure 286
0011
0110
0110
1001
,  // measure 287
1001
0000
0000
0000
0000
2002
0000
0000
0000
0000
0000
0000
0000
0000
0000
0000
,  // measure 288
0000
0000
0000
0000
,  // measure 289
0000
0000
0000
0000
0000
3003
0000
0000
1000
0000
0001
0000
1000
0000
0010
0000
,  // measure 290
1000
0100
1000
0010
1000
0001
1000
0010
,  // measure 291
1000
0100
1000
0010
1000
0001
1000
0010
,  // measure 292
1000
0100
1000
0010
1000
0001
1000
0010
,  // measure 293
1000
0100
1000
0010
1000
0001
1000
0010
,  // measure 294
1000
0100
1000
0010
1000
0001
1000
0010
,  // measure 295
1000
0100
1000
0010
1000
0001
1000
0010
,  // measure 296
1000
0100
1000
0010
1000
0001
1000
0010
,  // measure 297
1000
0000
0000
0000
0000
0000
0000
0000
0000
0000
0000
2002
0000
0000
0000
0000
0000
0000
0000
0000
0000
0000
0000
0000
0000
0000
0000
0000
0000
0000
0000
0000
,  // measure 298
0000
0000
0000
0000
0000
0000
0000
0000
0000
0000
0000
3003
0000
0000
0000
0000
;
