#TITLE:Dancing Junk;
#SUBTITLE:(Short Edit);
#ARTIST:あむろなみえ;
#TITLETRANSLIT:;
#SUBTITLETRANSLIT:;
#ARTISTTRANSLIT:Namie Amuro;
#CREDIT:;
#BANNER:Dancing Junk (Short Edit).png;
#BACKGROUND:Dancing Junk (Short Edit)-bg.png;
#LYRICSPATH:Dancing Junk (Short Edit).lrc;
#CDTITLE:Dj DMA Original Simfile.png;
#MUSIC:Dancing Junk (Short Edit).mp3;
#OFFSET:0.020;
#SAMPLESTART:45.205;
#SAMPLELENGTH:12.000;
#SELECTABLE:YES;
#BPMS:0.000=106.100,80.000=106.000;
#STOPS:;
#BGCHANGES:;
// cache tags:
#FIRSTBEAT:0.000;
#LASTBEAT:120.000;
#SONGFILENAME:Songs/toune/Dancing Junk (Short Edit)/Dancing Junk (Short Edit).sm;
#HASMUSIC:1;
#HASBANNER:1;
#MUSICLENGTH:69.616;
// end cache tags

//---------------dance-single - ----------------
#NOTES:
     dance-single:
     :
     Hard:
     7:
     0.427,0.451,0.546,0.000,0.014,170.000,38.000,0.000,0.000,0.000:
0000
0000
0000
0000
,
0000
0000
0000
0000
,
0110
0000
1001
0000
,
0110
1001
0110
1001
,
1000
0010
1000
0010
1000
0000
0001
0000
,
0000
0001
0100
1000
0010
1000
0010
0000
,
0100
0101
0010
1010
,
0001
0100
1000
0010
1010
0000
0110
0000
,
0010
0001
0010
1000
0010
0000
1010
0000
,
0100
0000
0110
0000
0010
0001
0100
0000
,
1000
0010
1000
0000
1010
0000
0110
0000
,
0010
0001
0100
1000
0010
1000
0010
1000
,
1010
0100
0110
0010
0011
0001
0101
0000
,
1000
0010
1000
0000
0001
1000
0010
1000
,
1010
0000
0110
0000
0011
0000
0001
0100
,
1000
0100
0001
0100
1000
0010
1000
0010
,
0100
0010
0011
0001
0101
1000
1100
1000
,
0010
1000
0010
1000
0010
0010
0010
0010
,
0101
1000
1010
0100
,
0110
0000
0010
0001
0010
1000
0010
1000
,
1000
0010
1000
0000
0100
0001
1000
0010
,
1010
0000
0110
0000
0010
0001
0010
0000
,
1000
0010
1000
0010
0100
0010
0001
0010
,
0010
0001
0010
0001
0010
1000
0010
0100
,
0110
1000
1010
0100
0101
0010
0011
0001
,
0100
0000
1000
0000
1100
1000
0010
1000
,
0010
0100
0010
0001
0010
0000
0001
0000
,
0011
0000
0110
0000
1001
0000
0001
0100
,
1000
0010
1000
0000
0100
0000
0001
1000
,
0010
0000
0000
0100
0000
0000
0000
0000
0010
0000
0000
0100
0000
0000
1010
0000
;

//---------------dance-single - ----------------
#NOTES:
     dance-single:
     :
     Challenge:
     8:
     0.575,0.536,0.804,0.000,0.065,224.000,56.000,0.000,0.000,0.000:
1010
0100
0001
0010
,
1000
0100
1000
0010
,
0101
1000
1010
0100
,
0101
1000
1010
0100
0110
0010
0011
0001
,
0001
0100
1000
0100
0001
1000
0010
1000
,
1010
0100
0010
0100
0010
1000
0001
0010
,
0011
0001
0100
1000
0100
0001
0100
0001
,
0101
1000
0010
1000
1010
0100
0010
1000
,
1010
0100
0010
0001
0010
1000
0010
0100
,
0110
0010
0001
0010
1000
0001
0100
1000
,
1100
0001
0100
0010
0011
0001
0100
1000
,
1100
0001
0101
0001
0011
0001
0101
1000
,
1100
0100
1010
0100
0110
0100
0101
0001
,
0010
1000
0010
1000
0010
0100
0010
1000
,
1010
0000
0101
0000
0110
0000
0001
0100
,
1000
0100
0001
0100
1000
1010
0100
0110
,
0010
0011
0001
0101
0100
1100
0100
0101
,
0100
0010
1000
0010
1010
0100
0011
0001
,
0110
0010
1000
0001
0100
1000
1000
0010
,
0100
0000
1000
0000
0001
0000
0010
0000
1000
0000
0010
0000
0001
0100
1000
0001
,
0100
1100
0010
1000
1010
0100
0110
0010
,
0011
0000
0001
0000
0100
0000
0101
0000
0001
0100
1000
0100
0010
0000
0001
0000
,
0101
1000
1010
0100
0110
1000
0010
1000
,
0101
1000
1010
0100
0110
1000
1010
0100
,
0001
0100
1000
0010
1000
0010
0100
0010
,
1000
0000
0010
0000
0100
0000
0010
0000
0010
0001
0010
0100
1000
0000
1000
0000
,
1010
0100
0110
0010
0001
0011
0001
0100
,
0101
0000
1100
0000
0110
0000
1000
0010
,
1000
0000
0010
0000
0100
0000
0010
0000
0001
0000
0000
1000
0000
0000
0010
0000
,
0100
0000
0000
0010
0000
0000
0000
0000
0110
0000
0000
0011
0000
0000
1100
0000
;

//---------------dance-single - ----------------
#NOTES:
     dance-single:
     :
     Medium:
     5:
     0.326,0.323,0.431,0.014,0.000,128.000,30.000,1.000,0.000,0.000:
0000
0000
0000
0000
,
0000
0000
0000
0000
,
0101
0000
1010
0000
,
0110
0000
1001
0000
0010
0000
0010
0100
,
1000
0001
1000
0010
,
1000
0010
1000
0000
0100
0001
0100
0000
,
0100
0010
0100
0000
0010
1000
0010
0000
,
0010
0000
0011
0000
0001
0100
1000
0000
,
1000
0010
0100
0000
0100
0001
0010
0000
,
0010
0000
0011
0000
0001
0100
1000
0000
,
1000
0010
0100
0010
,
0001
0000
0011
0000
0100
0010
1000
0000
,
1010
0100
0011
0001
,
0101
1000
0010
1000
,
1010
0110
0001
1000
,
0010
0000
0100
0000
0001
0100
1000
0000
,
0010
1000
0010
0100
,
0011
0000
0001
0000
0100
0010
1000
0010
,
1000
0100
0010
0001
,
0010
0011
0101
1100
,
1000
0010
0100
0001
,
0011
0000
1000
0000
0010
0100
0010
0000
,
1000
1001
1000
0010
,
1010
0110
0010
0011
,
0001
0100
1000
0000
1000
0010
0100
0000
,
1010
0000
0110
0000
1000
0001
1000
0000
,
1010
0110
0001
0001
,
0011
0000
0101
0000
1100
0000
1000
0010
,
1000
0000
0001
0100
1000
0000
0010
0000
,
1010
0100
0021
0000
,
0030
0000
0000
0000
;

//---------------dance-single - ----------------
#NOTES:
     dance-single:
     :
     Easy:
     3:
     0.230,0.302,0.215,0.029,0.000,95.000,15.000,2.000,0.000,0.000:
0000
0000
0000
0000
,
0000
0000
0000
0000
,
0010
0000
0001
0000
,
1000
0010
0100
0001
,
1000
0001
1000
0010
,
0100
0010
0100
0010
,
0100
0001
0000
1000
,
0000
0010
0000
0100
,
0000
0001
0000
1000
,
0000
0010
0000
0001
,
0000
0100
0000
1000
,
0000
0010
0000
0001
,
0101
1000
1010
0100
,
0110
0010
0011
0001
,
0101
1000
0010
1000
,
0000
0010
0000
0100
,
0011
0001
0101
1000
,
1010
0100
0110
0010
,
1001
0100
1010
0100
,
0011
0001
0100
1000
,
1000
0010
1000
0010
,
0100
0010
0001
0010
,
0100
0010
1000
0010
,
1000
0010
0100
0001
,
0010
0001
0010
0100
,
0001
1000
0001
1000
,
0010
1000
0010
1000
,
1010
0110
0101
1000
,
0010
1000
0001
1000
,
0002
0000
0000
0003
2000
0000
0000
0000
,
3000
0000
0000
0000
;
