#TITLE:Paranoia KCET Revolution;
#SUBTITLE:;
#ARTIST:2MB vs. 190' vs. 200 vs. XP;
#TITLETRANSLIT:;
#SUBTITLETRANSLIT:;
#ARTISTTRANSLIT:;
#CREDIT:;
#BANNER:PARANOiA KCET Revolution-banner.png;
#BACKGROUND:PARANOiA KCET Revolution-bg.png;
#LYRICSPATH:;
#CDTITLE:;
#MUSIC:Paranoia KCET Revolution.mp3;
#OFFSET:-2.740;
#SAMPLESTART:2.753;
#SAMPLELENGTH:12.000;
#SELECTABLE:YES;
#BPMS:0.000=180.000;
#STOPS:;
#BGCHANGES:;
// cache tags:
#FIRSTBEAT:0.000;
#LASTBEAT:275.000;
#SONGFILENAME:Songs/toune 2/Paranoia KCET Revolution/Paranoia KCET Revolution.sm;
#HASMUSIC:1;
#HASBANNER:1;
#MUSICLENGTH:96.914;
// end cache tags

//---------------dance-single - ----------------
#NOTES:
     dance-single:
     :
     Easy:
     6:
     0.587,0.629,1.000,0.000,0.000,256.000,142.000,0.000,0.000,0.000:
1001
0010
0100
1000
,
1001
0100
0010
0001
,
0110
0100
1000
0001
,
0110
0010
0001
1000
,
1010
0101
0011
1100
,
1001
0110
1001
0110
,
0100
1000
0010
0001
,
0010
0001
0100
1000
,
1001
0110
1001
0110
,
0110
1001
0110
1001
,
0010
0100
0010
0100
,
1000
0001
1000
0001
,
1010
1010
1100
1100
,
0011
0011
0101
0101
,
1010
0101
1010
0101
,
0011
1100
0011
1100
,
1001
1001
0010
0100
,
0010
0100
1001
1001
,
0110
0110
1000
0001
,
1000
0001
0110
0110
,
1010
1100
0001
0010
,
0001
0010
1100
1010
,
0101
0011
0100
1000
,
0100
1000
0011
0101
,
1001
0010
0100
0000
,
1001
0000
1000
0001
,
0000
0000
1001
0000
,
0110
1001
0000
0000
,
1000
0100
0010
0001
,
1000
0100
0010
0001
,
1000
0100
0010
0001
,
1000
0100
0010
0001
,
1001
0110
1001
0110
,
0110
1001
0110
1001
,
1010
1100
0101
0011
,
0011
0101
1100
1010
,
1001
1001
1001
1001
,
0110
0110
0110
0110
,
0110
0110
0110
0110
,
1001
1001
1001
1001
,
1010
1010
1010
1010
,
0101
0101
0101
0101
,
0011
0011
0011
0011
,
1100
1100
1100
1100
,
1001
0010
0100
0010
,
0110
1000
0001
1000
,
1001
0010
1000
0001
,
0110
1000
0010
0100
,
1001
1000
0110
0100
,
1001
0001
0110
0010
,
1001
0001
0110
0100
,
1001
1000
0110
0010
,
1001
0110
0010
0100
,
0110
1001
1000
0001
,
1001
0110
0100
0010
,
0110
1001
0001
1000
,
0110
0110
0110
1001
,
1001
1001
1001
0110
,
0110
0110
0110
1001
,
1001
1001
1001
0110
,
0010
0100
0000
0000
0000
0000
0000
0000
,
0000
0000
0000
0010
0000
0000
0100
0010
,
1000
0001
1000
0001
1000
0001
0000
0000
,
0000
0000
0000
0000
,
1000
0001
0000
0000
0000
0000
0000
0000
,
0000
0000
0000
0010
0000
0000
0010
0100
,
0001
1000
0001
1000
0001
1000
0000
0000
,
0000
0000
0000
1001
;

//---------------dance-single - ----------------
#NOTES:
     dance-single:
     :
     Hard:
     9:
     0.727,0.979,1.000,0.000,0.000,376.000,117.000,0.000,0.000,0.000:
1001
0000
0010
0100
0000
0100
0000
0100
,
1001
0000
0010
0100
0000
0001
1001
0000
,
0110
0000
0001
1000
0000
1000
0000
1000
,
0110
0000
0001
1000
0000
0010
0110
0000
,
1010
0000
0100
0001
0000
0001
0000
0001
,
0101
0000
0010
1000
0000
1000
1001
0000
,
1100
0000
0010
0001
0000
0001
0000
0001
,
0011
0000
0100
1000
0000
0100
0110
0000
,
1001
1001
1001
1001
,
0110
0110
0110
0110
,
1010
1010
0011
0011
,
1100
1100
0101
0101
,
1000
0001
1000
0001
0010
0100
0010
0100
,
1000
0010
1000
0010
0100
0001
0100
0001
,
1000
0100
1000
0100
0010
0001
0010
0001
,
0110
1001
0110
1001
,
0010
0100
0010
0100
0010
0100
0010
0100
,
1000
0001
1000
0001
1000
0001
1000
0001
,
1001
0110
1001
0110
,
1001
0000
0110
1001
0000
0000
0000
0000
,
0010
0100
1001
0000
1000
0001
0110
0000
,
0100
0010
1001
0000
0001
1000
0110
0000
,
0010
0100
0010
0100
0010
0100
0010
0100
,
1000
0001
1000
0001
1000
0001
1000
0001
,
1010
0100
0011
0100
1001
1001
1001
0000
,
1010
1010
1010
0000
0101
0101
0101
0101
,
0101
0000
0000
0000
0011
0011
0011
0000
,
1100
1100
1100
1100
1100
0000
0000
0000
,
0010
0000
0100
0010
0100
0010
1000
0001
,
0000
1001
0000
0110
0000
0110
0000
1001
,
0000
0110
0000
1001
0000
0110
0000
1001
,
0010
0000
0000
0100
0010
1000
0001
0000
,
0000
1001
0000
0100
0000
0010
0000
0100
,
0000
0010
0000
0100
0000
0010
0000
0100
,
0000
0001
0000
1000
0000
0001
0000
1000
,
1001
0110
1001
0100
0010
0100
0010
0000
,
1001
0110
0110
0110
,
0000
0000
0000
0000
,
0000
0001
1000
0000
0000
1000
0001
0000
,
1001
0110
1001
0110
,
1001
0110
0110
0110
,
0110
1001
1001
1001
,
1001
0110
0110
0110
,
0110
1001
1001
1001
,
1000
0100
0010
0001
1000
0100
0010
0001
,
1000
0100
0010
0001
1000
0100
0010
0001
,
1000
0100
0010
0001
1000
0100
0010
0001
,
1000
0100
0010
0001
1000
0100
0010
0001
,
1000
0100
0010
0001
1000
0100
0010
0001
,
1000
0100
0010
0001
1000
0100
0010
0001
,
1000
0100
0010
0001
1000
0100
0010
0001
,
1000
0100
0010
0001
1000
0100
0010
0001
,
1000
0100
0010
0001
1000
0100
0010
0001
,
1000
0100
0010
0001
1000
0100
0010
0001
,
1000
0100
0010
0001
1000
0100
0010
0001
,
1000
0100
0010
0001
1000
0100
0010
0001
,
1000
0100
0010
0001
1000
0100
0010
0001
,
1000
0100
0010
0001
1000
0100
0010
0001
,
1000
0100
0010
0001
1000
0100
0010
0001
,
1000
0100
0010
0001
1000
0100
0010
0001
,
1001
1001
0000
0000
0000
0000
0000
0000
,
0000
0000
0000
0110
0000
1001
0110
0000
,
1001
1001
1010
1100
0011
0101
0000
0000
,
0000
0000
0000
0000
,
0110
1001
0000
0000
0000
0000
0000
0000
,
0000
0000
0000
1001
0000
0110
1001
0000
,
0010
0100
0010
0100
0010
0100
0000
0000
,
0000
0000
0000
1001
;

//---------------dance-single - ----------------
#NOTES:
     dance-single:
     :
     Medium:
     7:
     0.606,0.629,1.000,0.000,0.000,280.000,131.000,0.000,0.000,0.000:
0011
0001
0010
0100
,
1100
1000
0100
0010
,
0011
0001
0010
0100
,
1100
1000
0100
0010
,
1001
0010
0100
0010
,
1001
0100
0010
0100
,
0110
1000
0001
1000
,
0110
0001
1000
0001
,
1001
0110
0110
1001
,
1010
0101
0011
1100
,
0010
0100
0010
0100
,
1000
0001
1000
0001
,
1010
0101
1010
0101
,
1100
0011
1100
0011
,
1000
0100
0010
0001
1000
0100
0010
0001
,
1000
0100
0010
0001
1000
0100
0010
0001
,
0010
0100
0010
0100
0010
0100
0010
0100
,
0010
0100
0010
0100
0010
0100
0000
0000
,
1001
1001
1001
1001
,
0110
0110
0110
0000
,
1000
0001
1000
0001
1000
0001
1000
0001
,
1000
0001
1000
0001
1000
0001
0000
0000
,
0110
0110
0110
0110
,
1001
1001
1001
0000
,
1001
1001
1001
0000
,
1010
0000
0101
1010
,
0000
0000
1001
0000
,
0011
1100
0000
0000
,
1001
1001
0110
0110
,
1010
1100
0011
0101
,
1001
1001
0110
0110
,
1000
0100
0010
0001
1000
0100
0010
0001
,
1001
1001
1001
1001
,
1001
1001
1001
1001
,
0110
0110
0110
0110
,
0001
0010
0100
1000
0001
0010
0100
1000
,
1001
0110
0110
0110
,
0011
1100
0011
1100
,
1001
0010
0100
0000
0110
1000
0001
0000
,
1001
0110
0110
1001
,
1001
0000
0000
0000
,
0110
0000
0000
0000
,
1001
0000
0000
0000
,
0110
0000
0000
0000
,
0011
0100
1000
0100
,
1100
0010
0001
0010
,
0101
0010
1000
0010
,
1010
0100
0001
0100
,
1001
0010
0100
0010
,
1010
0000
0101
0000
0000
0001
1000
0000
,
1001
0110
0110
0110
,
1001
0000
1001
0000
0000
1000
0001
0000
,
0110
0110
0110
0110
,
0110
0110
0110
0110
,
1001
1001
1001
1001
,
1001
1001
1001
1001
,
1010
1010
0011
0011
,
0101
0101
1100
1100
,
1000
0100
0010
0001
1000
0100
0010
0001
,
1000
0100
0010
0001
1000
0100
0010
0001
,
0110
0010
0000
0000
0000
0000
0000
0000
,
0000
0000
0000
0010
0000
0100
0010
0000
,
1001
1000
0001
1000
0001
1000
0000
0000
,
0000
0000
0000
0000
,
1001
1000
0000
0000
0000
0000
0000
0000
,
0000
0000
0000
0010
0000
0100
0010
0000
,
0110
0010
0100
0010
0100
0010
0000
0000
,
0000
0000
0000
1001
;

//---------------dance-double - ----------------
#NOTES:
     dance-double:
     :
     Easy:
     6:
     0.563,0.629,1.000,0.000,0.000,256.000,126.000,0.000,0.000,0.000:
10010000
00100000
01000000
10000000
,
10010000
01000000
00100000
00010000
,
01100000
01000000
10000000
00010000
,
01100000
00100000
00010000
10000000
,
01010000
00101000
00011000
01100000
,
01001000
00110000
01001000
00110000
,
00100000
01000000
00010000
00001000
,
00010000
00001000
00100000
01000000
,
00100000
00011000
00100000
00011000
,
00011000
00100000
00011000
00100000
,
00001000
00010000
00001000
00010000
,
00100000
00000100
00100000
00000100
,
00010100
00010100
00011000
00011000
,
00000110
00000110
00001010
00001010
,
00010100
00001010
00010100
00001010
,
00000110
00011000
00000110
00011000
,
00001001
00001001
00000010
00000100
,
00000010
00000100
00001001
00001001
,
00000110
00000110
00001000
00000001
,
00001000
00000001
00000110
00000110
,
00010100
00011000
00000010
00000100
,
00000010
00000100
00011000
00010100
,
00001010
00000110
00001000
00010000
,
00001000
00010000
00000110
00001010
,
00100000
00001000
00010000
00000000
,
00100000
00000000
00100000
00000100
,
00000000
00000000
00100000
00000000
,
00011000
00100000
00000000
00000000
,
01000000
00100000
00010000
00001000
,
01000000
00100000
00010000
00001000
,
01000000
00100000
00010000
00001000
,
01000000
00100000
00010000
00001000
,
10010000
01100000
10010000
01100000
,
01100000
10010000
01100000
10010000
,
10100000
11000000
01010000
00110000
,
00110000
01010000
11000000
10100000
,
01001000
01001000
01001000
01001000
,
00110000
00110000
00110000
00110000
,
00110000
00110000
00110000
00110000
,
01001000
01001000
01001000
01001000
,
00101000
00101000
00101000
00101000
,
00010100
00010100
00010100
00010100
,
00001100
00001100
00001100
00001100
,
00110000
00110000
00110000
00110000
,
00010010
00000100
00001000
00000100
,
00001100
00010000
00000010
00010000
,
00010010
00000100
00010000
00000010
,
00001100
00010000
00000100
00001000
,
00001001
00001000
00000110
00000100
,
00001001
00000001
00000110
00000010
,
00001001
00000001
00000110
00000100
,
00001001
00001000
00000110
00000010
,
00010010
00001100
00000100
00001000
,
00001100
00010010
00010000
00000010
,
00010010
00001100
00001000
00000100
,
00001100
00010010
00000010
00010000
,
00011000
00011000
00011000
00100000
,
00100000
00100000
00100000
00011000
,
00011000
00011000
00011000
00100000
,
00100000
00100000
00100000
00011000
,
00010000
00100000
00000000
00000000
00000000
00000000
00000000
00000000
,
00000000
00000000
00000000
00010000
00000000
00000000
00100000
00010000
,
01000000
00001000
01000000
00001000
01000000
00001000
00000000
00000000
,
00000000
00000000
00000000
00000000
,
10000000
00010000
00000000
00000000
00000000
00000000
00000000
00000000
,
00000000
00000000
00000000
00100000
00000000
00000000
00100000
01000000
,
00010000
10000000
00010000
10000000
00010000
10000000
00000000
00000000
,
00000000
00000000
00000000
10010000
;

//---------------dance-double - ----------------
#NOTES:
     dance-double:
     :
     Medium:
     7:
     0.594,0.629,1.000,0.000,0.000,280.000,123.000,0.000,0.000,0.000:
00110000
00010000
00100000
01000000
,
11000000
10000000
01000000
00100000
,
00110000
00010000
00100000
01000000
,
11000000
10000000
01000000
00100000
,
01001000
00010000
00100000
00010000
,
01001000
00100000
00010000
00100000
,
00110000
01000000
00001000
01000000
,
00110000
00001000
01000000
00001000
,
00100000
00011000
00011000
00100000
,
00101000
00010100
00001100
00110000
,
00001000
00010000
00001000
00010000
,
00100000
00000100
00100000
00000100
,
00010100
00001010
00010100
00001010
,
00011000
00000110
00011000
00000110
,
00010000
00001000
00000100
00000010
00010000
00001000
00000100
00000010
,
00010000
00001000
00000100
00000010
00010000
00001000
00000100
00000010
,
00000010
00000100
00000010
00000100
00000010
00000100
00000010
00000100
,
00000010
00000100
00000010
00000100
00000010
00000100
00000000
00000000
,
00001001
00001001
00001001
00001001
,
00000110
00000110
00000110
00000000
,
00010000
00000010
00010000
00000010
00010000
00000010
00010000
00000010
,
00010000
00000010
00010000
00000010
00010000
00000010
00000000
00000000
,
00001100
00001100
00001100
00001100
,
00010010
00010010
00010010
00000000
,
00100000
00100000
00100000
00000000
,
00101000
00000000
00010100
00101000
,
00000000
00000000
00100000
00000000
,
00001100
00110000
00000000
00000000
,
01001000
01001000
00110000
00110000
,
01010000
01100000
00011000
00101000
,
01001000
01001000
00110000
00110000
,
01000000
00100000
00010000
00001000
01000000
00100000
00010000
00001000
,
10010000
10010000
10010000
10010000
,
10010000
10010000
10010000
10010000
,
01100000
01100000
01100000
01100000
,
00010000
00100000
01000000
10000000
00010000
00100000
01000000
10000000
,
01001000
00110000
00110000
00110000
,
00011000
01100000
00011000
01100000
,
01001000
00010000
00100000
00000000
00110000
01000000
00001000
00000000
,
01001000
00110000
00110000
01001000
,
00100000
00000000
00000000
00000000
,
00011000
00000000
00000000
00000000
,
00100000
00000000
00000000
00000000
,
00011000
00000000
00000000
00000000
,
00000110
00001000
00010000
00001000
,
00011000
00000100
00000010
00000100
,
00001010
00000100
00010000
00000100
,
00010100
00001000
00000010
00001000
,
00001001
00000010
00000100
00000010
,
00001010
00000000
00000101
00000000
00000000
00000001
00001000
00000000
,
00001001
00000110
00000110
00000110
,
00001001
00000000
00001001
00000000
00000000
00001000
00000001
00000000
,
00001100
00001100
00001100
00001100
,
00001100
00001100
00001100
00001100
,
00010010
00010010
00010010
00010010
,
00010010
00010010
00010010
00010010
,
00101000
00101000
00001100
00001100
,
00010100
00010100
00110000
00110000
,
00100000
00010000
00001000
00000100
00100000
00010000
00001000
00000100
,
00100000
00010000
00001000
00000100
00100000
00010000
00001000
00000100
,
00110000
00010000
00000000
00000000
00000000
00000000
00000000
00000000
,
00000000
00000000
00000000
00010000
00000000
00100000
00010000
00000000
,
01001000
01000000
00001000
01000000
00001000
01000000
00000000
00000000
,
00000000
00000000
00000000
00000000
,
10010000
10000000
00000000
00000000
00000000
00000000
00000000
00000000
,
00000000
00000000
00000000
00100000
00000000
01000000
00100000
00000000
,
01100000
00100000
01000000
00100000
01000000
00100000
00000000
00000000
,
00000000
00000000
00000000
10010000
;

//---------------dance-double - ----------------
#NOTES:
     dance-double:
     :
     Hard:
     8:
     0.705,0.874,1.000,0.000,0.000,376.000,102.000,0.000,0.000,0.000:
10010000
00000000
00100000
01000000
00000000
01000000
00000000
01000000
,
10010000
00000000
00100000
01000000
00000000
00010000
10010000
00000000
,
01100000
00000000
00010000
10000000
00000000
10000000
00000000
10000000
,
01100000
00000000
00010000
10000000
00000000
00100000
01100000
00000000
,
01010000
00000000
00100000
00001000
00000000
00001000
00000000
00001000
,
00101000
00000000
00010000
01000000
00000000
01000000
01001000
00000000
,
01100000
00000000
00010000
00001000
00000000
00001000
00000000
00001000
,
00011000
00000000
00100000
01000000
00000000
00100000
00110000
00000000
,
00100000
00100000
00100000
00100000
,
00011000
00011000
00011000
00011000
,
00101000
00101000
00001100
00001100
,
00110000
00110000
00010100
00010100
,
00010000
00000010
00010000
00000010
00000100
00001000
00000100
00001000
,
00010000
00000100
00010000
00000100
00001000
00000010
00001000
00000010
,
00010000
00001000
00010000
00001000
00000100
00000010
00000100
00000010
,
00001100
00010010
00001100
00010010
,
00000010
00000100
00000010
00000100
00000010
00000100
00000010
00000100
,
00001000
00000001
00001000
00000001
00001000
00000001
00001000
00000001
,
00001001
00000110
00001001
00000110
,
00001001
00000000
00000110
00001001
00000000
00000000
00000000
00000000
,
00000100
00001000
00010010
00000000
00010000
00000010
00001100
00000000
,
00001000
00000100
00010010
00000000
00000010
00010000
00001100
00000000
,
00000100
00001000
00000100
00001000
00000100
00001000
00000100
00001000
,
00010000
00000010
00010000
00000010
00010000
00000010
00010000
00000010
,
00101000
00010000
00001100
00010000
00100000
00100000
00100000
00000000
,
00101000
00101000
00101000
00000000
00010100
00010100
00010100
00010100
,
00010100
00000000
00000000
00000000
00001100
00001100
00001100
00000000
,
00110000
00110000
00110000
00110000
00110000
00000000
00000000
00000000
,
00010000
00000000
00100000
00010000
00100000
00010000
01000000
00001000
,
00000000
01001000
00000000
00110000
00000000
00110000
00000000
01001000
,
00000000
00110000
00000000
01001000
00000000
00110000
00000000
01001000
,
00010000
00000000
00000000
00100000
00010000
01000000
00001000
00000000
,
00000000
10010000
00000000
01000000
00000000
00100000
00000000
01000000
,
00000000
00100000
00000000
01000000
00000000
00100000
00000000
01000000
,
00000000
00010000
00000000
10000000
00000000
00010000
00000000
10000000
,
10010000
01100000
10010000
01000000
00100000
01000000
00100000
00000000
,
01001000
00110000
00110000
00110000
,
00000000
00000000
00000000
00000000
,
00000000
00001000
01000000
00000000
00000000
01000000
00001000
00000000
,
01001000
00110000
01001000
00110000
,
00100000
00011000
00011000
00011000
,
00011000
00100000
00100000
00100000
,
00100000
00011000
00011000
00011000
,
00011000
00100000
00100000
00100000
,
00010000
00001000
00000100
00000010
00010000
00001000
00000100
00000010
,
00010000
00001000
00000100
00000010
00010000
00001000
00000100
00000010
,
00010000
00001000
00000100
00000010
00010000
00001000
00000100
00000010
,
00010000
00001000
00000100
00000010
00010000
00001000
00000100
00000010
,
00001000
00000100
00000010
00000001
00001000
00000100
00000010
00000001
,
00001000
00000100
00000010
00000001
00001000
00000100
00000010
00000001
,
00001000
00000100
00000010
00000001
00001000
00000100
00000010
00000001
,
00001000
00000100
00000010
00000001
00001000
00000100
00000010
00000001
,
00010000
00001000
00000100
00000010
00010000
00001000
00000100
00000010
,
00010000
00001000
00000100
00000010
00010000
00001000
00000100
00000010
,
00010000
00001000
00000100
00000010
00010000
00001000
00000100
00000010
,
00010000
00001000
00000100
00000010
00010000
00001000
00000100
00000010
,
00100000
00010000
00001000
00000100
00100000
00010000
00001000
00000100
,
00100000
00010000
00001000
00000100
00100000
00010000
00001000
00000100
,
00100000
00010000
00001000
00000100
00100000
00010000
00001000
00000100
,
00100000
00010000
00001000
00000100
00100000
00010000
00001000
00000100
,
01001000
01001000
00000000
00000000
00000000
00000000
00000000
00000000
,
00000000
00000000
00000000
00110000
00000000
01001000
00110000
00000000
,
01001000
01001000
01010000
01100000
00011000
00101000
00000000
00000000
,
00000000
00000000
00000000
00000000
,
01100000
10010000
00000000
00000000
00000000
00000000
00000000
00000000
,
00000000
00000000
00000000
10010000
00000000
01100000
10010000
00000000
,
00100000
01000000
00100000
01000000
00100000
01000000
00000000
00000000
,
00000000
00000000
00000000
10010000
;

//---------------dance-single - ----------------
#NOTES:
     dance-single:
     :
     Challenge:
     10:
     0.772,0.922,0.795,0.526,0.046,396.000,77.000,51.000,0.000,0.000:
2000
0000
0100
0010
0000
0001
0000
3001
,
0002
0000
0010
0100
0000
1000
0200
0303
,
0020
0000
0100
1000
0000
0001
0000
0031
,
0200
0000
1000
0001
0000
0001
2000
3300
,
0012
0000
0010
0010
0000
0100
0000
0103
,
0020
0000
0100
1000
0000
0100
0002
0033
,
2100
0000
0100
0010
0000
0100
0000
3010
,
0201
0000
0001
0010
0000
0010
0002
0303
,
1001
0000
0010
0110
0100
0110
0010
0110
,
1000
0100
0010
0001
0000
0002
2000
3003
,
0000
0000
0100
0110
0010
0110
0100
0110
,
0001
0010
0100
1000
0000
2000
0002
3003
,
1001
0100
0110
1001
1000
0110
0010
1001
,
1000
0110
0110
0001
1000
0110
0110
0001
,
0001
0010
0110
1001
0001
0110
0100
1001
,
0001
0010
0110
1001
0001
0110
0110
0000
,
2002
0000
3003
0110
,
0110
0000
0000
0200
0000
0000
0020
0330
,
2002
0000
3003
0110
,
0110
0000
0000
0020
0000
0000
0200
0330
,
2000
0100
0010
0100
3010
0100
0110
0100
,
0110
0000
0000
0020
0000
0000
0200
0330
,
0100
0010
0100
0010
0100
0010
0100
0010
0100
0010
0100
0010
0100
0000
0000
0000
,
1100
1010
0011
0101
,
1000
0100
0010
0001
0010
0100
1000
0000
,
0100
0010
0001
0000
0010
0100
1000
0100
,
0010
0000
0000
0000
0001
0010
0100
0000
,
1000
0100
0010
0001
0010
0000
0000
0000
,
1001
0000
0110
0110
1000
0100
0010
0001
,
1000
0100
0010
0001
1000
0100
0010
0001
,
1001
0000
0110
0000
1001
0000
0000
1001
,
1001
0000
0000
1000
0001
0001
1000
0000
,
0000
0110
0000
1001
0000
0010
0010
0000
,
1100
0000
0011
1000
0100
0010
0001
0000
,
0000
0100
0010
0000
0000
0010
0100
0000
,
1000
0100
0010
0001
0010
0100
1000
0000
1001
0000
0000
0000
1001
0000
0000
0000
,
0110
0000
1001
1001
0001
0010
0100
1000
,
0001
0010
0100
1000
0001
0010
0100
0000
,
0000
0011
1100
0000
0000
1100
0011
0000
,
0000
0000
0020
0100
0000
0200
0330
0000
,
0000
0020
0000
0200
0000
0330
0000
0000
,
2002
0000
0000
0000
0000
0000
0000
3003
,
0220
0000
0000
0000
0000
0000
0000
0330
,
2002
0000
0000
0000
0000
0000
0000
3003
,
0010
0100
0010
0100
0010
0100
0010
0100
,
1000
0001
1000
0001
1000
0001
1000
0001
,
0100
0010
0100
0010
0100
0010
0100
0010
,
0001
1000
0001
1000
0001
1000
0001
1000
,
0010
0100
0010
0100
0010
0100
0010
0100
,
1000
0001
1000
0001
1000
0001
1000
0001
,
0100
0010
0100
0010
0100
0010
0100
0010
,
0001
1000
0001
1000
0001
1000
0001
1000
,
1000
0100
0010
0001
1000
0100
0010
0001
,
1000
0100
0010
0001
1000
0100
0010
0001
,
1000
0100
0010
0001
1000
0100
0010
0001
,
1000
0100
0010
0001
1000
0100
0010
0001
,
0001
0010
0100
1000
0001
0010
0100
1000
,
0001
0010
0100
1000
0001
0010
0100
1000
,
0001
0010
0100
1000
0001
0010
0100
1000
,
0001
0010
0100
1000
0001
0010
0100
1000
,
1010
0202
0000
0303
0010
0000
0100
0000
,
0010
0000
0100
2002
3003
0020
0200
0330
,
0001
0010
0100
1000
0100
0010
0000
0000
,
1010
1100
0101
0011
,
0011
2200
0000
3300
0100
0000
0010
0000
,
0100
0000
0010
0220
0330
0002
2000
3003
,
1000
0100
0010
0001
0010
0100
0000
0000
,
1100
0011
0110
2002
,
0000
0000
0000
3003
;
