#TITLE:Egao No Mira E;
#SUBTITLE:;
#ARTIST:m1dlet;
#TITLETRANSLIT:;
#SUBTITLETRANSLIT:;
#ARTISTTRANSLIT:;
#CREDIT:Aoreo;
#BANNER:../Tachyon Delta-bn.png;
#BACKGROUND:../Tachyon Delta-bg.png;
#LYRICSPATH:;
#CDTITLE:;
#MUSIC:Egao No Mira E.ogg;
#OFFSET:0.006;
#SAMPLESTART:49.878;
#SAMPLELENGTH:12.000;
#SELECTABLE:YES;
#BPMS:0.000=249.750;
#STOPS:;
#BGCHANGES:;
// cache tags:
#FIRSTBEAT:32.000;
#LASTBEAT:496.000;
#SONGFILENAME:Songs/Tachyon Delta/Egao No Mira E - [Aoreo]/Egao No Mira E.sm;
#HASMUSIC:1;
#HASBANNER:1;
#MUSICLENGTH:120.132;
// end cache tags

//---------------dance-single - Aoreo----------------
#NOTES:
     dance-single:
     Aoreo:
     Challenge:
     18:
     1.000,1.000,0.358,0.966,1.000,1018.000,43.000,116.000,0.000,0.000:
0000
0000
0000
0000
,
0000
0000
0000
0000
,
0000
0000
0000
0000
,
0000
0000
0000
0000
,
0000
0000
0000
0000
,
0000
0000
0000
0000
,
0000
0000
0000
0000
,
0000
0000
0000
0000
,
0002
0003
2000
3000
0200
0300
0020
0030
,
0100
0000
2000
3000
0002
0003
0200
0300
,
0020
0030
0100
0000
0001
0000
1000
0000
,
0001
0000
0020
0030
0100
0000
2000
3002
,
0023
0030
0001
0000
1000
0000
0200
0300
,
0010
0000
0001
0000
0200
0300
0002
0003
,
1000
0001
1000
0001
0010
0100
0010
0100
1000
0001
1000
0010
0100
0001
0100
0010
,
1000
0010
1000
0001
0010
0100
1000
0001
0010
0001
0010
0100
1000
0001
1000
0100
,
0010
0000
0001
0000
0101
0000
0100
0001
,
0010
0100
1000
0000
0001
0000
0101
0000
,
0100
0000
0100
0000
0110
0000
0010
1000
,
0001
0010
0100
0000
1000
0000
1001
0000
,
0001
0100
0010
0000
0110
0000
0100
0001
,
1000
0100
0010
0000
0001
0000
1001
0000
,
1000
0001
1000
0001
0010
0100
0010
0100
1000
0001
1000
0010
0100
0001
0100
0010
,
1000
0010
1000
0001
0010
0100
1000
0001
0010
0001
0010
0100
1000
0001
1000
0100
,
0010
0001
1000
0100
0010
0100
1000
0001
,
0100
0000
0010
0000
0100
0000
0001
0000
1000
0000
0100
0000
0010
0000
0001
1000
,
0100
1000
0010
0100
0001
0010
0100
0010
,
0001
1000
0010
0100
0010
1000
0001
1000
,
0100
0010
0001
0100
0010
0100
0001
1000
,
0010
0000
0100
0000
0001
0000
0010
0000
0100
0000
1000
0000
0001
0000
0100
0001
,
1000
0100
0010
0100
1000
0010
0100
0001
,
0010
0100
1000
0001
0200
0000
0000
0000
,
0301
1000
0001
1000
0100
0010
0001
1000
0001
1000
0010
0100
0010
1000
0001
1000
,
0100
0010
0100
0010
0001
1000
0100
1000
0001
0100
0001
1000
0100
0010
0001
1000
,
0100
1000
0001
0100
0010
0100
0001
1000
0001
0010
0100
1000
0001
1000
0001
0010
,
0100
1000
0001
0100
0001
1000
0010
0100
0010
1000
0001
1000
0010
0000
0100
0000
,
0001
0100
0001
0100
0010
1000
0001
0100
0001
0100
0010
1000
0001
1000
0100
0010
,
0001
1000
0100
1000
0001
0010
0100
0010
0100
1000
0001
0010
0100
1000
0001
1000
,
0001
0100
0010
0100
0001
1000
0100
0010
0001
1000
0001
0100
0001
1000
0010
1000
,
0001
1000
0100
0010
0001
1000
0100
1000
0001
0000
0000
0000
0000
0000
0000
0000
,
1000
0010
0100
0001
0010
0100
0010
0001
,
1000
0100
0010
0100
1000
0001
0100
0010
,
0100
0001
1000
0100
0010
0001
1000
0001
,
0010
0000
0100
0000
1000
0000
0001
0000
0100
0000
0010
0000
0100
0000
0001
1000
,
0100
1000
0100
0010
0100
1000
0001
0010
,
0100
1000
0001
0100
0010
0100
0001
1000
,
0010
0100
0010
1000
0001
1000
0100
0010
,
0001
1000
0010
0100
0001
0000
0000
0000
,
1000
0100
0010
0100
1000
0001
0100
0010
,
1000
0001
0010
0100
1000
0010
0100
0001
,
1000
0100
0010
0001
1000
0100
1000
0001
,
0100
0000
0010
0000
0100
0000
0001
0000
1000
0000
0100
0000
0010
0000
0100
1000
,
0001
0100
0010
1000
0001
0010
0100
0010
,
0001
1000
0100
1000
0010
0100
0010
1000
,
0001
0010
0100
1000
0001
1000
0100
0010
,
0022
0033
0000
0000
0000
0000
0000
0000
2002
3003
0000
0000
0000
0000
0000
0000
,
2020
3030
0000
0000
0000
0000
0000
0000
0220
0330
0000
0000
0000
0000
0000
0000
,
0101
0001
1001
1000
,
0001
0000
1000
0000
0010
0000
0100
0000
0001
1000
0100
0010
0001
0100
0010
1000
,
0001
1000
0001
1000
0100
0010
0001
1000
0001
1000
0010
0100
0010
1000
0001
1000
,
0100
0010
0100
0010
0001
1000
0100
1000
0001
0100
0001
1000
0100
0010
0001
1000
,
0100
1000
0001
0100
0010
0100
0001
1000
0001
0010
0100
1000
0001
1000
0001
0010
,
0100
1000
0001
0100
0001
1000
0010
0100
0010
1000
0001
1000
0010
0000
0100
0000
,
0001
0100
0001
1000
0100
0010
0100
0010
0001
1000
0100
1000
0100
0010
0001
1000
,
0001
0100
0010
1000
0001
0100
0001
0010
0100
1000
0001
0010
0100
0010
0100
1000
,
0001
1000
0010
1000
0001
0100
0001
1000
0010
0100
0010
1000
0001
0010
0100
1000
,
0001
1000
0100
0010
0001
1000
0100
1000
0002
0000
0000
0000
0000
0000
0000
0000
,
1003
0001
1000
0001
0010
0100
1000
0001
1000
0001
0100
0010
0100
0001
1000
0001
,
0010
0100
0010
0100
1000
0001
0010
0001
1000
0010
1000
0001
0010
0100
1000
0001
,
0010
0001
1000
0010
0100
0010
1000
0001
1000
0100
0010
0001
1000
0001
1000
0100
,
0010
0001
1000
0010
1000
0001
0100
0010
0100
0001
1000
0001
0100
0000
0010
0000
,
1000
0010
1000
0001
0010
0100
0010
0100
1000
0001
0010
0001
0010
0100
1000
0001
,
1000
0010
0100
0001
1000
0010
1000
0100
0010
0001
1000
0100
0010
0100
0010
0001
,
1000
0001
0100
0001
1000
0010
1000
0001
0100
0010
0100
0001
1000
0100
0010
0001
,
1000
0001
0010
0100
1000
0001
0010
0001
1000
0000
0001
0000
0010
0000
0100
0000
,
2000
3000
0000
0000
0000
0000
0000
0000
2002
3003
0000
0000
0000
0000
0000
0000
,
0022
0033
0000
0000
0000
0000
0000
0000
0220
0330
0000
0000
0000
0000
0000
0000
,
2200
3300
0000
0000
0000
0000
0000
0000
2002
3003
0000
0000
0000
0000
0000
0000
,
0202
0303
0000
0000
0000
0000
0000
0000
2020
3030
0000
0000
0000
0000
0000
0000
,
0220
0330
0000
0000
0000
0000
0000
0000
0202
0303
0000
0000
0000
0000
0000
0000
,
0022
0033
0000
0000
0000
0000
0000
0000
0220
0330
0000
0000
0000
0000
0000
0000
,
4400
3300
0000
0000
0000
0000
0000
0000
2020
3030
0000
0000
0000
0000
0000
0000
,
0220
0330
0000
0000
0000
0000
0000
0000
0202
0303
0000
0000
0000
0000
0000
0000
,
2002
3003
0000
0000
0000
0000
0000
0000
0220
0330
0000
0000
0000
0000
0000
0000
,
0202
0303
0000
0000
0000
0000
0000
0000
2002
3003
0000
0000
0000
0000
0000
0000
,
2200
3300
0000
0000
0000
0000
0000
0000
0220
0330
0000
0000
0000
0000
0000
0000
,
0022
0033
0000
0000
0000
0000
0000
0000
2002
3003
0000
0000
0000
0000
0000
0000
,
2020
3030
0000
0000
0000
0000
0000
0000
0220
0330
0000
0000
0000
0000
0000
0000
,
0202
0303
0000
0000
0000
0000
0000
0000
2002
3003
0000
0000
0000
0000
0000
0000
,
4400
3300
0000
0000
0000
0000
0000
0000
0220
0330
0000
0000
0000
0000
0000
0000
,
0022
0033
0000
0000
0000
0000
0000
0000
2002
3003
0000
0000
0000
0000
0000
0000
,
2000
3000
0200
0300
2000
3000
0020
0030
,
0100
0000
0002
0003
0020
0030
0200
0300
,
1000
0001
0100
0010
,
0100
0000
0002
0003
1000
0000
0200
0320
,
0032
0003
1000
0000
0100
0000
0020
0030
,
0100
0000
1000
0000
0002
0003
0200
0300
,
0010
0100
0001
0010
,
0100
1000
0001
0100
,
0020
0030
2000
3000
0200
0300
0020
0030
,
0001
0000
2000
3000
0200
0300
0020
0030
,
0001
0100
0010
1000
,
0001
0000
0020
0030
0100
0000
2000
3002
,
0203
0300
0010
0000
0100
0000
0002
0003
,
1000
0000
0100
0000
0020
0030
0200
0300
,
1000
0001
0100
0010
,
0100
0001
1000
0100
,
1000
0001
1000
0001
0010
0100
1000
0001
1000
0001
0100
0010
0100
0001
1000
0001
,
0010
0100
0010
0100
1000
0001
0010
0001
1000
0010
1000
0001
0010
0100
1000
0001
,
0010
0001
1000
0010
0100
0010
1000
0001
1000
0100
0010
0001
1000
0001
1000
0100
,
0010
0001
1000
0010
1000
0001
0100
0010
0100
0001
1000
0001
0100
0000
0010
0000
,
1000
0010
1000
0001
0010
0100
0010
0100
1000
0001
0010
0001
0010
0100
1000
0001
,
1000
0010
0100
0001
1000
0010
1000
0100
0010
0001
1000
0100
0010
0100
0010
0001
,
1000
0001
0100
0001
1000
0010
1000
0001
0100
0010
0100
0001
1000
0100
0010
0001
,
1000
0001
0010
0100
1000
0001
0010
0001
2000
0000
0000
0000
0000
0000
0000
0000
,
3001
1000
0001
1000
0100
0010
0001
1000
0001
1000
0010
0100
0010
1000
0001
1000
,
0100
0010
0100
0010
0001
1000
0100
1000
0001
0100
0001
1000
0100
0010
0001
1000
,
0100
1000
0001
0100
0010
0100
0001
1000
0001
0010
0100
1000
0001
1000
0001
0010
,
0100
1000
0001
0100
0001
1000
0010
0100
0010
1000
0001
1000
0010
0000
0100
0000
,
0001
0100
0001
1000
0100
0010
0100
0010
0001
1000
0100
1000
0100
0010
0001
1000
,
0001
0100
0010
1000
0001
0100
0001
0010
0100
1000
0001
0010
0100
0010
0100
1000
,
0001
1000
0010
1000
0001
0100
0001
1000
0010
0100
0010
1000
0001
0010
0100
1000
,
0001
1000
0100
0010
0001
1000
0100
1000
0002
0000
0023
0000
0000
0000
0230
0000
,
0000
0000
0000
0000
,
0300
0000
0000
0000
;
