#TITLE:B4U;
#SUBTITLE:(SHD Mix);
#ARTIST:NAOKI;
#TITLETRANSLIT:;
#SUBTITLETRANSLIT:;
#ARTISTTRANSLIT:;
#CREDIT:;
#BANNER:B4U (SHD Mix).png;
#BACKGROUND:B4U (SHD Mix)-bg.png;
#LYRICSPATH:;
#CDTITLE:NVLM-cdtitle.png;
#MUSIC:B4U (SHD Mix).mp3;
#OFFSET:-0.040;
#SAMPLESTART:12.564;
#SAMPLELENGTH:12.000;
#SELECTABLE:YES;
#DISPLAYBPM:155.000;
#BPMS:0.000=155.000,206.750=1240.000,208.000=155.000;
#STOPS:206.750=0.400
;
#BGCHANGES:;
// cache tags:
#FIRSTBEAT:0.000;
#LASTBEAT:245.000;
#SONGFILENAME:Songs/toune 1 (2010)/B4U (SHD Mix)/B4U (SHD Mix).sm;
#HASMUSIC:1;
#HASBANNER:1;
#MUSICLENGTH:96.021;
// end cache tags

//---------------dance-single - ----------------
#NOTES:
     dance-single:
     :
     Hard:
     12:
     0.973,1.000,0.635,0.208,1.000,535.000,61.000,20.000,52.000,33.000:
0001
0100
0000
0100
0010
0000
0010
0001
0000
0001
1000
0000
1000
0100
0010
0100
,
0010
1000
0000
1000
0001
0000
0001
0010
0000
0010
1000
0000
1000
0100
0010
0001
,
0010
1000
0000
1000
0100
0000
0100
0001
0000
0001
0010
0000
0010
0100
1000
0000
,
0101
0000
0000
0000
1001
0000
0000
0000
1100
0000
0000
0000
0010
0001
0010
0001
,
0100
0010
1000
0200
1000
0000
0310
1000
0100
0020
0001
0000
0130
0010
1000
0001
,
0010
0100
0010
0100
1000
0000
0010
0000
0100
0001
0100
1000
0100
0001
0100
0000
,
0010
1000
0001
2000
0100
0000
3010
0001
0100
0002
1000
0000
0013
0100
0010
0010
,
1000
0100
1000
0100
0001
0010
0001
0010
0100
1000
0010
0100
0001
0010
0010
0000
,
0100
11M1
0100
11M1
,
0010
1M11
0010
1M11
,
0001
M111
0001
M111
,
1000
0000
111M
0000
1000
0000
111M
1000
,
0000
0000
0000
0000
0000
0000
0001
0010
0100
0000
0000
0100
0000
0000
0200
0000
,
0300
0000
MMMM
0000
,
0000
0000
0000
0000
0000
0000
1000
0010
0001
0000
0000
0001
0000
0000
0002
0000
,
11M3
0000
MM11
0000
1100
0011
1100
0011
,
0100
0100
0000
1000
0000
0001
0000
0010
0100
1000
0000
0001
0001
0000
0100
0000
,
0010
1000
0001
0100
0010
1000
0001
0100
0010
1000
0001
0100
0010
1000
0001
0100
,
0001
0001
0000
1000
0000
0100
0000
0010
0001
1000
0000
0010
0020
0000
0030
0000
,
0100
1000
0001
0010
0100
1000
0001
0010
0100
1000
0001
0010
0100
1000
0001
0010
,
0100
0100
0000
1000
0000
0010
0000
0100
0001
1000
0000
0010
0010
0000
0100
0000
,
0001
1000
0010
0100
0001
1000
0010
0100
0001
1000
0010
0100
0001
1000
0010
0100
,
0001
0001
0000
1000
0000
0100
0000
0010
0001
1000
0000
0100
0200
0000
0300
0000
,
0001
0010
0100
1000
0001
0010
0100
1000
0001
0010
0100
1000
0001
0010
0100
1000
,
1001
0000
0000
0000
0000
0000
0000
M111
,
M111
0000
0000
0000
0000
0000
0000
11M1
,
11M1
0000
11M1
0000
,
111M
0000
0000
0000
111M
0000
0000
0000
111M
0000
0000
1000
0001
0010
0001
0100
,
0010
0000
1000
0100
0001
0000
0100
1000
0010
0000
0100
0001
0010
0000
0001
1000
,
0100
0000
0001
0100
1000
0000
0010
0100
0001
0000
1000
0010
0001
0000
0010
1000
,
0100
0000
0001
0100
1000
0000
0001
0010
1000
0000
0010
0001
0100
0000
0010
1000
,
0001
0000
0100
1000
0100
0000
0001
0010
0100
0000
1000
0010
0001
0000
0010
1000
,
0000
11M1
0000
1M11
,
0000
M111
0000
111M
,
0000
1M11
0000
11M1
,
0000
111M
0000
M111
,
0000
0000
0000
0000
0000
0000
0001
1000
0010
0000
0000
0010
0000
0000
0020
0000
,
0030
0000
MMMM
0000
,
0000
0000
0000
0000
0000
0000
0100
0001
1000
0000
0000
1000
0000
0000
2000
0000
,
31M1
0000
1M1M
0000
0101
1010
0101
1010
,
0100
0100
0000
0001
0000
1000
0000
0010
0100
0001
0000
1000
1000
0000
0010
0000
,
0100
0001
1000
0100
0010
0001
0100
0001
1000
0100
0010
0001
0100
0001
1000
0100
,
0010
0010
0000
0001
0000
0100
0000
0010
1000
0100
0000
0001
0002
0000
0003
0000
,
1000
0100
0010
0001
0100
0010
1000
0100
0010
0001
0100
0010
1000
0100
0010
0001
,
0100
0100
0000
0010
0000
1000
0000
0001
0010
0100
0000
0001
0001
0000
1000
0000
,
0010
0100
0001
1000
0100
0010
0100
1000
0010
0100
0001
1000
0100
0010
0100
1000
,
0001
0001
0000
0100
0000
0010
0000
0001
0100
1000
0000
0100
0200
0000
0300
0000
,
0010
0001
0010
0100
1000
0001
0100
0001
0010
0001
0010
0100
1000
0001
0100
0001
,
1001
0000
0000
0000
0000
0000
0000
0000
1100
0010
0000
0001
0000
1000
0000
0010
,
0110
0000
0000
0000
0000
0000
0000
0000
1001
0010
0000
0100
0000
1000
0000
0010
,
1010
0000
0000
1000
1001
0000
0000
0001
0101
0000
0000
0100
0110
0000
0000
0010
,
1010
0000
1100
0000
0101
0000
0011
0000
1001
1000
0010
0220
0330
0000
0000
0000
,
1000
0001
0100
1000
0100
0001
1000
0010
,
0100
0001
0000
0000
0000
0000
0000
0000
0001
1000
0000
0000
0000
0000
0000
0000
1000
0010
0000
0000
0000
0000
0000
0000
0100
0001
0000
0000
1000
0010
0000
0000
,
0100
0001
0010
0100
1000
0010
0002
0003
,
0010
1000
0000
0000
0010
1000
0000
0000
0001
0100
0000
0000
0001
0100
0000
0000
1000
0100
0000
0000
1000
0100
0000
0000
0010
0001
0000
0000
0010
0001
0000
0000
,
0100
1000
0100
0010
1000
0001
0010
0100
,
1000
0001
0000
0000
0000
0000
0000
0000
0001
0100
0000
0000
0000
0000
0000
0000
0100
0010
0000
0000
0000
0000
0000
0000
0010
1000
0000
0000
0001
0010
0000
0000
,
0100
1000
0010
0100
0001
0010
0200
0300
,
10MM
0100
10MM
0100
10MM
0100
10MM
0100
10MM
0100
10MM
0100
10MM
0000
0000
0000
,
1111
1111
0000
1111
1111
1111
1111
0000
,
2222
3333
0000
0000
;

//---------------dance-single - ----------------
#NOTES:
     dance-single:
     :
     Challenge:
     15:
     1.000,1.000,0.281,0.635,1.000,749.000,27.000,61.000,0.000,4.000:
0001
0100
0000
0001
0010
0000
0010
0100
0000
1000
0001
0000
1000
0100
0010
0001
,
0010
1000
0000
0100
0001
0000
0100
0010
0000
0001
1000
0000
0001
0100
0010
0001
,
0010
1000
0000
0001
0100
0000
1000
0001
0000
0100
0010
0000
0010
0100
1000
0001
,
0001
0100
0000
0000
0010
0000
0000
0000
1000
0001
0000
0000
0100
0000
0000
0000
1000
0100
0000
0000
0001
0000
0000
0000
0010
0000
1000
0000
0010
0000
0001
0000
,
0100
0010
1000
0200
1000
0000
0310
1000
0100
0020
0001
0000
0130
0010
1000
0001
,
0010
0100
0010
1000
0010
0001
0100
0010
1000
0001
0100
1000
0100
0001
0010
0100
,
1000
1000
0001
2000
0100
0000
3010
0001
0100
0002
1000
0000
0013
0100
0010
0010
,
1000
0001
1000
0100
0001
0010
0001
0010
0100
1000
0010
0100
0001
0010
0100
1000
,
0100
0000
0000
0000
0001
0000
0000
0000
1000
0000
0000
0000
0010
0000
0000
0000
0100
0001
0100
0000
0000
0000
0001
1000
0001
0000
0000
0000
0000
0000
0000
0000
,
0100
0000
1000
0000
0000
0000
0100
0000
0001
0000
0000
0000
1000
0000
0000
0000
0010
0100
0000
0000
0001
1000
0000
0000
0100
0010
0000
0000
0000
0000
0000
0000
,
0001
0000
0000
0000
1000
0000
0000
0000
0100
0010
0000
0000
0001
0000
0000
0000
1000
0000
0000
0000
0010
0000
0000
0000
0100
0001
0000
0000
0010
0000
0000
0000
,
1000
0000
0001
0100
1000
0000
0001
0100
1000
0000
0010
0000
0100
0000
0001
0000
,
2000
0000
0000
0000
0000
0000
0001
0010
0002
0000
0003
0100
0000
0000
0200
0000
,
3300
0010
0010
0001
0001
0100
0100
0010
0010
0000
1000
1000
0000
0000
0000
0000
,
1000
0010
0001
0000
1000
0010
0001
0000
1000
0100
0001
0000
1000
0100
0001
0000
,
2000
0100
0000
0000
0000
0000
0000
0000
3020
0001
0000
0000
0000
0000
0000
0000
2030
0100
0000
0000
3020
0001
0000
0000
2030
0100
0000
0000
3020
0001
0000
0000
,
2130
0100
0000
0010
0000
0001
0000
0010
0001
0010
0000
0100
0100
0000
3001
0000
,
0010
0100
1000
0010
0001
0010
1000
0001
0010
1000
0010
0001
0100
0010
1000
0100
,
2001
0001
0000
0010
0000
0100
0000
0010
0001
0010
0000
0100
0200
0000
3300
0000
,
0001
0100
0010
0001
0010
1000
0001
0010
0100
0001
0100
0010
0001
1000
0100
1000
,
0012
0010
0000
0100
0000
1000
0000
0010
1000
0010
0000
1000
1000
0000
0103
0000
,
0010
0001
0100
1000
0100
0010
1000
0001
0010
0100
1000
0010
0100
0001
0010
0001
,
0120
0100
0000
1000
0000
0001
0000
1000
0100
1000
0000
0001
0002
0000
0033
0000
,
0100
0010
0100
1000
0001
0010
0100
1000
0010
0001
0010
1000
0001
0010
0100
1000
,
0010
0100
0001
0000
1000
1000
0000
0100
0100
0000
0010
0010
0000
0001
0001
1000
,
1000
0010
0100
0000
0001
0001
0000
0010
0010
0000
0100
0100
0000
1000
1000
0001
,
0100
0100
0010
0000
1000
1000
0000
0100
0100
0000
0010
0010
0000
0001
0001
1000
,
0010
0100
0000
0000
0001
0000
0000
0000
1000
0100
0000
0000
0010
0000
0000
0000
0001
0100
0000
0000
0000
0000
1000
0000
0001
0000
0010
0000
0001
0000
0100
0000
,
0010
0100
0000
0000
1000
0000
0100
0000
0001
0000
0000
0000
0100
0000
1000
0000
0010
0000
0000
0000
0100
0000
0001
0000
0010
0000
0100
0000
1000
0000
0010
0000
,
0100
0001
0000
0000
0001
0000
0100
0000
1000
0000
0000
0000
0010
0000
0100
0000
0001
0000
0000
0000
1000
0000
0010
0000
0001
0000
0100
0000
0010
0000
1000
0000
,
0100
0010
0000
0000
0001
0000
0100
0000
1000
0000
0000
0000
0100
0000
0010
0000
0001
0000
0000
0000
1000
0000
0001
0000
0100
0000
0001
0000
0010
0000
0100
0000
,
0001
1000
0000
0000
0100
0000
1000
0000
0100
0000
0000
0000
0001
0000
0010
0000
0100
0000
0000
0000
1000
0000
0010
0000
0001
0000
0001
0000
0010
0000
1000
0000
,
0100
0000
0010
0000
0001
0000
1000
0000
0100
0000
0010
0000
0001
0000
1000
0000
0010
0100
0000
0000
0001
0010
0000
0000
0100
1000
0000
0000
0010
0100
0000
0000
,
0001
0000
1000
0000
0001
0000
1000
0000
0001
0000
0000
0000
0100
0000
0000
0000
0001
0010
0000
0000
0100
1000
0000
0000
0001
0010
0000
0000
0100
1000
0000
0000
,
0010
0000
0001
0001
0001
0000
1000
0000
0100
0000
0010
0010
0000
0000
0000
0000
,
1000
0000
0100
0001
0100
0000
1000
0010
1000
0000
0001
0001
0000
0000
0000
0000
,
0002
0000
0000
0000
0000
0000
0100
1000
0200
0000
0300
0200
0000
0000
2300
0000
,
3003
0000
0010
0010
0000
0100
0100
0000
0001
0000
1000
1000
0000
0000
0000
0000
,
0020
0001
0000
0000
0230
0010
0000
0000
2300
0100
0000
0000
3020
0001
0000
0000
2030
0010
0000
0000
3200
0001
0000
0000
0320
0100
0000
0000
2030
0010
0000
0000
,
3002
0100
0000
0000
0000
0000
0000
0000
0023
1000
0000
0000
0000
0000
0000
0000
0032
0100
0000
0000
2003
0010
0000
0000
3200
0001
0000
0000
0320
1000
0000
0000
,
2130
0100
0000
0001
0000
0100
0000
0010
0001
0010
0000
0100
0100
0000
3010
0000
,
0100
0001
1000
0100
0010
0001
0100
0010
1000
0100
0010
0001
0100
0010
1000
0100
,
0210
0010
0000
0001
0000
1000
0000
0010
1000
0010
0000
0001
0002
0000
0303
0000
,
1000
0001
0010
0001
0100
0010
1000
0100
0001
0100
0010
0001
1000
0100
0010
0001
,
0102
0100
0000
0010
0000
0100
0000
1000
0010
1000
0000
0100
0100
0000
1003
0000
,
0010
0100
0001
1000
0100
0010
0001
1000
0010
0100
0001
1000
0100
0010
0001
1000
,
2001
0001
0000
0100
0000
0010
0000
0001
0100
0001
0000
0100
0200
0000
3300
0000
,
0010
0001
0010
0100
1000
0010
0100
0001
0010
1000
0010
0100
1000
0010
0100
0001
,
2000
0001
0000
0000
3000
0000
0000
0000
0200
0001
0000
0000
0300
0000
0000
0000
1100
0000
0010
0000
0000
0000
0001
0000
0000
0000
1000
0000
0000
0000
0010
0000
,
0200
0010
0000
0000
0300
0000
0000
0000
0200
0001
0000
0000
0300
0000
0000
0000
1001
0000
0010
0000
0000
0000
0100
0000
0000
0000
1000
0000
0000
0000
0010
0000
,
2000
0010
0000
0000
3000
0000
1000
0000
0002
1000
0000
0000
0003
0000
0001
0000
0200
0001
0000
0000
0300
0000
0100
0000
0020
0100
0000
0000
0030
0000
0010
0000
,
0020
1000
0000
0000
2030
0100
0000
0000
3200
0001
0000
0000
0301
0010
0000
0000
1001
0000
1001
0000
1001
0000
2002
0000
3003
0000
0000
0000
0000
0000
0000
0000
,
0000
0010
1000
0100
0000
0010
0001
1000
0000
0001
0010
0100
0000
1000
0010
0001
,
0100
0100
0010
1000
0001
0001
0010
0100
1000
1000
0001
0010
0100
0100
0010
0010
,
0000
1000
0100
1000
0000
0001
0010
0100
0000
1000
0001
0010
0000
0100
1000
0010
,
0100
0100
0001
0001
1000
1000
0100
0100
0010
0010
0001
0001
0100
0100
0010
0010
,
0000
0000
0000
0000
1000
0100
0000
0000
0001
0000
0000
0000
0010
0100
0000
0000
1000
0000
0000
0000
0001
0010
0000
0000
0100
0000
0000
0000
1000
0010
0000
0000
,
0001
0001
0100
0010
1000
1000
0001
0010
0100
0100
1000
0010
0100
0100
0001
0001
,
0100
0010
0000
0001
0010
0100
0000
1000
0001
0010
0000
0100
1000
0010
0000
0001
,
1000
1000
0100
0100
1000
1000
0010
0010
1000
1000
0100
0200
0000
0000
0300
0000
,
1100
0011
1100
0011
0000
0000
1100
0011
1100
0011
1100
0011
1100
0011
0000
0000
,
2222
3333
0000
0000
;

//---------------dance-double - ----------------
#NOTES:
     dance-double:
     :
     Hard:
     12:
     1.000,1.000,1.000,1.000,1.000,517.000,98.000,239.000,0.000,114.000:
00011000
00022000
00000000
00000000
00000000
00000000
00000000
00133100
,
00200200
00000000
00000000
00000000
00000000
00000000
00000000
01300310
,
02000020
00000000
00000000
13000031
20000002
00000000
00000000
30011003
,
00022000
00000000
00000000
00000000
00033220
00000000
00000000
00000000
00022330
00000000
00000000
00000000
00133000
01000000
00100000
01000000
,
10000000
00100000
10000000
00020000
00000000
00000000
00130000
01000000
00001000
00200000
00000000
00000000
01300000
00010000
10000000
00010000
,
00100000
01000000
00100000
01000000
10000000
00010000
00100000
00000000
00001000
00010000
00001000
10000000
00001000
00010000
00001000
00000000
,
00100000
00000100
00010000
00002000
00000000
00000000
00103000
00010000
01000000
00000200
00000000
00000000
00001300
00000010
00001000
00000100
,
00000010
00000001
00000010
00000001
00010000
00001000
00010000
00001000
01000000
00100000
01000000
00100000
10000000
00010000
10000000
00010000
,
02000000
00000000
00200000
00000000
00320000
00000000
00032000
03000000
,
00023020
00000000
00030200
00000000
00002300
00000000
00023000
00000030
,
22030000
00000000
03200000
00000000
00320000
00000000
00030020
30000000
,
00000232
00000000
00002300
00000000
00023000
00000000
02030000
00000003
,
23020000
00000000
00000000
00000000
30030000
00000000
00020000
00100000
02030000
20000000
03000000
32000000
00020000
03000000
02030000
20000000
,
03000000
30000000
00000000
00000000
00011000
00100100
00022000
00000000
,
00033000
00000000
00000000
00000000
00000000
00000000
00002000
00000100
00003020
00000002
00000030
00002003
00000200
00003000
00000320
00000000
,
00002032
00000000
00023203
00000000
00232300
00323200
00232300
00323200
,
02030300
00001000
00000000
00010000
00000000
00010000
03000000
00100000
10000000
00100000
00000000
00010000
02000000
00000000
03202000
00000000
,
00313000
00000100
00010000
00001000
00010000
00000100
00010000
00001000
00100000
00010000
00100000
00001000
00100000
00010000
00100000
00001000
,
02000000
00010000
00000000
00010000
00000000
00100000
03000000
10000000
00010000
10000000
00000000
00001000
00200000
00000000
00300000
00000000
,
01000000
10000000
00010000
00100000
01000000
10000000
00010000
00100000
01000000
10000000
00010000
00100000
01000000
10000000
00010000
00100000
,
00002000
01000000
00000000
10000000
00000000
00100000
00003000
01000000
00010000
01000000
00000000
00100000
00002000
00000000
00023020
00000000
,
00030130
00001000
00000010
00010000
00001000
00010000
00001000
00010000
00000100
00001000
00000100
00001000
00000010
00000100
00000001
00000010
,
00000200
00010000
00000000
00100000
00000000
01000000
00000300
00001000
00010000
00001000
00000000
01000000
00200000
00000000
00300000
00000000
,
00010000
00100000
01000000
10000000
00010000
00100000
01000000
10000000
00010000
00100000
01000000
10000000
00010000
00100000
01000000
10000000
,
10010000
20020000
00000000
00000000
00000000
00000000
00000000
31031000
,
02002000
00000000
00000000
00000000
00000000
00000000
00000000
03013010
,
00020020
00000000
00000000
00031031
00002002
00000000
00000000
00003113
,
00000220
00000000
00000000
00000000
00022330
00000000
00000000
00000000
00233200
00000000
00000000
10000000
00310300
00100000
00010000
01000000
,
00100000
00000000
10000000
01000000
00100000
00001000
01000000
00000000
00010000
00000000
00100000
00010000
00100000
00001000
00010000
00000000
,
00000100
00000000
00000010
00000001
00001000
00000000
00000100
00010000
00001000
00000000
10000000
00100000
01000000
00000000
00010000
10000000
,
01000000
00000000
00010000
01000000
00001000
01000000
00010000
00000000
00001000
00000000
00100000
00010000
01000000
00001000
00100000
00000000
,
00010000
00000000
00001000
01000000
00001000
00000000
00010000
00100000
00001000
00000000
00000100
00000010
00000001
00000000
00000100
00000010
,
00002000
00000000
00020000
00000000
00230000
00000000
02300000
00003000
,
23020000
00000000
00032000
00000000
00003200
00000000
00000320
30000000
,
00002032
00000000
00023000
00000000
02030000
00000000
03200000
00000003
,
00322000
00000000
00030200
00000000
00000320
00000000
00000032
00003000
,
00000003
00000000
00000000
00000000
00000000
00000000
00020000
10000000
00230000
02000000
00300000
03020000
00200000
00030000
02300000
20000000
,
03000000
30000000
00000000
00000000
00000000
00000000
00000000
00000000
00000110
00000000
00001001
00000000
00000220
00000000
00000000
00000000
,
00000330
00000000
00000000
00000000
00000000
00000000
02000000
00010000
23000000
02000000
30000000
03200000
00020000
00300000
20030000
00000000
,
32020000
00000000
23230000
00000000
32320000
03232000
02323000
03232000
,
02303000
00010000
00000000
00010000
00000000
00001000
03000000
00100000
00000100
00010000
00000000
00000010
00002000
00000000
00023100
00000000
,
00030100
00001000
00000010
00000100
00000001
00000010
00000100
00010000
00001000
00100000
00010000
01000000
00100000
10000000
01000000
00100000
,
00002000
00100000
00000000
00010000
00000000
01000000
00003000
00100000
10000000
01000000
00000000
00010000
00002000
00000000
00003000
00000000
,
10000000
01000000
00100000
00010000
01000000
00100000
01000000
00001000
00100000
00010000
01000000
00100000
01000000
00001000
00010000
00000100
,
00000020
00000001
00000000
00000001
00000000
00001000
00000030
00010000
00000100
00010000
00000000
00001000
00200000
00000000
20320000
00000000
,
30130000
01000000
00010000
10000000
01000000
00100000
01000000
10000000
00100000
01000000
00010000
00100000
00001000
00010000
00000010
00000100
,
00000002
00001000
00000000
00010000
00000000
00100000
00000003
00010000
00001000
01000000
00000000
00100000
20000000
00000000
30000000
00000000
,
00001000
00010000
00000100
00001000
00000100
00010000
00001000
00010000
00001000
00100000
01000000
10000000
00100000
01000000
00010000
01000000
,
00020000
00000000
00000000
00000000
02230000
00000000
00000000
00000000
13300000
00100000
00000000
00010000
00000000
00011000
00000000
00000100
,
00000020
00000000
00000000
00000000
00002032
00000000
00000000
00000000
00013003
00100000
00000000
01000000
00000000
11000000
00000000
00100000
,
00020000
00000000
00000000
00001000
00030200
00000000
00000000
00000010
00000302
00000000
00000000
00000100
00002003
00000000
00000000
00010000
,
00103000
00000000
01200000
00000000
02310000
00000000
03220000
00000000
10330000
00001000
20000000
00002000
30003000
00000000
00000000
00000000
,
20000000
00020000
00030000
00000000
32020000
00000000
03200000
00000000
02330000
00002000
00003000
00000000
23010000
00000000
30020000
00000000
,
02230000
03000000
02302000
00000000
03023200
00000300
00032100
00003210
,
00000322
00000000
00000000
00002000
00003233
00020000
00032300
00200000
00323000
02000000
03230000
00000000
22300000
00000000
33000000
00000000
,
21000000
32100000
03210000
00321000
00032100
00003210
00000312
00000223
,
00002332
00223003
20332000
30223000
,
22330000
00000000
33022000
00000000
00033022
00000000
00001233
00012300
,
00223000
10300000
20230000
00000000
32320000
03031000
02002000
03223000
,
10330000
01000000
10000000
02000000
10000000
03001000
10000000
00002000
10000000
01003000
10000000
02000000
20000000
00000000
03000000
00000000
,
30011000
00022000
00000000
01033100
01000100
01000100
02000200
00000000
,
23000302
30000003
00000000
00000000
;

//---------------dance-double - ----------------
#NOTES:
     dance-double:
     :
     Challenge:
     14:
     1.000,0.985,0.312,0.000,1.000,709.000,30.000,0.000,0.000,0.000:
10000000
01000000
00000000
00100000
00010000
00000000
01000000
00100000
00000000
10000000
00010000
00000000
00100000
01000000
00010000
00100000
,
00001000
00001000
00000000
00000100
00000010
00000000
00000001
00001000
00000000
00000100
00000010
00000000
00001000
00000100
00001000
00000100
,
01000000
00010000
00000000
00100000
01000000
00000000
10000000
00010000
00000000
01000000
00100000
00000000
00010000
00100000
00010000
00100000
,
00000100
00000000
00001000
00000000
00000101
00000000
00000000
00000000
00001010
00000000
00000000
00000000
00001000
00000100
00001000
00000100
,
10000000
00010000
10000000
00100000
01000000
00000000
00010000
00100000
01000000
00100000
00010000
00000000
10000000
00010000
10000000
00001000
,
00010000
00001000
00000100
00000010
00000001
00000100
00000010
00001000
00000100
00000010
00000001
00001000
00000100
00001000
00000010
00000000
,
00100000
00010000
01000000
00100000
01000000
00000000
00010000
00100000
01000000
10000000
00100000
00000000
01000000
00010000
00100000
00000100
,
00001000
00000100
00000010
00000001
00000010
00000001
00001000
00000010
00001000
00000100
00000010
00000100
00001000
00000001
00000010
00000100
,
00001000
00000100
00000000
00001000
00000010
00000000
00000000
00000010
00000100
00000010
00000000
00000100
00001000
00000000
00000000
00001000
,
00010000
00001000
00000000
00010000
00100000
00000000
00000000
00100000
01000000
00100000
00000000
01000000
00100000
00000000
00000000
00100000
,
00001000
00100000
00000000
00001000
00000100
00000000
00000000
00000100
00000001
00000100
00000000
00000001
00000100
00000000
00000000
00000100
,
00010000
00000100
00000000
00010000
10000000
00000000
00000000
10000000
00001000
10000000
00000000
00001000
00010000
00000000
00000000
00010000
,
00000100
00010000
00000000
00000000
00000000
00000000
00000001
00000010
00000100
00001000
00000000
00001000
00000010
00000000
00000100
00000001
,
00000000
00000000
00000000
00000000
00000000
00000000
00000000
00000000
00010000
00001000
00010000
00001000
00010000
00001000
00000000
00000000
,
00000000
00000000
00000000
00000000
00000000
00000000
10000000
01000000
00100000
00010000
00000000
00010000
01000000
00000000
00100000
10000000
,
11000000
00000000
00110000
00000000
00001100
00000011
00001100
00000011
,
00000100
00001000
00000000
00010000
00001000
00010000
00000000
00100000
00001000
00100000
00000000
00010000
00000100
00000000
00001000
00000000
,
00010000
00000100
00010000
00001000
00010000
00000100
00010000
00001000
00100000
00010000
00100000
00001000
00100000
00010000
00100000
00001000
,
00010000
00000100
00000000
00001000
00000100
00010000
00000000
00100000
00010000
00100000
00000000
00001000
00000100
00000000
00000000
00000000
,
00100000
00000100
00010000
00001000
00100000
00000100
00010000
00001000
00100000
00000100
00010000
00001000
00100000
00000100
00010000
00001000
,
00010000
00010000
00000000
00000100
00010000
00001000
00000000
00010000
00100000
00010000
00000000
00001000
00001000
00000000
00010000
00000000
,
00000100
00001000
00000100
00010000
00001000
00100000
00001000
00010000
00000100
00001000
00000100
00010000
00001000
00000100
00001000
00000100
,
00010000
00001000
00000000
00100000
00000100
00010000
00000000
00001000
00010000
00001000
00000000
00100000
00000100
00000000
00000000
00000000
,
00001000
00000100
00010000
00001000
00100000
00010000
00001000
00000100
00010000
00001000
00100000
00010000
00001000
00000100
00010000
00001000
,
00100000
01000000
10000000
00000000
00010000
00100000
00000000
00010000
01000000
00000000
00100000
10000000
00000000
01000000
00010000
00000000
,
00001000
00000100
00001000
00000000
00000010
00000100
00000000
00000001
00000010
00000000
00000100
00001000
00000000
00000010
00000100
00000000
,
00100000
00010000
00100000
00000000
00010000
01000000
00000000
00100000
10000000
00000000
01000000
00100000
00000000
00010000
00100000
00000000
,
00011000
00000000
00001000
00000000
00100010
00000000
00000000
00000000
00011000
00000000
10000000
00010000
10000000
00001000
00010000
00000001
,
00000100
00000010
00001000
00000100
00000010
00000000
00000001
00000000
00000010
00000100
00001000
00000001
00000100
00000000
00000010
00000000
,
00100000
00010000
01000000
00100000
10000000
01000000
00010000
00000000
00100000
01000000
10000000
00100000
00010000
00100000
00010000
00000000
,
00001000
00000100
00000010
00000100
00001000
00000000
00000100
00000000
00000001
00001000
00000010
00001000
00000001
00001000
00000100
00000000
,
00100000
00010000
01000000
00100000
10000000
01000000
00010000
00000000
01000000
10000000
00100000
01000000
00010000
01000000
00100000
01000000
,
00001000
00000000
10000000
00100000
00000000
10000000
00100000
00000000
00001000
00000000
01000000
00010000
00000000
01000000
00010000
00000000
,
00001000
00000000
00100000
01000000
00000000
00100000
01000000
00000000
00001000
00000000
00010000
10000000
00000000
00010000
10000000
00000000
,
00001000
00000000
00100000
10000000
00000000
00100000
10000000
00000000
00001000
00000000
10000000
00010000
00000000
10000000
00010000
00000000
,
00001000
00000000
01000000
00100000
00000000
01000000
00100000
00000000
00001000
00000000
00010000
01000000
00000000
00010000
01000000
00100000
,
00000000
00000000
00000000
00000000
00000000
00000000
00000001
00000010
00000100
00001000
00000000
00000010
00000001
00000000
00000010
00001000
,
00000000
00000000
00000000
00000000
00000000
00000000
00000000
00000000
00001000
00000100
00000010
00000001
00001000
00000100
00000000
00000000
,
00000000
00000000
00000000
00000000
00000000
00000000
00000010
00000100
00000001
00000010
00000000
00000100
00001000
00000000
00000010
00000100
,
00000101
00001000
00011000
00000000
01010000
00101000
01010000
00101000
,
10000000
00010000
00000000
00100000
10000000
01000000
00000000
00100000
00010000
00100000
00000000
01000000
10000000
00000000
00100000
00000000
,
00000100
00001000
00000010
00000100
00000001
00000010
00000100
00010000
00001000
00100000
00010000
01000000
00100000
10000000
01000000
00100000
,
00001000
00001000
00000000
00000010
00000100
00000001
00000000
00000100
00000010
00001000
00000000
00000100
00001000
00000000
00000000
00000000
,
10000000
01000000
00100000
00010000
01000000
00100000
10000000
00001000
00100000
00010000
10000000
00100000
01000000
00001000
00010000
00000100
,
00000010
00000001
00000000
00000001
00001000
00000100
00000000
00000010
00000100
00000001
00000000
00001000
00000100
00000000
00001000
00000000
,
00100000
01000000
00010000
10000000
01000000
00100000
01000000
10000000
00100000
01000000
00010000
00100000
00001000
00010000
00000010
00000100
,
00000001
00001000
00000000
00000010
00000001
00000100
00000000
00001000
00000001
00000010
00000000
00000100
00001000
00000000
00000000
00000000
,
00001000
00010000
00000100
00001000
00000010
00100000
00001000
00010000
00000100
00100000
01000000
10000000
00100000
01000000
00010000
00100000
,
00110000
00000000
00000000
00010000
01000000
00000000
00000000
00000000
10000000
00100000
00000000
00010000
00001000
00010000
00000000
00000100
,
00000110
00000000
00000000
00000001
00001000
00000000
00000000
00000000
00010000
00100000
00000000
01000000
10000000
01000000
00000000
00100000
,
00010000
00000000
00000000
00001000
00000100
00000000
00000000
00000010
00000001
00000000
00000000
00000100
00001000
00000000
00000000
00010000
,
00011000
00000000
00110000
00000000
01100000
00000000
11000000
00000000
10000000
00001000
10000000
00001000
00000000
00000000
00000000
00000000
,
01000000
00010000
01000000
00100000
00000000
10000000
01000000
00010000
01000000
10000000
00000000
00010000
00100000
00010000
01000000
00000000
,
00001000
00010000
00000100
00001000
00000100
00010000
00001000
00100000
00010000
00001000
00000100
00010000
00001000
00100000
00000100
00010000
,
00000001
00000010
00000100
00001000
00000100
00000010
00000001
00000100
00000010
00001000
00000001
00000010
00000100
00001000
00000000
00000000
,
00010000
00001000
00000100
00001000
00010000
00000100
00001000
00000100
00010000
00001000
00100000
00010000
00001000
00000100
00010000
00001000
,
01000000
00100000
01000000
00010000
00000000
10000000
00100000
01000000
00010000
00100000
00000000
01000000
10000000
01000000
00010000
00000000
,
00100000
00001000
00010000
00000100
00100000
00001000
00010000
00000100
00001000
00010000
00001000
00100000
00000100
00010000
00001000
00100000
,
00010000
01000000
00010000
10000000
00000000
00001000
00010000
00000001
00001000
00000001
00000000
00010000
00001000
00010000
00000000
00000000
,
00010000
10000000
00001000
00010000
00000001
00001000
00000001
00010000
00001000
10000000
00010000
10000000
00001000
00010000
00000001
00001000
,
00001001
00001001
00000000
10010000
10010000
10010000
10010000
00000000
,
10000001
00000000
00000000
00000000
;

//---------------dance-single - ----------------
#NOTES:
     dance-single:
     :
     Medium:
     10:
     0.973,0.893,0.333,0.104,1.000,612.000,32.000,10.000,0.000,0.000:
0001
0100
0000
0001
0010
0000
0100
1000
0000
0100
1000
0000
0010
0100
0010
0100
,
0010
1000
0000
0001
0010
0000
0100
1000
0000
0010
1000
0000
0100
0010
0100
0010
,
0001
1000
0000
0010
0100
0000
0001
0010
0000
0001
0010
0000
0100
1000
0100
0000
,
0101
0000
0000
0000
1001
0000
0000
0000
1100
0000
0000
0000
0010
0001
0010
0001
,
0100
0010
1000
0100
1000
0000
0010
0100
0001
0010
0001
0000
1000
0010
1000
0000
,
0001
0100
0010
0100
0010
1000
0001
0000
0100
0010
0100
0010
0100
0010
0100
0000
,
0001
1000
0001
1000
0100
0000
0010
0001
0010
0001
1000
0000
0010
0100
0010
0100
,
0001
0000
1000
0100
1000
0010
1000
0000
0001
0010
0001
0010
0001
0100
0010
0000
,
0100
0000
0001
0000
1000
0000
0100
0000
0010
0000
0001
0000
1000
0010
0000
0000
,
0010
0000
1000
0000
0010
0000
0001
0000
0010
0000
1000
0000
0010
0001
0000
0000
,
0001
0000
0100
0000
0010
0000
1000
0000
0100
0000
0010
0000
0001
0100
0001
0000
,
1000
0000
0100
0000
1000
0000
0010
0000
1000
0000
0001
0000
1000
0000
0100
1000
,
0000
0000
0000
0000
0000
0000
0001
0010
0100
1000
0000
0100
1000
0000
0100
1000
,
0000
0000
0000
0000
0010
0000
0100
0000
0001
0000
1000
0000
0100
0000
1000
0100
,
0000
0000
0000
0000
0000
0000
0100
0010
0001
0010
0000
0001
0100
0000
0001
0000
,
1001
0000
0011
0000
1100
1001
0011
1001
,
0100
0010
0000
0100
0010
0000
0001
0000
0100
0010
0000
0100
0001
0000
1000
0000
,
0010
0100
0010
0000
1000
0100
1000
0000
0001
0010
0001
0000
1000
0010
1000
0001
,
0010
0100
0000
1000
0100
0000
0010
0000
0001
0100
0000
0010
2000
0000
3000
0000
,
0100
0010
0100
0000
0001
0010
0001
0000
1000
0100
1000
0000
0001
1000
0001
1000
,
0010
0100
0000
0001
0100
0000
0010
0000
1000
0100
0000
0010
0100
0000
1000
0000
,
0001
0010
0001
0000
0010
0100
0010
0000
0100
1000
0100
0000
0010
0001
0010
0001
,
0100
0010
0000
1000
0010
0000
0100
0000
0001
0010
0000
0100
0020
0000
0030
0000
,
1000
0100
1000
0000
0001
0010
0001
0000
0100
0010
0100
0000
0001
1000
0001
1000
,
0001
1000
0100
0000
0010
0001
0000
0010
0001
0000
1000
0100
0000
1000
0100
0000
,
0010
0001
0010
0000
0100
1000
0000
0001
1000
0000
0001
0010
0000
0001
0100
0000
,
0010
1000
0010
0000
1000
0100
0000
1000
0100
0000
0010
0001
0000
0010
0001
0000
,
0100
0010
0100
0000
0001
1000
0000
0001
0010
0000
0100
1000
0000
0001
0100
0000
,
0010
0000
1000
0100
1000
0000
0001
0010
0001
0000
0100
0010
0100
0000
0010
1000
,
0010
0000
1000
0100
1000
0000
0001
0100
0001
0000
1000
0010
1000
0000
0001
0010
,
0001
0000
0100
0010
0100
0000
0001
1000
0001
0000
1000
0100
1000
0000
0100
0010
,
0100
0000
0010
0001
0010
0000
0001
0100
0001
0000
0100
0010
0100
0000
0010
1000
,
0010
0000
0100
0000
0001
0000
1000
0000
0100
0000
0010
0000
0001
0100
0000
0000
,
0100
0000
0001
0000
0100
0000
1000
0000
0100
0000
0001
0000
0100
1000
0100
0000
,
0010
0000
1000
0000
0010
0000
0001
0000
0010
0000
1000
0000
0010
0001
0000
0000
,
1000
0000
0100
0000
0001
0000
0100
0000
1000
0000
0100
0000
0001
0000
0100
1000
,
0000
0000
0000
0000
0000
0000
0001
1000
0010
1000
0000
0010
0100
0000
0010
0100
,
0000
0000
0000
0000
0000
0000
0000
0000
1000
0100
1000
0100
1000
0000
0000
0000
,
0000
0000
0000
0000
0000
0000
0100
0001
1000
0001
0000
1000
0100
0000
1000
0000
,
1001
0000
1010
0000
0101
1001
1010
1001
,
0001
0100
0000
0010
0100
0000
0001
0000
1000
0100
0000
1000
0100
0000
0010
0000
,
0001
1000
0001
0000
1000
0100
1000
0000
0100
1000
0100
0000
1000
0010
1000
0010
,
0100
0001
0000
0100
0001
0000
0010
0000
0100
1000
0000
0100
2000
0000
3000
0000
,
0001
1000
0001
0000
0010
0100
0010
0000
0001
0100
0001
0000
1000
0010
1000
0010
,
0100
0001
0000
0100
0001
0000
0010
0000
0100
1000
0000
0100
0010
0000
0001
0000
,
1000
0010
1000
0000
0001
0100
0001
0000
0100
0010
0100
0000
0010
1000
0010
1000
,
0001
0010
0000
0001
0100
0000
0010
0000
1000
0100
0000
1000
0200
0000
0300
0000
,
0010
0001
0010
0000
0001
0100
0001
0000
0100
0010
0100
0000
0010
1000
0010
0000
,
1010
0000
0000
0000
0001
0000
0000
0000
1000
0100
0000
1000
0010
0000
0100
0000
,
0101
0000
0000
0000
0010
0000
0000
0000
1000
0100
0000
1000
0010
0000
0100
0000
,
0101
1001
0101
0110
,
1010
0000
0110
0000
0101
0000
0110
0000
1000
0001
2000
0002
3003
0000
0000
0000
,
0010
0100
0000
0001
0100
0000
0010
0000
1000
0100
0000
1000
0100
0000
0010
0000
,
0001
1000
0001
0000
0100
0010
0100
0000
0001
1000
0001
0000
0100
0010
0100
0010
,
1000
0001
0000
1000
0010
0000
0100
0000
0001
0010
0000
0001
2000
0000
3000
0000
,
0100
0010
0100
0000
0001
1000
0001
0000
0010
0100
0010
0000
0100
1000
0100
1000
,
0100
0010
0000
0001
0010
0000
0100
0000
1000
0010
0000
1000
0001
0000
0010
0000
,
0100
1000
0100
0000
0010
0001
0010
0000
0001
0100
0001
0000
1000
0010
1000
0010
,
0100
0001
0000
0100
0010
0000
1000
0000
0001
0010
0000
0001
0020
0000
0030
0000
,
0100
1000
0100
0000
1000
0001
1000
0000
0001
0010
0001
0010
0001
0010
0001
0000
,
0110
0110
0000
1001
1001
0110
0110
0000
,
2002
3003
0000
0000
;

//---------------dance-single - ----------------
#NOTES:
     dance-single:
     :
     Beginner:
     1:
     0.219,0.445,0.083,0.062,0.000,133.000,8.000,6.000,0.000,0.000:
0010
0000
0000
0000
0000
0000
0000
0010
,
0010
0000
0000
0000
0000
0000
0000
0100
,
0100
0000
0001
0000
,
1000
1000
1000
1000
,
0000
0001
0000
0001
,
0000
0100
0000
0100
,
0000
0001
0000
0001
,
0010
0010
0010
0010
,
0000
0000
0000
0000
,
0000
0000
0000
0000
,
0000
0000
0000
0000
,
0000
0000
0000
0000
0000
0000
1000
1000
,
0000
0000
0200
0000
,
0300
0000
0000
0000
,
0000
0000
0002
0000
,
0103
0100
0010
0010
,
1000
0000
0000
0000
,
0001
0001
1000
1000
,
0010
0000
0000
0000
,
0100
0100
0100
0100
,
0001
0000
0000
0000
,
0001
0001
0001
0001
,
0010
0000
0000
0000
,
0100
0100
0100
0100
,
0010
0000
0000
0000
0000
0000
0000
0001
,
0001
0000
0000
0000
0000
0000
0000
1000
,
1000
0000
0100
0000
,
0010
0010
1000
1000
,
0000
0010
0000
0000
0000
0010
0000
0000
,
0000
0100
0000
0000
0000
0100
0000
0000
,
0000
0001
0000
0000
0000
0001
0000
0000
,
0000
1000
0000
0000
0000
1000
0000
0000
,
0010
0000
0200
0000
,
0300
0000
0000
0000
,
0000
0000
0020
0000
,
0030
0000
0000
0000
,
0000
0000
0002
0000
,
0003
0000
0000
0000
,
0000
0000
2000
0000
,
3100
0010
0100
0010
,
0100
0000
0000
0000
,
0001
1000
0001
1000
,
0001
0000
0000
0000
,
1000
0010
1000
0010
,
1000
0000
0000
0000
,
0001
0010
0001
0010
,
0001
0000
0000
0000
,
1000
0100
1000
0100
,
1100
0000
1001
0000
,
0011
0000
1000
0000
,
0110
0110
0110
0110
,
0010
0100
0010
0100
0010
0000
0000
0000
,
1000
0000
0000
0000
,
0001
0010
0001
1000
,
0001
0000
0000
0000
,
1000
0100
1000
0001
,
1000
0000
0000
0000
,
0001
0100
0001
1000
,
0001
0000
0000
0000
,
0000
0000
0001
0001
0000
1000
1000
0000
,
0010
0010
0000
0000
0100
0000
0100
0000
,
1001
0000
0000
0000
;

//---------------dance-single - ----------------
#NOTES:
     dance-single:
     :
     Easy:
     9:
     0.498,0.670,0.760,0.021,0.062,260.000,73.000,2.000,268.000,0.000:
MMMM
MMMM
MMMM
MMMM
,
MMMM
MMMM
MMMM
MMMM
,
MMMM
MMMM
MMMM
MMMM
,
MMMM
MMMM
MMMM
0000
,
0010
0100
0001
0010
1000
0100
0001
0010
,
0100
0001
1000
0100
0010
1000
0001
0100
,
0010
0001
0100
1000
1000
0010
0001
0100
,
0010
1000
0001
0010
0100
1000
0010
0001
,
0100
MMMM
MMMM
MMMM
,
MMMM
MMMM
MMMM
MMMM
,
MMMM
MMMM
MMMM
MMMM
,
MMMM
MMMM
MMMM
MMMM
,
MMMM
0000
0000
0000
0000
0000
0000
0000
1000
0001
0000
1000
0001
0000
1000
0001
,
0000
MMMM
MMMM
MMMM
,
MMMM
0000
0000
0000
0000
0000
0000
0000
0010
0100
0000
0010
0100
0000
0000
0000
,
1001
0000
0110
0000
1001
1001
1001
1001
,
0010
0100
0001
1000
0010
0001
0100
1000
,
1010
0000
0110
0000
0101
0000
1001
1001
,
1001
0000
0110
0000
,
0001
0010
1000
0100
0001
0010
0100
1000
,
0010
0100
0001
0010
1000
0100
0010
1000
,
1001
0000
0101
0000
1100
0000
0011
0011
,
0011
0000
0110
0000
,
1000
0010
0001
0100
0010
0001
1000
0010
,
0100
0000
MMMM
MMMM
,
MMMM
MMMM
MMMM
MMMM
,
MMMM
MMMM
MMMM
MMMM
,
MMMM
MMMM
MMMM
0000
,
0001
0010
1000
0100
0010
0001
0100
1000
,
0001
0010
1000
0010
0001
0100
1000
0010
,
0001
0100
0001
0001
1000
0100
0100
0001
,
0100
0010
0001
0100
1000
0010
0001
0100
,
0010
0000
MMMM
MMMM
,
MMMM
MMMM
MMMM
MMMM
,
MMMM
MMMM
MMMM
MMMM
,
MMMM
MMMM
MMMM
MMMM
,
MMMM
0000
0000
0000
0000
0000
0000
0000
0010
0100
0000
0010
0100
0000
0010
0100
,
0000
MMMM
MMMM
MMMM
,
MMMM
0000
0000
0000
0000
0000
0000
0000
1000
0001
0000
1000
0001
0000
0000
0000
,
0101
0000
1010
0000
0101
0101
0101
0101
,
0010
1000
0100
0001
1000
0010
0001
0100
,
0110
0000
1001
0000
1100
0000
0101
0101
,
0101
0000
1010
0000
,
1000
1000
0010
0001
1000
1000
0100
0001
,
0010
1000
0010
0001
0100
1000
0010
0100
,
0101
0000
1001
0000
0110
0000
1010
1010
,
1010
0000
0101
0000
,
1000
0010
0001
0100
1000
0010
0100
0001
,
0011
0000
0110
0000
,
0101
0000
1100
0000
,
0101
1001
0101
0110
,
1010
0000
1010
0000
0101
0000
0101
0000
1000
0010
1000
0010
0000
0000
0000
0000
,
0001
0100
0001
0010
1000
0100
1000
0010
,
0011
0000
0101
0000
1010
0000
1100
1100
,
1100
0000
0101
0000
,
1000
0010
0001
0100
1000
0010
0001
0100
,
1000
0100
0001
0100
0010
0001
1000
0010
,
0110
0000
0101
0000
1001
0000
0011
0011
,
0011
0000
0110
0000
,
0010
0001
0100
1000
0010
0001
0100
1000
,
0110
0110
0000
1001
1001
0110
0110
0000
,
2002
3003
0000
0000
;
