#TITLE:Slave Labor;
#SUBTITLE:i22y )v(;
#ARTIST:FearFactor;
#TITLETRANSLIT:;
#SUBTITLETRANSLIT:;
#ARTISTTRANSLIT:;
#CREDIT:;
#BANNER:Slave Labor.jpg;
#BACKGROUND:Slave Labor-bg.jpg;
#LYRICSPATH:;
#CDTITLE:!IzzyTitle.JPG;
#MUSIC:Slave_Labor.mp3;
#OFFSET:-1.209;
#SAMPLESTART:13.215;
#SAMPLELENGTH:12.000;
#SELECTABLE:YES;
#BPMS:0.000=190.000;
#STOPS:0.000=9.260
;
#BGCHANGES:;
// cache tags:
#FIRSTBEAT:1.000;
#LASTBEAT:701.500;
#SONGFILENAME:Songs/Izzy/Slave Labor/Slave Labor.sm;
#HASMUSIC:1;
#HASBANNER:1;
#MUSICLENGTH:231.539;
// end cache tags

//---------------dance-single - ----------------
#NOTES:
     dance-single:
     :
     Hard:
     14:
     1.000,1.000,0.596,0.514,1.000,1990.000,138.000,119.000,0.000,2.000:
0000
0000
0000
0000
1000
0100
0010
0100
1000
0100
0010
0001
0010
0001
0010
0100
,
1000
0010
0100
0001
0010
0100
1000
0010
0100
1000
0100
0010
0001
0010
0100
0010
,
0001
1000
0010
0100
0001
1000
0010
0100
0001
1000
0010
0100
0001
1000
0010
0100
,
0001
1000
0010
0100
0001
0010
0100
1000
0010
0100
0001
0010
0100
1000
0100
0010
,
0001
0010
0100
1000
0100
0010
0100
0010
0100
0010
0100
0010
0100
1000
0100
0010
,
0001
0010
0001
0010
0001
0010
0100
0010
0100
0010
0100
1000
0100
1000
0100
1000
,
0100
1000
0100
0010
0001
0010
0100
1000
0100
1000
0100
1000
0100
1000
0100
0010
,
1000
0100
1000
0100
1000
0100
1000
0100
1000
0100
0010
0001
0010
0100
0010
0001
,
1000
0100
0010
0001
0100
0010
1000
0100
0010
0001
0100
0010
0001
1000
0100
0010
,
0100
0010
0100
0010
0100
0001
0010
0001
0010
0100
0010
0001
0010
0100
0010
0001
,
0010
0100
1000
0100
0010
0001
0010
0100
1000
0100
0010
0100
0010
1000
0100
0010
,
0001
0010
0001
0010
0100
0010
0001
0010
0100
0001
0010
0100
1000
0010
0100
0001
,
0010
0100
1000
0100
0010
0001
1000
0100
0010
0001
1000
0100
0010
0001
0010
0001
,
0010
0001
0010
0001
0010
0001
0010
0100
1000
0100
0010
0100
1000
0100
0010
0100
,
1000
0100
0010
0001
0010
0100
1000
0100
0010
0001
0010
0001
0010
0100
0010
0100
,
1000
0100
1000
0100
1000
0100
0010
0001
0010
0001
0010
0001
0010
0100
1000
0100
,
0010
0001
0010
0100
1000
0100
0010
0001
0010
0001
0000
0100
1000
0100
0000
1000
,
0100
1000
0000
0001
0010
0010
0000
1000
0100
0100
0000
0001
0010
0001
0000
1000
,
0100
1000
0000
0100
0010
0100
0000
0010
0001
0010
0000
1000
0010
0001
0000
0001
,
0100
1000
0000
0100
0001
1000
0000
0010
0100
0001
0000
1000
0001
0100
0000
0001
,
0100
0010
0000
2002
3003
0010
1001
0000
1000
0000
0100
0000
0010
0000
0001
0000
,
0000
0000
1000
0100
1000
0100
0000
0000
0010
0000
0001
0010
0001
0000
0000
0000
0001
0000
0001
0000
0010
0000
0000
0000
0000
0000
0000
0000
0000
0000
0000
0000
,
0000
0000
0001
0010
0001
0010
0000
0000
0100
0000
0010
0001
0010
0000
0000
0000
1000
0000
1000
0000
0001
0000
0000
0000
0000
0000
0000
0000
0000
0000
0000
0000
,
0000
0000
0010
0001
0010
0001
0000
0000
1000
0000
0100
0010
0001
0000
0000
0000
1000
0000
0100
0000
0010
0100
0010
0000
0000
0100
0010
0100
0000
0000
0000
0000
,
0000
0000
1000
0100
1000
0100
0000
0000
0010
0000
1000
0100
1000
0000
0000
0000
0001
0000
0001
0000
0010
0000
0000
0000
0100
0000
0000
0000
1000
0000
0000
0000
,
0000
0000
0100
0010
0100
0010
0000
0000
0100
0000
1000
0100
1000
0000
0000
0000
1000
0000
0100
0010
0001
0000
0000
0000
1000
0000
0100
0000
1001
0000
0000
0000
,
0000
0000
0001
0010
0001
0010
0000
0000
0001
0000
0010
0100
1000
0000
0000
0000
1000
0000
1000
0000
1000
0000
0000
0000
0000
0000
0000
0000
0000
0000
0000
0000
,
0000
0000
0010
0001
0010
0001
0000
0000
0001
0010
0100
0000
1000
0000
1000
0000
0000
0000
0000
0000
1000
0000
0000
1000
0001
1000
0001
1000
0001
1000
0001
1000
,
0001
0000
1000
0100
0010
0001
0000
0000
1000
0000
0100
0010
0100
0000
0000
0000
1000
0000
0100
0000
0020
0000
0000
0000
0000
0000
0000
0000
0030
0000
0000
0000
,
0000
0000
1000
0100
1000
0100
0000
0000
0010
0000
0001
0010
0001
0000
0000
0000
0001
0000
0010
0000
0200
0000
0000
0000
0000
0000
0000
0000
0300
0000
0000
0000
,
0000
0000
1000
0100
0010
0001
0000
0000
1000
0000
0100
0010
0100
0000
0000
0000
1000
0000
0100
0000
0020
0000
0000
0000
0000
0000
0000
0000
0030
0000
0000
0000
,
0000
0000
1000
0100
0010
0001
0000
0000
1000
0000
0100
0010
0100
0000
0000
0000
1000
0000
0100
0000
0020
0000
0000
0000
0000
0000
0000
0000
0030
0000
0000
0000
,
0001
0010
0100
1000
0000
0000
0000
0000
0010
0000
0100
1000
0100
0000
0000
0000
0100
0000
0010
0000
0200
0000
0000
0000
0000
0000
0000
0000
0300
0000
0000
0000
,
0000
0000
1000
0100
1000
0100
0000
0000
0010
0000
0100
1000
0100
0000
0000
0000
0100
0000
0010
0000
0200
0000
0000
0000
0000
0000
0000
0000
0300
0000
0000
0000
,
0000
0000
1000
0100
0010
0001
0000
0000
1000
0000
0100
0010
0100
0000
0000
0000
1000
0000
0100
0000
0020
0000
0000
0000
0000
0000
0000
0000
0030
0000
0000
0000
,
0000
0000
1000
0100
1000
0100
0000
0000
0010
0000
0100
1000
0100
0000
0000
0000
1000
0000
0100
0000
0010
0000
0000
0000
0000
0000
0000
0000
0000
0000
0000
0000
,
1001
0010
1001
0100
1001
0100
0011
0100
,
0011
0100
1100
0100
0110
0010
0110
1000
,
1001
0010
1001
0100
1001
0010
1001
0100
,
1001
0010
0011
0010
0011
0100
1100
0100
,
1100
0010
0001
0010
0001
0010
0100
1000
0100
0010
0001
0010
0100
1000
0100
0010
,
0100
0010
0100
0010
0100
1000
0100
0010
0001
0010
0100
0010
0001
0010
0100
0010
,
0001
0100
0010
1000
0100
0010
0001
0010
0100
1000
0001
0010
0100
1000
1000
0100
,
0010
0001
0010
0001
0010
0001
0010
0100
0010
0100
0010
0100
1000
0100
1000
0100
,
1000
0100
1000
0100
0010
0001
0010
0100
1000
0100
0010
0001
0010
0100
1000
0100
,
0010
0100
0010
0100
0010
0100
0010
0100
1000
0100
0010
0100
1000
0100
0010
0100
,
1000
0100
0010
0001
0010
0100
1000
0100
0010
0100
0010
0100
0010
0100
1000
0100
,
0010
0001
0010
0100
1000
0100
0010
0100
1000
0100
0010
0100
1000
0100
0010
0100
,
1001
0100
0010
0100
1000
0100
0010
0001
0010
0100
1000
0100
0010
0001
0010
0100
,
1000
0100
0010
0100
1000
0100
0010
0001
0010
0100
1000
0100
0010
0100
0010
0100
,
1001
0100
0010
0100
1000
0100
0010
0100
1000
0100
0010
0001
0010
0001
0010
0001
,
0010
0100
1000
0100
0010
0001
0010
0100
1000
0100
0010
0001
0010
0001
0010
0001
,
0010
0100
0010
0100
1000
0100
0010
0001
0010
0100
1000
0100
0010
0100
0010
0100
,
1000
0100
1000
0100
1000
0100
0010
0001
0010
0100
0010
0100
0010
0100
1000
0100
,
0010
0100
1000
0100
0010
0001
0010
0100
1000
0100
0010
0100
0010
0100
0010
0001
,
0010
0100
1000
0010
0100
0001
0010
0100
1000
0010
0100
0001
0010
0100
1000
0010
,
1001
0010
0110
1000
0110
0001
1001
0100
,
1001
0010
0110
0100
0110
1000
0110
0001
,
0110
1000
0110
0010
0110
0010
1001
0100
,
1001
0010
1001
0100
1010
0010
1001
0100
,
1010
0100
0011
0100
0110
0100
1001
0100
,
1001
0010
0110
0100
1001
0010
0110
0100
,
1010
0010
0101
0010
1001
0010
0110
0100
,
1001
0000
0010
0000
0110
0000
0100
0000
1001
0000
1000
0000
1000
0100
0010
0000
,
1000
0100
0010
0000
2002
0000
3003
0000
0001
0010
0100
0000
0001
0010
0100
0000
,
2002
0000
3003
0000
0001
0100
0010
0000
1000
0100
0010
0000
2002
0000
3003
0000
,
1000
0010
0100
0000
0001
0010
0001
0000
2002
0000
3003
0000
2000
3010
0100
0000
,
0002
0103
0010
0000
2000
3001
0100
0000
0020
0130
0001
0000
2000
3100
1000
0000
,
0020
0000
0030
0000
0001
0000
0010
0000
0000
0000
1000
0100
0010
0001
0000
0000
2000
0000
0000
0000
3200
0000
0000
0000
0320
0000
0000
0000
0032
0000
0000
0000
,
0023
0230
2300
3200
0320
0032
0023
0230
,
2300
3200
0320
0032
0023
0230
2300
3200
,
0320
0032
0023
0230
2300
3200
0320
1031
,
0010
1001
0010
1001
0100
0110
0010
0110
,
1000
1010
0100
0011
0100
1001
0010
0110
,
0010
0000
1001
0000
0010
0000
0110
0000
0100
0000
1001
1000
0100
0010
0001
0000
,
1000
0000
0000
0000
0000
0000
0000
0000
0000
0000
0000
0000
0000
1000
0100
0010
,
0001
0000
0000
1001
0000
0000
0000
0000
0000
0000
0000
0000
1000
0100
0010
0001
,
1000
0000
0110
0110
0000
0000
0000
0000
0000
0000
0000
0000
1000
0100
0010
0001
,
0000
0000
1001
1001
0000
0000
0000
0000
0000
0000
0000
1000
0000
0100
0010
0100
,
0010
0000
0000
0000
2002
3003
0000
0000
0000
0000
0000
1000
0000
0100
0010
0100
,
0010
0000
0000
0000
2002
3003
0000
0000
0000
0000
0000
1000
0000
1000
0001
1000
,
0001
0000
0000
0000
2002
3003
0000
0000
0000
0000
0000
1000
0000
1000
0100
0010
,
0001
0000
0000
0000
2002
3003
0000
0000
0000
0000
0000
1000
0000
0100
0010
0100
,
0010
0000
0000
0000
1001
1000
0100
1000
0000
0000
0000
1000
0000
0100
0010
0100
,
0010
0000
0000
0000
2002
3003
0000
0000
0001
0000
0010
0100
0010
0000
0001
0000
,
0010
0100
0020
0000
0000
0000
0030
0000
0001
0000
0010
0100
1000
0000
0100
0000
,
0010
0001
0020
0000
0000
0000
0030
0000
1000
0000
0100
0010
0001
0000
0010
0000
,
0100
1000
0100
0000
0010
0001
0010
0000
1001
0000
0020
0030
1001
0000
0200
0300
,
0110
0000
0002
0003
0110
0000
2000
3000
0110
0000
0020
0030
1001
0000
0200
0300
,
1001
0000
0020
0030
1001
0000
0200
0300
1001
0000
0200
0300
1001
0000
0200
0300
,
1001
0000
0020
0030
1001
0000
0200
0300
0110
0000
0001
0000
1000
0000
0001
0000
,
1000
0000
0001
0000
1000
0000
0001
0000
1000
0100
0010
0001
0010
0100
0010
0100
,
0010
0100
0010
0100
1000
0100
0010
0001
0010
0001
0010
0001
0010
0001
0010
0100
,
1000
0100
0010
0001
0010
0100
1000
0100
0010
0100
0010
0100
0010
0100
1000
0100
,
0010
0001
0010
0100
1000
0100
0010
0001
0010
0001
0010
0001
0010
0001
0010
0100
,
0010
0100
0010
0100
1000
0100
0010
0001
0010
0001
0010
0100
1000
0100
0010
0100
,
0010
0100
1000
0100
0010
0001
0010
0100
1000
0100
0010
0100
0010
0100
0010
0100
,
1000
0100
0010
0100
1000
0100
0010
0100
1000
0100
0010
0100
1000
0100
0010
0100
,
0010
0100
1000
0100
0010
0001
0010
0100
1000
0100
0010
0100
0010
0100
1000
0100
,
0010
0001
0010
0100
0010
0001
0010
0100
0010
0001
0010
0100
0010
0001
0010
0100
,
1000
0100
0010
0100
0010
0100
1000
0100
0010
0001
0010
0100
1000
0100
0010
0001
,
0010
0100
1000
0100
0010
0001
0010
0100
0010
0001
0010
0100
1000
0100
0010
0001
,
0010
0100
1000
0100
0010
0100
0010
0100
1000
0100
0010
0001
0010
0001
0010
0100
,
1000
0100
0010
0001
0010
0100
0100
1000
0100
0010
0100
1000
0100
0010
0100
0010
,
0001
0010
0100
1000
0100
0010
0001
0010
0001
0010
0001
0010
0100
1000
0100
0010
,
0001
0010
0100
1000
0100
0010
0001
0010
0001
0010
0001
0010
0001
0010
0100
1000
,
0100
0010
0001
0010
0100
0010
0100
0010
0100
0010
0100
1000
0100
0010
0001
0010
,
0100
1000
0100
0010
0001
0010
0100
1000
0100
0010
0100
0010
0100
0010
0100
2000
,
0000
0000
0000
0000
,
0000
0000
0000
0000
0000
0000
0000
0000
3000
0000
0000
0000
0200
0000
0000
0000
0000
0000
0000
0000
0000
0020
0000
0000
0000
0000
0000
0000
0000
0000
0000
0000
0000
0000
0000
0000
0000
0000
0000
0000
0000
0000
0000
0000
0000
0000
0000
0000
0030
0000
0000
0000
0000
0000
0000
0000
0000
0000
0000
0000
0300
0000
0000
0000
,
1000
0100
0010
0001
0010
0100
1001
0000
,
1000
0100
0010
0001
0010
0100
1001
0000
,
0001
0010
0100
1000
0100
0010
1001
0000
,
0100
0010
0100
0010
0100
0010
0110
0000
,
0001
0001
0001
0001
0001
0001
1001
0000
,
1000
1000
1000
1000
1000
1000
1001
0000
,
1000
0100
0010
0001
0010
0100
1001
0000
,
1000
0100
0010
0001
0010
0100
0110
0000
,
1000
0100
0100
1000
1000
0100
0110
0000
,
0010
0100
0010
0001
0010
0100
1000
0000
,
1000
0100
0010
0001
0010
0100
1001
0000
,
1000
0100
0010
0100
1000
0100
0011
0000
,
0001
0010
0100
0010
0001
0010
0110
0000
,
1001
0000
2000
3000
1001
0000
0002
0003
1001
0000
0200
0300
1001
0000
0000
0000
,
1001
0000
0200
0300
1001
0000
0020
0030
1001
0000
2000
3000
1001
0000
0000
0000
,
1001
0000
2000
3000
1001
0000
0002
0003
1001
0000
0200
0300
1001
0000
0000
0000
,
0110
0000
0020
0030
0110
0000
0200
0300
0110
0000
0020
0030
0110
0000
0000
0000
,
2000
3200
0320
0032
,
0003
0000
0000
0000
,
0002
0023
0230
2300
,
3000
0000
0000
0000
0000
0000
0000
0000
0000
0000
0000
1000
0100
1000
0000
1000
,
0000
0100
0000
0000
1001
0000
0100
0000
1001
0000
0100
0000
1001
0000
0010
0000
,
1001
0000
0100
0000
1001
0000
0010
0000
1001
0010
0100
0000
0000
0000
2000
0000
,
0000
3200
0000
0320
0000
0032
0000
0003
,
0000
0000
0000
2000
,
3200
0320
0032
0000
,
0000
0000
0003
0200
,
0320
0032
2003
0000
,
0000
3000
0000
0002
,
2003
0000
3220
0300
0032
0000
0000
0000
,
0000
0000
0003
0000
0000
1001
0000
1001
,
0000
1001
0000
1001
0000
1001
0000
1001
,
0000
1001
0000
1001
0001
0100
0010
0100
,
1000
0100
0010
0001
0010
0100
1000
0100
,
0010
0000
0001
0000
0010
0000
1000
0100
1000
0100
1000
0100
0010
0001
0100
0010
,
1000
0100
0010
0001
0100
0010
1000
0100
0010
0001
0010
0001
0010
0001
0010
0100
,
1000
0100
0010
0001
0010
0100
0010
0100
0010
0100
1000
0100
0010
0001
0010
0001
,
0010
0100
0010
0100
0010
0100
1000
0100
0010
0001
0010
0100
0010
0001
0010
0100
,
0010
0001
0010
0100
1000
0100
0010
0100
0010
0100
1000
0100
0010
0001
0010
0001
,
0010
0100
1000
0100
0010
0100
1000
0100
0010
0100
1000
0100
0010
0001
0010
0100
,
1000
0100
0010
0001
0010
0001
0010
0100
0010
0100
0010
0100
1000
0100
0010
0001
,
0100
0010
1000
0100
0010
0001
0100
0010
1000
0100
0010
0001
0001
0010
0100
1000
,
0100
0010
0001
0010
0100
1000
0100
0010
0001
0010
0100
1000
0100
0010
0100
0010
,
0100
0010
0100
0010
0100
0010
0100
1000
0100
0010
0001
0010
0100
1000
0100
0010
,
0001
0010
0100
1000
0100
0010
0001
0010
0100
1000
0100
0010
0100
0010
0100
0010
,
0100
1000
0100
0010
0001
0100
0010
1000
0100
0010
0001
0010
0100
1000
0010
0100
,
0001
0010
0100
1000
0100
0010
0100
1000
0100
0010
0100
1000
0100
0010
0001
0010
,
0100
1000
0100
0010
0100
1000
0001
0010
0100
0010
0001
1000
0100
0010
0100
1000
,
0001
0010
0100
0010
0001
0010
0100
1000
0010
0100
0001
0010
0100
1000
0010
0100
,
0001
0010
0100
1000
0001
0010
0100
1000
0001
0010
0100
1000
0001
0010
0100
1000
,
0001
0010
0100
1000
0100
0010
0001
0100
0010
1000
0100
0010
0001
0100
0010
1000
,
0100
0010
0001
0100
0010
1000
0100
0010
0100
1000
0001
0010
0100
0010
0001
0010
,
0100
0010
0001
0010
0100
1000
0100
1000
0100
0010
0100
0010
0001
0010
0100
0010
,
0100
1000
0100
1000
0100
0010
0100
0001
0100
0010
0100
0010
0100
0001
0100
0010
,
0100
0001
0100
0010
0100
0001
1000
0001
0100
0010
1000
0001
0100
0010
1000
0001
,
0100
0010
1000
0001
0100
0010
1000
0001
0100
0010
1000
0001
0100
0010
1000
0001
,
0100
0010
0001
0010
0100
1000
0100
0010
0100
1000
0100
1000
0010
1000
0001
1000
,
0010
1000
0100
1000
0100
0010
0100
0001
0100
0010
0100
0001
0100
0010
0100
0010
,
0001
0010
0100
1000
0100
1000
0100
0010
0100
0010
0001
0010
0100
0010
0100
1000
,
0100
1000
0100
0010
0100
1000
0001
0010
0100
0010
0001
0010
0100
1000
0010
0100
,
0001
0010
0100
1000
0010
0100
1000
0100
0010
0001
0100
0010
1000
0100
0010
0001
,
0100
0010
0001
0010
0001
0010
0100
0010
0100
1000
0100
0010
0100
1000
0100
0010
,
0001
0000
0010
0000
0100
0000
1000
0000
1000
0001
1000
0001
1000
0001
1000
0001
1000
0001
1000
0001
1000
0001
1000
0001
1000
0001
1000
0001
1000
0001
1000
0001
,
2000
0000
0000
0000
0000
0000
3000
2002
,
3003
0220
0000
0000
0000
0000
0000
0000
,
0000
0000
0000
0330
0000
0000
0000
0000
;
