#TITLE:Black Fire;
#SUBTITLE:(Album Version);
#ARTIST:DragonForce;
#TITLETRANSLIT:;
#SUBTITLETRANSLIT:;
#ARTISTTRANSLIT:;
#CREDIT:Magna Trick;
#BANNER:BlackFire-BN.png;
#BACKGROUND:BlackFire-BG.png;
#LYRICSPATH:;
#CDTITLE:Magna Trick title!.png;
#MUSIC:DragonForce - Black Fire (Album Version).mp3;
#OFFSET:-0.620;
#SAMPLESTART:35.976;
#SAMPLELENGTH:11.980;
#SELECTABLE:YES;
#BPMS:0.000=195.240,485.000=132.999,565.000=66.499,576.250=195.220;
#STOPS:291.000=0.360
,450.000=0.340
,578.500=0.200
,579.000=0.280
,579.500=0.140
,580.000=0.260
,580.500=0.280
,581.000=0.180
,581.500=2.480
,689.500=0.080
,1037.000=0.040
;
#BGCHANGES:;
// cache tags:
#FIRSTBEAT:0.000;
#LASTBEAT:1042.000;
#SONGFILENAME:Songs/toune 3/(Magna Trick) Black Fire/Black Fire.sm;
#HASMUSIC:1;
#HASBANNER:1;
#MUSICLENGTH:349.204;
// end cache tags

//---------------dance-single - ----------------
#NOTES:
     dance-single:
     :
     Hard:
     12:
     1.000,1.000,1.000,0.421,1.000,2817.000,415.000,147.000,0.000,10.000:
0001
0010
0100
1000
0010
0200
0000
0302
,
0000
2003
0000
3100
1000
0001
0200
0000
,
0000
0320
0000
0000
2030
0000
3002
0000
,
0000
0000
0023
0000
0000
0000
0000
0000
0230
0000
0000
0000
1300
0010
0100
0010
,
1000
0001
1000
0010
0100
0010
1000
0001
1000
0010
0100
0001
1000
0100
0010
0001
,
0010
0100
1000
0100
0010
0001
1000
0010
0100
0001
1000
0100
0020
0000
0000
0000
,
0000
0000
0032
0000
0000
0000
0000
0000
2003
0000
0000
0000
3001
0100
0001
1000
,
0010
0100
0010
0100
0001
1000
0001
0010
0100
1000
0100
0010
0001
0100
0010
1000
,
0001
0100
0010
0100
0001
0010
0100
1000
0001
1000
0010
0100
0010
0100
0001
0010
,
0100
0010
0001
0100
0010
1000
0001
0010
0100
1000
0001
1000
0020
0000
0000
0000
,
0000
0230
0000
0000
0302
0000
2003
0000
,
0000
0000
3200
0000
0000
0000
0000
0000
0320
0000
0000
0000
0130
1000
0001
1000
,
0100
0001
1000
0010
0100
0010
0001
1000
0001
1000
0100
0001
1000
0001
0100
1000
,
0001
0010
0100
0001
1000
0010
0100
0010
0001
0100
0010
0100
0002
0000
1000
0000
,
0010
2003
0100
0010
3200
0001
0320
1000
,
0100
0032
0100
0010
2003
0100
3002
0010
,
0100
1000
0010
0100
1003
0010
0110
0000
,
0011
0000
0000
0000
1100
0000
0000
0000
1001
0000
0000
0000
0001
1000
0100
1000
,
0001
0100
0001
0010
0100
1000
0001
1000
0010
0100
0001
0100
0010
1000
0100
0010
,
0001
0010
0100
1000
0010
0100
0010
1000
0001
1000
0001
0010
0100
0010
0001
0100
,
0010
1000
0001
0010
0100
0010
0001
1000
0010
0100
0010
1000
0001
0010
0001
1000
,
0010
1000
0001
0100
0001
1000
0100
1000
0100
0010
0001
1000
0100
0010
0001
0100
,
0010
1000
0001
0100
0010
1000
0100
0010
0100
0010
0001
1000
0001
1000
0010
0100
,
0001
1000
0100
0010
0001
0010
0100
1000
0010
0100
0001
1000
0100
0010
0001
0010
,
0100
1000
0100
1000
0010
0100
0010
0100
0001
1000
0001
1000
0011
0100
0001
1000
,
0100
1000
0100
0010
0001
0100
0010
1000
0001
0100
0010
1000
0101
0000
1010
0000
,
0100
1001
0110
0001
1100
0010
0101
1000
,
1001
0110
0001
0010
0100
1000
1001
0110
,
0001
1000
0110
1000
0101
0010
1100
0001
,
1001
0000
0110
0000
0001
0000
1000
0000
0100
0000
1000
0000
0001
0100
0001
0010
,
0100
0010
0001
1000
0010
0100
0001
1000
0100
1000
0001
0100
0010
0100
0010
1000
,
0001
1000
0010
0100
0001
1000
0100
0010
0001
0010
0100
1000
0110
0000
1000
0000
,
0001
0000
1001
0000
0010
0000
0101
0000
1000
0000
0110
0000
0110
0001
1000
0100
,
1000
0001
0010
0100
0010
0001
1000
0010
0100
0001
1000
0100
0011
0000
0100
0000
,
0010
1001
0010
0100
1010
0001
0110
1000
,
0010
0000
0101
0000
0010
0000
0100
0000
1001
0000
0010
0000
1100
0010
0001
0010
,
0100
1000
0011
1000
0100
0010
0001
1000
0110
0001
0100
0010
1001
0100
0010
1000
,
0100
0010
0100
0010
1001
0100
0010
1000
0101
1000
0001
0010
1001
0000
1000
0000
,
0100
1001
0001
0100
0101
0001
0110
0100
,
1000
1010
0010
0100
0101
0001
1002
1000
,
0100
0010
0100
1000
0010
0100
2013
0000
,
3200
0000
0302
0000
2003
0000
3110
0011
,
0100
1001
1001
0010
0110
0001
1001
0010
,
1100
1001
0010
0100
1000
0100
0011
0110
,
0001
1100
1100
0001
1010
0100
0101
0010
,
1001
1001
0010
0100
1000
0010
1100
1001
,
0010
0101
1001
0010
0002
1000
0203
1000
,
0320
0001
2030
0010
3200
1000
0311
0100
,
1001
0000
0110
0000
0001
0000
1000
0000
1001
0000
0010
0000
1100
0001
1000
0010
,
0100
0001
1000
0010
0100
0010
1000
0001
0100
0010
1000
0001
0110
0000
0001
0000
,
0100
1010
0100
0010
1100
0010
1001
0100
,
1000
0000
0011
0000
1000
0000
0001
0000
0110
0000
0001
0000
1100
0010
0001
0100
,
0010
0100
1001
0010
1000
0001
0010
0100
1001
0100
0010
0001
1010
0001
0010
0100
,
1000
0100
0010
0100
1001
0010
0001
0010
1100
0001
1000
0001
0110
0000
0001
0000
,
1000
1010
0100
0010
1100
0010
1001
0100
,
1000
0011
1000
0001
0110
0001
1100
0010
,
0100
1000
0010
0100
1001
0110
1002
0000
,
2003
0000
0000
0000
3200
0000
0000
0000
0320
0000
0000
0000
1031
0100
0010
0001
,
0010
0001
1100
0010
0100
0010
1000
0100
1001
0010
0100
0010
0101
0010
0100
1000
,
0001
0100
0011
0100
1000
0001
0100
0001
0110
1000
0001
0010
1100
0000
0010
0000
,
0001
1001
0010
1000
0101
0010
1002
0010
,
0100
0000
0010
0000
0103
0000
1000
0000
0001
0000
0010
0000
1100
0010
0001
0100
,
0010
0100
1001
0010
1000
0001
1000
0010
0101
1000
0001
1000
0110
0001
0010
0100
,
1000
0100
1010
0001
0010
0100
1000
0100
1010
0001
0010
0001
1100
0000
0010
0000
,
1000
0000
0110
0000
0001
0000
1000
0000
0011
0000
0100
0000
1001
0010
0100
0001
,
1000
0100
0010
0001
0010
0100
1000
0001
0010
0100
1000
0001
0110
0000
0001
0000
,
0010
1100
0010
0100
1001
0010
0101
1000
,
0100
0011
1000
0001
0110
0001
1100
0010
,
0100
0000
1001
0000
0010
0000
1000
0000
0101
0000
0010
0000
1001
0010
0100
0001
,
1000
0100
0010
0001
0010
0100
1000
0010
0100
0001
1000
0100
0011
0000
0100
0000
,
1000
0011
0100
1000
0011
0100
0011
0100
,
1000
0011
0100
1000
0011
0100
0011
0100
,
1000
0000
0011
0000
0100
0000
1000
0000
0011
0100
1000
0100
0022
0000
0033
0000
,
1010
0000
0000
0000
0101
0000
0000
0000
1001
0010
0100
0010
0100
1000
0010
0100
,
0001
1000
0100
0010
0100
0010
0001
0100
0010
1000
0001
0010
0001
0100
0010
1000
,
0100
0010
0001
0010
0200
0000
2300
0000
3020
0000
0000
0000
0000
0000
0230
0000
,
0000
0302
2003
0000
,
3100
0000
0000
0000
0010
0000
0001
0000
1001
0100
0010
0100
0001
1000
0100
1000
,
0001
0010
0100
1000
0001
1000
0010
0100
0001
1000
0100
1000
0001
0010
1000
0010
,
0001
1000
0010
0100
0002
0000
0023
0000
0230
0000
1000
0000
0001
0000
2300
0000
,
0010
0000
0100
0000
3002
0000
0010
0000
0103
0010
0100
0010
0100
0010
0100
0010
,
0100
0010
0100
0010
0100
0010
0100
0010
1001
0000
0110
0000
0010
0000
1001
0000
,
0010
0001
1100
0100
0011
0001
1100
1100
,
0010
0100
1001
0010
1100
1001
0010
1000
,
0101
1000
0011
1000
0110
0001
1100
1001
,
0010
0100
0001
0010
1001
0110
1000
0011
,
1100
0010
1001
0010
0101
1000
0110
1001
,
0010
0001
1100
0010
1001
0100
1000
0011
,
0100
0000
1000
0000
0110
0000
0001
0000
1001
0010
0100
0001
1000
0100
0010
0001
,
0100
0010
1000
0100
0010
0001
0100
0010
1001
0000
0100
0000
0010
0000
1010
0000
,
0100
0001
0101
1000
1001
0010
0100
1100
,
0010
0000
0100
0000
0011
0000
1000
0000
0110
0001
1000
0010
0100
0001
1100
0001
,
0010
0100
0010
0100
1001
0010
0100
1000
0101
1000
0010
0100
0010
0100
1001
0010
,
0100
0001
1000
0100
1001
0100
0010
0001
0110
0000
1000
0000
0001
0000
1010
0000
,
0001
0100
1010
0100
1001
0010
0100
0011
,
1000
0001
0110
1000
1001
0010
0100
1000
,
0001
0000
0100
0000
0011
0000
0110
0000
1100
0001
0100
0001
0100
0010
1000
0010
,
1000
0100
0010
0100
0010
0001
0100
0010
1001
0000
0010
0000
0001
0000
1100
0000
,
0010
0100
1001
0010
0101
1000
0100
0011
,
1000
0001
0110
0001
1100
0010
0100
1001
,
0010
1000
0101
0001
1010
0100
1000
0001
,
0010
0000
0100
0000
1000
0000
0010
0000
1100
0001
0010
0001
0100
0010
1001
0100
,
0010
1000
0001
1000
0110
0001
0010
0001
1100
0010
0100
1000
0010
0100
1001
0010
,
1000
0001
0100
0010
0101
1000
0001
0100
1010
0000
0100
0000
1000
0000
0011
0000
,
1000
0000
0001
0000
1001
0000
0010
0000
1100
0000
1000
0100
0010
0001
0010
0100
,
1000
0001
0100
0010
1000
0010
0100
0001
1010
0000
0010
0000
0100
0000
1001
0000
,
0001
0010
0101
1000
1001
0010
0100
1010
,
0001
1000
1100
0010
1001
0100
0010
0110
,
0001
0000
1000
0000
1001
0000
0010
0000
0101
0010
1000
0010
1000
0100
0010
0001
,
0010
0001
0100
0010
0100
0010
1000
0001
1010
0001
1000
0100
0010
0001
1010
0100
,
1000
0010
0100
0001
1010
0100
1000
0001
0110
0001
0010
0100
0010
0001
1100
0010
,
0100
0001
1000
0100
1010
0001
0100
0001
1010
0100
0010
0001
1000
0010
0100
0001
,
1000
0100
0010
0001
0010
0100
1000
0010
1001
0000
0000
0000
2001
0000
0000
0000
,
3210
0000
0000
0000
0311
1000
0100
1000
0001
0100
0001
0010
0100
0010
0001
1000
,
0010
0100
0001
1000
0100
1000
0001
0010
0100
0010
0001
1000
0010
0100
0001
1000
,
0200
0320
0032
0000
0003
2000
0000
0000
,
3200
0320
0000
0032
,
2003
0000
0000
0000
3100
1000
0001
0100
0001
0010
0100
0010
0001
1000
0100
0010
,
0001
0010
0100
1000
0010
0100
0001
1000
0100
0010
0001
0010
0100
1000
0010
0100
,
0002
2003
3200
0000
0000
0320
0000
0000
,
0032
0000
0000
0000
1003
0001
1000
0001
1000
0001
1000
0001
0010
0100
0010
0100
,
0010
0100
0010
0100
1001
0010
1000
0100
0010
0000
0001
1000
0100
1000
0001
0010
,
0100
0000
0010
0001
0010
0100
1000
0001
1000
0000
0010
0100
0001
1000
0100
1000
,
0001
0000
0001
0010
0100
0010
0001
1000
0010
0000
0010
0100
0001
1000
0100
1000
,
0001
0000
0001
0010
0100
0010
0001
1000
0010
0000
0010
0100
0001
0100
0010
1000
,
0001
0000
0100
1000
0001
0010
0100
0010
0001
0000
0001
1000
0010
0100
0001
1000
,
0100
0000
0100
1000
0001
0010
0100
0010
0001
0000
0001
1000
0010
0100
0001
1000
,
0100
0000
0100
1000
0010
1000
0100
0010
0001
0000
0001
0010
0100
1000
0010
0100
,
0001
0000
0001
0100
0010
1000
0100
1000
0001
0000
0001
1000
0010
0100
0001
1000
,
0100
0000
0100
0010
0001
0010
1000
0010
0001
0000
0001
1000
0010
0100
0001
1000
,
0100
0000
0100
1000
0010
1000
0100
0010
0001
0000
0001
0010
0001
0100
0001
0010
,
0001
0000
1000
0010
1000
0001
0100
0001
1000
0000
0100
1000
0001
0100
0001
0010
,
0100
0000
0100
0010
0001
1000
0010
0001
0010
0000
1000
0100
1000
0001
1000
0100
,
0010
0000
0001
0010
1100
0000
0000
0001
1001
0000
0100
0110
0000
0011
0000
0100
,
1100
0000
0000
0000
0011
1000
0010
0100
1001
0000
0000
0000
0110
1000
0001
0010
,
1001
0000
0100
0000
0010
0100
0001
1000
0110
0000
0100
0011
0000
1001
0000
0010
,
1010
0000
0000
0000
0010
1000
0100
1000
0011
0000
0100
0000
0001
0010
0100
1000
,
0010
0100
0001
1000
0110
0001
1000
0100
1000
0000
0001
0010
0100
1000
0001
0100
,
0011
0000
0010
1000
0110
1000
0001
0100
0001
0000
0001
0010
0100
0010
0001
1000
,
0110
0000
0010
0100
0011
1000
0100
1000
0001
0000
0001
0010
1000
0010
0001
1000
,
0110
0000
0010
0100
0011
1000
0100
1000
0001
0000
0101
0010
0100
0010
0001
1000
,
0011
0000
0100
0000
0001
0000
0010
0000
1001
0000
0000
0010
0000
0000
0100
0000
0001
0000
0000
1000
0000
0000
0100
0000
1000
0000
0000
0001
0000
0000
0100
0000
,
2002
0000
3003
0000
1010
0000
0001
0100
0000
0000
1100
0000
0001
0000
0100
0202
,
0000
0000
0303
0000
0000
0000
0010
0000
0011
0000
0000
0100
0000
0000
1100
0000
0011
0000
0000
0000
0100
0000
0000
0000
0010
0000
0000
0000
0100
0000
1001
0000
,
0000
0000
1010
0000
0000
1001
1010
0101
,
1100
0000
0011
0000
0110
0000
2002
3003
0010
0000
1000
0000
0100
0000
1000
0000
,
0001
0100
0011
0011
1001
0100
0010
0001
,
1100
0010
0011
0100
1001
1000
0100
1000
,
0001
0000
0010
0000
0100
1000
0100
1000
0001
0000
0001
0000
1100
0000
0011
0000
,
0100
0000
0000
0010
0000
0000
0001
0000
0010
0000
0100
0000
2000
0000
0000
0010
0000
0000
0100
0000
0000
3001
0000
0000
,
1000
0000
0000
0000
0000
0000
0100
0000
0000
0000
0000
0000
0010
0000
0000
0000
0000
0000
0001
0000
0000
0000
0000
0000
0100
0000
0000
0000
0010
0000
0000
0000
1000
0000
0000
0000
0001
0000
0000
0010
0000
0000
0100
0000
0000
1000
0000
0000
,
0100
0010
0001
0100
0010
1000
0010
0100
0001
1000
0001
0010
0100
0010
0001
0100
,
1000
0000
0000
0100
0000
0000
0001
0000
0000
0010
0000
0000
1000
0000
0000
0010
0000
0000
0001
0000
0000
0100
0000
0000
0010
0000
0000
0100
0000
0000
0010
0000
0000
1000
0000
0000
0001
0000
0000
1000
0000
0000
0010
0000
0100
0000
0001
0000
,
2000
0010
3001
0100
0020
1000
0100
1030
,
0001
0000
0000
0100
0000
0000
0001
0000
0010
0000
0100
0000
1000
0000
0010
0000
0100
0000
0001
0000
1000
0000
0010
0000
,
0100
0000
0000
0000
0001
0000
0000
0000
0100
0000
0000
0000
0010
0000
0000
0000
1000
0000
0000
0000
0100
0000
0000
0000
0010
0000
0001
0000
1000
0000
0100
0000
0000
0010
0000
0000
0100
0000
0000
1000
0000
0000
0010
0000
0000
0100
0000
0000
,
0001
0000
0000
0100
0000
0000
0010
0000
0000
1000
0000
0000
0010
0000
0000
0100
0000
0000
0001
0000
0000
0010
0000
0000
0100
0000
0000
0000
1000
0000
0000
0000
0010
0000
0000
0000
0100
0000
0000
0000
0010
0000
0000
0000
1000
0000
0000
0000
,
0012
0000
0000
1000
0000
0000
0103
0000
0000
0010
0000
0000
0001
0000
0010
0000
0100
0000
1000
0000
0010
0000
1000
0000
,
0001
0100
0001
1000
0100
1000
0001
0010
0100
0010
0001
1000
,
0010
0000
0000
0000
0100
0000
0000
0000
0001
0000
0000
0000
1000
0000
0000
0000
0100
0000
0000
0000
0010
0000
0000
0000
0001
0000
0010
0000
0100
0000
1000
0000
0000
0010
0000
0000
0100
0000
0000
0010
0000
0000
1000
0000
0000
0001
0000
0000
,
0010
0100
1000
0100
1000
0010
0100
0010
0100
0001
1000
0001
1000
0010
0100
0001
,
1000
0100
0010
0001
0010
0100
1000
0001
0110
0000
1000
0000
0100
0000
1000
0000
,
0001
0010
1100
1100
1001
0010
0100
0001
,
1000
0001
0110
0110
1001
0100
1000
0001
,
0100
0000
1000
0000
0011
0000
0011
0000
1001
0100
1000
0010
0100
0001
1000
0100
,
0010
0001
0010
0100
1000
0010
0100
0001
1100
0000
0010
0000
1000
0000
0001
0000
,
0010
0001
1100
1100
0011
0100
1000
0001
,
0100
1010
1010
0102
1000
0013
1000
0100
,
0010
0001
0011
1100
0110
1000
0001
1000
,
0110
0000
0010
0000
0001
0010
0100
1000
0101
0000
1000
0100
0010
0000
0101
0000
,
0000
0000
0001
0010
0100
0000
2020
0000
0000
0000
3030
0000
0001
0000
1000
0000
,
0100
0000
0010
0000
0001
0000
0010
0000
1100
0000
0010
0001
0100
0000
1010
0000
,
0000
0000
0100
1000
0010
0000
0202
0000
0000
0000
0303
0000
0010
0000
1000
0000
,
0100
0000
1000
0000
0001
0000
0010
0000
0110
0000
1000
0001
1000
0000
0110
0000
,
0000
0000
0001
1000
0001
0000
0220
0000
0000
0000
0330
0000
0001
0000
1000
0000
,
0100
1000
0011
2100
0010
0100
3001
1000
,
0001
0110
1100
0012
0100
1000
0013
1000
,
0100
0000
0000
0010
0000
0000
0001
0000
0000
0010
0000
0000
0100
0000
0000
1000
0000
0000
0010
0000
0000
0100
0000
0000
0001
0000
0000
0000
1000
0000
0000
0000
0010
0000
0000
0000
0100
0000
0000
0000
0001
0000
0000
0000
1000
0000
0000
0000
,
0100
1000
0010
0100
0001
1000
0100
0010
0001
0010
0100
1000
,
0010
0000
0000
0000
0100
0000
0000
0000
0001
0000
0000
0000
0010
0000
0000
0100
0000
0000
1000
0000
0000
0010
0000
0000
0100
0000
0000
0010
0000
0000
1000
0000
0000
0001
0000
0000
1000
0000
0000
0001
0000
0000
0010
0000
0000
0100
0000
0000
,
0010
0001
1000
0010
0100
0001
1000
0010
0001
1000
0100
0001
0010
1000
0002
0000
,
0000
0000
0000
0000
0000
0000
0103
0010
1000
0100
1000
0001
,
0100
0001
0010
0100
0010
0001
1000
0010
0100
0001
1000
0100
,
0020
0000
0000
0000
0000
0000
0130
0010
1000
0001
0010
0100
,
1000
0010
0100
0001
1000
0100
0010
0001
0010
0100
1000
0010
,
1000
0000
0000
0000
0010
0000
0000
0000
0100
0000
0000
0000
0001
0000
0000
0000
1000
0000
0000
0000
0100
0000
0000
0000
0012
0000
0000
1000
0000
0000
0100
0000
0000
1000
0000
0000
0013
0000
0000
0100
0000
0000
0001
0000
0000
1000
0000
0000
,
0100
1000
0010
0100
0001
1000
0100
0010
0001
1000
0010
0100
0010
1000
0001
0010
,
0100
0010
0001
1000
0100
0010
0001
0010
0100
0000
1000
0000
0010
0000
0100
0001
,
1000
0001
1000
0100
0010
0000
0100
0000
1002
0000
0010
0000
0103
0000
0001
1000
,
0001
0000
0010
0000
0100
0000
1000
0000
0100
0010
0001
1000
0010
0100
0010
0100
,
0001
0010
0100
1000
0100
0010
1000
0010
0001
0100
0010
1000
0100
0010
0100
0001
,
1000
0100
1000
0001
0010
0100
0012
0000
1000
0000
0000
0000
0000
0000
1000
0000
,
0003
0000
0000
1000
0000
0000
0001
0000
0010
0000
0100
0000
1001
0000
0000
0000
0000
0000
0110
0000
0000
2002
0000
0000
,
0000
3003
0000
0000
0011
0000
1000
0000
0100
0000
0000
0000
1100
0000
0010
0000
,
0000
0000
0010
0000
0001
0000
1000
0000
0220
0000
0000
0330
0000
0000
0100
1000
,
0012
0000
0000
0000
1003
0010
0100
0010
,
1000
0000
0001
0000
0010
0000
0100
0000
0012
0000
0000
0000
0000
0000
1003
0100
,
0020
0000
0000
0000
0000
0000
0000
0000
0031
1000
0010
0100
0001
1000
0010
0100
,
0010
0100
0001
0010
0100
1000
0001
0100
0010
1000
0010
0100
0001
0010
0100
0010
,
0001
1000
0100
0010
0001
0100
0010
0100
0001
0010
0100
1000
0010
0100
0001
1000
,
0010
0001
1000
0100
0001
0010
0100
1000
0001
0100
1000
0010
0001
0100
1000
0001
,
0100
0010
1000
0001
0010
1000
0001
0100
2001
0000
0010
0000
0100
0000
0001
0000
,
0010
0001
3200
1000
0320
0100
1000
0032
,
0010
1000
0203
0001
0320
1000
0001
0100
,
0001
1000
0230
1000
0302
0010
1000
0203
,
0010
0001
0320
0100
2030
0001
0100
0010
,
0001
0100
3002
0100
0023
1000
0001
0230
,
1000
0010
2300
0010
3002
0100
0010
1000
,
0203
0001
0320
0100
2030
0010
3100
0001
,
0001
1000
0100
1000
0012
0100
1000
0010
,
1000
0100
2003
0010
3200
0001
1000
0320
,
0100
1000
0032
0100
2003
0010
0100
0001
,
0100
0001
3020
0001
0230
1000
0010
0302
,
1000
0100
2003
0100
3020
0001
1000
0001
,
0100
1000
0100
0001
1000
0100
1000
0001
,
0230
0001
2300
0010
3002
0100
0010
1000
,
0100
0000
0010
0000
2003
0000
3002
0000
0013
0100
1000
0010
0100
0001
1000
0100
,
0010
0001
0010
0100
1000
0010
0100
0001
1001
0000
1000
0000
0010
0000
0101
0000
,
0010
0100
0011
0100
1001
0010
0001
1100
,
0001
0000
1000
0000
0110
0000
1000
0000
0011
0100
1000
0010
0100
0010
1001
0100
,
0001
1000
0100
0010
1001
0010
0100
1000
0101
1000
0100
0010
0001
0010
0100
0010
,
1001
0100
1000
0100
0011
1000
0001
1000
0110
0000
1000
0000
0001
0000
0101
0000
,
0010
0100
0011
0100
1001
0010
0001
1100
,
0001
1000
0110
1000
0011
0100
0010
0001
,
0100
0010
1001
0110
2001
0000
3002
0000
,
0023
0000
0000
0000
0230
0000
0000
0000
1301
0010
0100
1000
0100
1000
0011
0100
,
0010
0100
0001
0010
1001
0100
0010
0100
1010
0100
0010
0001
1000
0010
1100
0010
,
0001
1000
0010
1000
0110
0001
1000
0100
0011
0000
0100
0000
1000
0000
1001
0000
,
0100
0001
1010
0100
2001
0100
0010
0100
,
3010
0000
0001
0000
1000
0000
0100
0000
0011
0100
1000
0010
0100
0010
1001
0100
,
0001
1000
0001
0100
1010
0001
1000
0001
0110
1000
0100
0010
0001
0010
0101
1000
,
0100
0010
0001
0010
0101
1000
0100
1000
0011
0000
0100
0000
0001
0000
0110
0000
,
1000
0000
0001
0000
1100
0000
0010
0000
1001
0100
0010
1000
0001
0010
0100
1000
,
0100
0010
0001
1000
0100
0010
0001
1000
0101
0000
0001
0000
1000
0000
1100
0000
,
0100
1000
1001
0001
0101
0001
0010
0110
,
0100
1000
1010
0010
0101
0001
1000
1100
,
0100
0010
0011
0100
1100
0010
1000
0001
,
0100
0001
1000
0100
0011
0100
1000
0011
,
0100
1000
0011
0100
0011
0100
0010
1001
,
0100
0010
1001
0010
0101
0010
1000
0101
,
0010
0100
1001
0010
0110
1000
0001
0100
,
0002
0000
1000
0000
2003
0000
0100
0000
3200
0010
0001
1000
0310
0100
0001
0010
,
0100
0010
0001
1000
0010
0100
0001
1000
0100
1000
0001
0100
0001
0010
0100
1000
,
0001
1000
0010
0100
0001
1000
0100
1000
0001
0100
0001
0010
0100
0010
0001
1000
,
0010
0100
0001
1000
0010
1000
0001
0100
0010
1000
0001
1000
0100
0010
0001
0010
,
1000
0010
0001
1000
0010
0100
0001
1000
0100
1000
0001
0100
0001
1000
0010
0100
,
0010
0001
1000
0010
0100
0001
1000
0100
0010
0001
0100
0001
0010
0100
0010
0001
,
1000
0010
0100
0001
1000
0010
1000
0001
0110
0000
0001
0000
0100
0000
1010
0000
,
0100
0010
1100
0010
1001
0010
1000
0101
,
0010
0000
0100
0000
1001
0000
0010
0000
1001
0010
1000
0001
0010
0001
1000
0100
,
0001
0010
1000
0100
0010
0100
1000
0010
1000
0001
0010
0100
1000
0100
0001
0010
,
1000
0100
0010
0100
1000
0010
1000
0001
1010
0000
0100
0000
0010
0000
1001
0000
,
0010
0001
1100
0010
1001
0100
1000
0011
,
0100
0000
0010
0000
1001
0100
1000
0010
1000
0100
0001
0010
0001
1000
0100
0001
,
0010
1000
0100
0010
0001
1000
0010
1000
0001
0010
0001
1000
0100
0001
0010
1000
,
0100
0001
0100
1000
0011
0000
0100
0000
0011
0000
1000
0000
0100
0000
1001
0000
,
0010
0100
1001
0010
0101
1000
0001
1100
,
0010
0000
0000
1000
0000
0000
0101
0000
0000
1000
0000
0000
0011
0001
0001
0001
0001
0001
0001
0001
0001
0001
0001
0001
,
0001
0001
0001
0001
0001
0001
0001
0001
0001
0001
0001
0001
0001
0000
0000
0000
0000
0000
2001
0000
0000
0000
0000
0000
,
3210
0000
0321
0000
1031
1001
0000
1001
,
0220
0000
0330
0000
;
