#TITLE:J-Core Mix 11;
#SUBTITLE:;
#ARTIST:Various Artists;
#TITLETRANSLIT:;
#SUBTITLETRANSLIT:;
#ARTISTTRANSLIT:;
#CREDIT:;
#BANNER:BN.png;
#BACKGROUND:BG.png;
#LYRICSPATH:;
#CDTITLE:../CDTitleKIRBY.png;
#MUSIC:jcoremix.ogg;
#OFFSET:-0.117;
#SAMPLESTART:278.393;
#SAMPLELENGTH:26.000;
#SELECTABLE:YES;
#BPMS:0.000=180.037;
#STOPS:;
#BGCHANGES:;
// cache tags:
#FIRSTBEAT:3.000;
#LASTBEAT:1523.000;
#SONGFILENAME:Songs/Index Gradation/J-Core Mix 11 - [Kirby5464]/J-Core Mix 11.sm;
#HASMUSIC:1;
#HASBANNER:1;
#MUSICLENGTH:511.503;
// end cache tags

//---------------dance-single - ----------------
#NOTES:
     dance-single:
     :
     Challenge:
     16:
     1.000,1.000,0.129,0.184,1.000,4247.000,66.000,94.000,6.000,0.000:
0000
0000
0000
0000
0000
0000
0001
1000
,
0001
0000
1000
0010
1000
0000
0001
0010
,
0001
0000
1000
0100
1000
0000
0001
0100
,
0001
0000
1000
0001
1000
0000
0010
0100
,
0010
0000
1000
0010
0100
0000
0001
0100
,
0010
0000
1000
0100
1000
0000
0001
0010
,
0001
0000
1000
0010
1000
0000
0001
0100
,
0001
0000
1000
0001
1000
0000
0001
1000
,
0001
0000
1000
0010
1000
0000
1001
0000
,
0010
0100
0010
0000
1000
0010
0100
0000
,
0001
0100
0010
0000
1000
0100
1000
0000
,
0001
0010
0001
0000
1000
0010
1000
0000
,
0001
0100
0001
0000
1000
0001
1000
0000
,
0001
1000
0001
0000
1000
0010
1000
0000
,
0001
0010
0001
0000
1000
0100
1000
0000
,
0001
0010
0100
1000
0001
0100
0001
1000
0100
0010
0001
1000
0010
0000
0100
0000
,
0001
0000
0000
0000
1000
0000
0001
0000
1000
0000
0000
0000
0001
0010
0001
1000
,
0100
0010
0100
1000
0001
0010
0100
1000
0010
0100
0010
1000
0100
1000
0001
0100
,
0010
1000
0100
0010
0001
1000
0010
0100
0001
0010
0100
0010
0001
1000
0100
1000
,
0001
0100
0001
0010
0100
1000
0010
0100
0010
1000
0100
1000
0001
0010
0001
1000
,
0100
0010
0001
0100
0010
0100
0001
0010
0001
1000
0010
0100
0001
0010
0100
1000
,
0001
0100
0010
1000
0100
0010
0100
1000
0001
0010
0001
1000
0010
1000
0100
0010
,
0001
0100
0010
0100
0001
0010
0001
1000
0100
1000
0001
0010
0100
1000
0001
0100
,
0001
1000
0100
0010
0001
1000
0100
1000
0001
0010
0100
0010
0001
1000
0100
0010
,
0001
0100
0010
0100
0001
0010
0001
1000
0010
0100
0001
0010
0100
1000
0001
0100
,
0010
1000
0100
0010
0100
1000
0001
0010
0001
1000
0010
1000
0100
0010
0001
0100
,
0010
0100
0001
0010
0001
1000
0100
1000
0001
0010
0100
1000
0010
0100
0010
1000
,
0100
1000
0001
0100
0010
1000
0100
0010
0001
1000
0010
0100
0001
0010
0100
0010
,
0001
1000
0100
1000
0001
0100
0001
0010
0100
1000
0010
0100
0010
1000
0100
1000
,
0001
0010
0001
1000
0100
0010
0001
1000
0010
1000
0001
0010
0100
1000
0001
0010
,
0001
1000
0100
1000
0001
0100
0010
1000
0001
0010
0100
1000
0001
0010
0001
1000
,
0010
0100
0001
1000
0001
1000
0001
1000
0001
1000
0001
1000
0001
0000
0100
0000
,
0001
0000
0000
0000
1000
0000
0100
0000
1000
0000
0000
0000
0001
0010
0100
1000
,
0001
0100
0001
1000
0100
0010
0001
1000
0100
1000
0001
0010
0100
0010
0001
1000
,
0100
0010
0001
0100
0010
0100
0001
0010
0001
1000
0010
0100
0001
0010
0100
1000
,
0001
0100
0010
1000
0100
0010
0100
1000
0001
0010
0001
1000
0010
1000
0100
0010
,
0001
0100
0010
0100
0001
0010
0001
1000
0100
1000
0001
0010
0100
1000
0010
0100
,
0010
1000
0100
1000
0001
0100
0010
1000
0100
0010
0001
1000
0010
0100
0001
0010
,
0100
0010
0001
1000
0100
1000
0001
0100
0001
0010
0100
1000
0010
0100
0010
1000
,
0100
1000
0001
0010
0001
1000
0100
0010
0001
1000
0010
1000
0001
0010
0100
1000
,
0001
0010
0001
1000
0100
0010
0100
1000
0001
0010
0100
1000
0010
0100
0010
1000
,
0100
1000
0001
0100
0010
1000
0100
0010
0001
1000
0010
0100
0001
0010
0100
0010
,
0001
1000
0100
1000
0001
0100
0001
0010
0100
1000
0010
0100
0010
1000
0100
1000
,
0001
0010
0001
1000
0100
0010
0001
0100
0010
0100
0001
0010
0001
1000
0010
0100
,
0001
0010
0100
1000
0001
0100
0010
1000
0100
0010
0100
1000
0001
0010
0001
1000
,
0010
1000
0100
0010
0001
0100
0010
0100
0001
0010
0001
1000
0100
1000
0001
0010
,
0100
1000
0001
0100
0001
1000
0100
0010
0001
1000
0100
1000
0001
0010
0001
1000
,
0010
0100
0001
1000
0100
0010
0001
1000
0100
1000
0001
0100
0020
0000
0000
0000
,
2030
3200
0320
0032
,
0000
0000
0000
0000
,
0000
0000
0000
0000
0023
0230
2300
0000
,
0000
0000
0000
3002
0000
0000
0203
0000
,
0000
0000
0000
0320
2030
3200
0320
0000
,
0000
0000
0000
0000
,
0000
0000
0000
0000
0032
0023
0230
0000
,
0000
0000
0000
0000
0000
0000
2300
0000
0000
3002
0000
0000
0203
0000
0000
0000
,
0000
0000
0000
0320
,
0000
0000
0000
0000
,
0000
0000
0000
0000
0032
2003
3200
0000
,
0000
0000
0000
0320
0000
0000
0032
0000
,
0000
0000
0000
0203
0320
2030
3002
0000
,
0000
0000
0000
0000
,
0000
0000
0000
2003
3020
0230
0302
0000
,
0000
0000
0000
0000
0000
0000
0023
0000
0000
0230
0000
0000
2300
0000
0000
0000
,
0000
0000
0000
3002
,
0000
0000
0000
0000
,
0000
0000
0000
2003
3002
0203
0320
0000
,
0000
0000
0000
0230
0302
0023
0230
0000
,
0000
0000
0000
2300
3002
0203
0320
0000
,
0000
0000
0000
0000
,
0000
0000
0000
2030
3200
0320
0032
0000
,
0000
0000
0000
0000
0000
0000
2003
0000
0000
3020
0000
0000
0230
0000
0000
0000
,
0000
0000
0000
0302
,
0000
0000
0000
0000
,
0000
0000
0000
2003
3020
0230
0302
0000
,
0000
0000
0000
2003
0000
0000
3002
0000
,
0000
0000
0000
0023
0230
2300
3002
0000
,
0000
0000
0000
0000
,
0000
0000
0000
2003
3020
0230
0302
0000
,
1003
0010
0100
0001
0010
0100
1000
0001
0100
0010
1000
0001
0100
0000
0000
0000
,
0000
0000
0000
0000
0000
0000
0000
0000
0000
0000
0000
0000
0001
0010
0100
1000
0100
0010
0001
0000
0000
1000
0000
0000
,
0010
0100
0001
0010
0001
1000
0100
1000
,
0010
0100
0010
1000
0001
0100
0001
0010
,
0100
1000
0001
0010
0100
0010
0001
1000
,
0100
1000
0001
0100
0010
1000
0100
0010
,
0001
1000
0010
1000
0001
0100
0010
1000
,
0001
0010
0100
1000
0010
0100
0010
1000
,
0100
1000
0001
0100
0001
0010
0100
1000
,
0010
0100
0010
1000
0001
0100
1010
0100
,
0010
1000
0100
0010
0001
1000
0100
1000
,
0001
0100
0001
1000
0010
0100
0011
1000
,
0100
0010
0001
1000
0010
0100
0001
1000
,
0001
0010
0100
1000
0001
0100
1010
0100
,
0001
0010
0100
1000
0001
0100
1001
0100
,
0010
1000
0100
0010
0001
1000
0110
0001
,
0100
0010
0101
0010
1000
0001
1100
0000
,
0000
0000
0000
0000
0000
0000
0000
0000
0000
0000
0000
0000
0001
0010
0100
1000
,
0010
0100
0010
1000
0100
1000
0001
0100
0010
1000
0100
0010
0001
1000
0010
0100
,
0001
0010
0100
0010
0001
1000
0100
1000
0001
0100
0001
0010
0100
1000
0010
0100
,
0010
1000
0100
1000
0001
0010
0001
1000
0100
0010
0001
0100
0010
0100
0001
0010
,
0001
1000
0010
0100
0001
0010
0100
1000
0001
0100
0010
1000
0100
0010
0100
1000
,
0001
0010
0001
1000
0010
1000
0100
0010
0001
0100
0010
0100
0001
0010
0001
1000
,
0100
1000
0001
0010
0100
1000
0001
0100
0001
1000
0100
0010
0001
1000
0100
1000
,
0001
0010
0100
0010
0001
1000
0100
0010
0001
0100
0010
0100
0001
0010
0001
1000
,
0010
0100
0001
0010
0100
1000
0001
0100
0010
1000
0100
0010
0100
1000
0001
0010
,
0001
1000
0010
1000
0100
0010
0001
0100
0010
0100
0001
0010
0001
1000
0100
1000
,
0001
0010
0100
1000
0010
0100
0010
1000
0100
1000
0001
0100
0010
1000
0100
0010
,
0001
1000
0010
0100
0001
0010
0100
0010
0001
1000
0100
1000
0001
0100
0001
0010
,
0100
1000
0010
0100
0010
1000
0100
1000
0001
0010
0001
1000
0100
0010
0001
1000
,
0010
1000
0001
0010
0100
1000
0001
0010
0001
1000
0100
1000
0001
0100
0010
1000
,
0001
0010
0100
1000
0001
0010
0001
1000
0010
0100
0001
1000
0001
0100
0010
1000
,
0001
0000
0000
0010
0000
0000
0001
0000
0000
1000
0000
0000
0100
0000
0000
0010
0000
0000
0001
0000
0000
1000
0000
0000
0010
0000
0000
1000
0000
0000
0001
0000
0000
0100
0000
0000
0002
0000
0000
0003
0000
0000
0000
0000
1100
0000
0000
0000
,
0000
0000
0000
0000
0110
0000
0000
0000
0000
0000
0000
0000
0011
0000
0000
0000
0000
0000
0000
0000
1010
0000
0000
0000
0000
0000
0000
0000
0101
0000
0000
0000
0000
0000
0000
0000
1000
0000
0000
0001
0000
0000
0100
0000
0000
0010
0000
0000
,
1000
0001
0100
0001
0010
0100
1000
0001
0100
0010
1000
0100
0010
0100
1000
0001
,
0010
0001
1000
0010
1000
0100
0010
0001
0100
0010
0100
0001
0010
0001
1000
0100
,
1000
0001
0010
0100
1000
0010
0100
0010
1000
0100
1000
0001
0100
0010
1000
0100
,
0010
0001
1000
0010
0100
0001
0010
0100
0010
0001
1000
0100
1000
0001
0100
0001
,
0010
0100
1000
0010
0100
0010
1000
0100
1000
0001
0010
0001
1000
0100
0010
0001
,
1000
0010
1000
0001
0010
0100
1000
0001
0010
0001
1000
0100
0010
0100
1000
0001
,
0010
0100
1000
0010
0100
0010
1000
0100
1000
0001
0100
0010
1000
0100
0010
0001
,
1000
0010
0100
0001
0010
0100
0010
0001
1000
0100
1000
0001
0100
0001
0010
0100
,
1000
0010
0100
0010
1000
0100
1000
0001
0010
0001
1000
0100
0010
0001
0100
0010
,
0100
0001
0010
0001
1000
0010
0100
0001
0010
0100
1000
0001
0100
0010
1000
0100
,
0010
0100
1000
0001
0010
0001
1000
0010
1000
0100
0010
0001
0100
0010
0100
0001
,
0010
0001
1000
0100
1000
0001
0010
0100
1000
0001
0100
0001
1000
0100
0010
0001
,
1000
0100
1000
0001
0010
0001
1000
0010
0100
0001
1000
0100
0010
0001
1000
0100
,
1000
0001
0100
0010
1000
0001
0010
0100
0010
0001
1000
0100
1000
0001
0100
0001
,
0010
0100
1000
0010
0100
0010
1000
0100
1000
0001
0010
0001
1000
0000
0100
0000
,
0010
0001
1000
0010
0100
0001
1000
0100
,
1000
0000
0001
1000
0001
0000
1000
0010
,
1000
0000
0001
0010
0001
0000
1000
0100
,
1000
0000
0001
0100
0001
0000
1000
0001
,
1000
0000
0010
0100
0010
0000
1000
0010
,
0100
0000
0001
0100
0010
0000
1000
0100
,
1000
0000
0001
0010
0001
0000
1000
0010
,
1000
0000
0001
0100
0001
0000
1000
0001
,
1000
0000
0001
1000
0001
0000
1100
0000
,
0001
0100
0001
0000
1000
0001
1000
0000
,
0010
0100
0010
0000
1000
0001
1001
0000
,
0001
0100
0010
0000
1000
0100
1000
0000
,
0001
0010
0001
0000
1000
0010
1010
0000
,
0001
0100
0001
0000
1000
0001
1100
0000
,
0001
1000
0001
0000
1000
0010
1001
0000
,
0001
0100
0010
1000
0100
0010
0001
1000
0100
1000
0001
0100
0001
0000
0010
0000
,
0100
0000
1000
0000
0001
0000
0100
0000
0010
0000
1000
0000
0001
1000
0100
1000
,
0001
0100
0010
1000
0100
0010
0001
1000
0010
0100
0001
0010
0100
0010
0001
1000
,
0100
1000
0001
0100
0001
0010
0100
1000
0010
0100
0010
1000
0100
1000
0001
0010
,
0001
1000
0100
0010
0001
0100
0010
0100
0001
0010
0001
1000
0010
0100
0001
0010
,
0100
1000
0001
0100
0010
1000
0100
0010
0100
1000
0001
0010
0001
1000
0010
1000
,
0100
0010
0001
0100
0010
0100
0001
0010
0001
1000
0100
1000
0001
0010
0100
1000
,
0001
0100
0001
1000
0100
0010
0001
1000
0100
1000
0001
0010
0100
0010
0001
1000
,
0100
0010
0001
0100
0010
0100
0001
0010
0001
1000
0010
0100
0001
0010
0100
1000
,
0001
0100
0010
1000
0100
0010
0100
1000
0001
0010
0001
1000
0010
1000
0100
0010
,
0001
0100
0010
0100
0001
0010
0001
1000
0100
1000
0001
0010
0100
1000
0010
0100
,
0010
1000
0100
1000
0001
0100
0010
1000
0100
0010
0001
1000
0010
0100
0001
0010
,
0100
0010
0001
1000
0100
1000
0001
0100
0001
0010
0100
1000
0010
0100
0010
1000
,
0100
1000
0001
0010
0001
1000
0100
0010
0001
1000
0010
1000
0001
0010
0100
1000
,
0001
0010
0001
1000
0100
1000
0001
0100
0010
1000
0001
0010
0100
1000
0001
0010
,
0001
1000
0010
0100
0001
1000
0001
0100
0010
1000
0001
0010
0001
1000
0100
0010
,
0001
1000
0010
1000
0001
0100
0001
1000
0010
0100
0001
0010
0001
0000
0100
0000
,
0010
1000
0001
0100
0010
1000
0002
0000
,
0000
0000
0000
0000
,
0000
0000
0000
0023
,
0000
0000
0000
0000
,
0000
0000
0000
0230
,
0000
0000
0000
0000
,
0000
0000
0000
2300
,
0000
0000
0000
3002
,
0000
0000
0000
0000
,
0203
0000
0000
0000
,
0000
0000
0000
0320
,
0000
0000
0000
0000
,
0000
0000
0000
2030
,
0000
0000
0000
0000
,
0000
0000
0000
0000
,
3002
0000
0000
0000
,
0203
0000
0000
0000
0000
0000
0301
1000
,
0001
1001
0000
0010
1000
0001
0100
0001
,
1000
1010
0000
0001
0100
0001
1000
0010
,
0100
0101
0000
1000
0100
1000
0010
0100
,
0001
0011
0000
1000
0010
0100
0001
1000
,
0010
0110
0000
0001
0010
0100
1000
0001
,
1000
1100
0000
0001
0100
0010
1000
0001
,
0100
0101
0000
1000
0010
0100
0001
1000
,
0010
0110
0000
1000
0100
0010
0001
1000
,
0001
0011
0000
0100
0001
1000
0010
1000
,
0001
0101
0000
1000
0010
1000
0001
0100
,
0010
1010
0000
0001
0010
0001
0100
0010
,
1000
1100
0000
0001
0100
0010
1000
0001
,
0100
0110
0000
1000
0100
0010
0001
1000
,
0001
0011
0000
1000
0010
0100
0001
1000
,
0010
1010
0000
0001
0100
0010
0110
0000
,
0000
0000
0000
0000
0000
0000
1000
0100
,
0010
0001
1000
0100
1000
0001
0010
0001
,
1000
0010
0100
0010
1000
0001
0011
0100
,
1000
0001
0010
0100
0010
0001
1000
0100
,
1000
0001
0100
0001
0010
0100
1010
0100
,
0001
1000
0100
0010
0001
1000
0010
0100
,
0001
0010
0001
1000
0100
1000
0011
0100
,
0001
1000
0100
0010
0001
1000
0010
0100
,
0001
0010
0100
1000
0001
1000
0101
0000
,
0110
0011
1010
1100
,
0110
1001
1100
0011
,
0110
1010
0101
1001
,
0110
0000
1100
0000
0011
0000
1000
0001
,
0010
0100
1000
0001
0010
0001
1000
0100
,
1000
0000
0010
0000
0100
0000
0010
0000
1000
0000
0001
0000
0100
0010
1000
0100
,
0010
0001
1000
0100
0010
0100
1000
0001
0100
0001
0010
0100
4000
0000
0000
0000
,
3000
0000
0000
0000
0000
0000
0000
0000
0000
0000
0000
0000
0001
0010
0001
1000
,
0010
0100
0001
0010
0100
1000
0001
0100
0010
1000
0100
0010
0100
1000
0001
0010
,
0001
1000
0010
1000
0100
0010
0001
0100
0010
0100
0001
0010
0001
1000
0100
1000
,
0001
0010
0100
1000
0010
0100
0010
1000
0100
1000
0001
0100
0010
1000
0100
0010
,
0001
1000
0010
0100
0001
0010
0100
0010
0001
1000
0100
1000
0001
0100
0001
0010
,
0100
1000
0010
0100
0010
1000
0100
1000
0001
0010
0001
1000
0100
0010
0001
1000
,
0010
1000
0001
0010
0100
1000
0001
0010
0001
1000
0100
0010
0100
1000
0001
0010
,
0100
1000
0010
0100
0010
1000
0100
1000
0001
0100
0010
1000
0100
0010
0001
1000
,
0010
0100
0001
0010
0100
0010
0001
1000
0100
1000
0001
0100
0001
0010
0100
1000
,
0010
0100
0010
1000
0100
1000
0001
0010
0001
1000
0100
0010
0001
0100
0010
0100
,
0001
0010
0001
1000
0010
0100
0001
0010
0100
1000
0001
0100
0010
1000
0100
0010
,
0100
1000
0001
0010
0001
1000
0010
1000
0100
0010
0001
0100
0010
0100
0001
0010
,
0001
1000
0100
1000
0001
0010
0100
1000
0001
0100
0001
1000
0100
0010
0001
1000
,
0100
1000
0001
0010
0001
1000
0010
0100
0001
1000
0100
0010
0001
1000
0100
1000
,
0001
0100
0010
1000
0001
1000
0010
0100
0001
1000
0100
1000
0001
0010
0100
1000
,
0001
0100
0001
1000
0010
1000
0001
0100
0010
1000
0100
1000
0001
0000
0100
0000
,
0010
0000
1000
0000
0001
1000
0001
1000
0001
1000
0001
1000
0001
0100
0010
1000
,
0100
0010
0001
1000
0100
1000
0001
0100
0010
1000
0100
0010
0001
1000
0010
0100
,
0001
0010
0100
0010
0001
1000
0100
1000
0001
0100
0001
0010
0100
1000
0010
0100
,
0010
1000
0100
1000
0001
0010
0001
1000
0100
0010
0001
0100
0010
0100
0001
0010
,
0001
1000
0010
0100
0001
0010
0100
1000
0001
0100
0010
1000
0100
0010
0100
1000
,
0001
0010
0001
1000
0010
1000
0100
0010
0001
0100
0010
0100
0001
0010
0001
1000
,
0100
1000
0001
0010
0100
1000
0001
0100
0001
1000
0100
0010
0001
1000
0100
1000
,
0001
0010
0100
0010
0001
1000
0100
0010
0001
0100
0010
0100
0001
0010
0001
1000
,
0010
0100
0001
0010
0100
1000
0001
0100
0010
1000
0100
0010
0100
1000
0001
0010
,
0001
1000
0010
1000
0100
0010
0001
0100
0010
0100
0001
0010
0001
1000
0100
1000
,
0001
0010
0100
1000
0010
0100
0010
1000
0100
1000
0001
0100
0010
1000
0100
0010
,
0001
1000
0010
0100
0001
0010
0100
0010
0001
1000
0100
1000
0001
0100
0001
0010
,
0100
1000
0010
0100
0010
0000
MM0M
0000
0000
0000
0000
0000
1000
0100
1000
0001
,
0100
0001
1000
0100
0010
0001
1000
0100
1000
0001
0010
0001
1000
0010
0100
0001
,
1000
0100
0010
0001
1000
0100
1000
0001
0100
0010
1000
0001
1000
0010
0100
0001
,
1000
0100
1000
0001
0010
0100
1000
0001
0100
0001
1000
0010
1000
0000
0010
0000
,
0100
0000
0001
0000
0010
0000
0001
0000
1000
0000
0100
0000
1000
0001
0100
0010
,
1000
0100
0010
0001
1000
0100
0010
0100
1000
0001
0010
0001
1000
0010
1000
0100
,
0010
0001
0100
0010
0100
0001
0010
0001
1000
0100
1000
0001
0010
0100
1000
0010
,
0100
0010
1000
0100
1000
0001
0100
0010
1000
0100
0010
0001
1000
0010
0100
0001
,
0010
0100
0010
0001
1000
0100
1000
0001
0100
0001
0010
0100
1000
0010
0100
0010
,
1000
0100
1000
0001
0010
0001
1000
0100
0010
0001
1000
0010
1000
0001
0010
0100
,
1000
0001
0010
0001
1000
0100
0010
0100
1000
0001
0010
0100
1000
0010
0100
0010
,
1000
0100
1000
0001
0100
0010
1000
0100
0010
0001
1000
0010
0100
0001
0010
0100
,
0010
0001
1000
0100
1000
0001
0100
0001
0010
0100
1000
0010
0100
0010
1000
0100
,
1000
0001
0010
0001
1000
0100
0010
0001
0100
0010
0100
0001
0010
0001
1000
0010
,
0100
0001
0010
0100
1000
0001
0100
0010
1000
0100
0010
0100
1000
0001
0010
0001
,
1000
0010
1000
0100
0010
0001
0100
0010
0100
0001
0010
0001
1000
0100
1000
0001
,
0010
0100
1000
0001
0100
0001
1000
0100
0010
0001
1000
0100
1000
0001
0010
0001
,
1000
0010
0100
0001
1000
0100
0010
0001
1000
0100
1000
0001
0100
0010
1000
0001
,
1000
0010
0100
0001
1000
0100
1000
0001
0010
0100
1000
0001
0100
0001
1000
0010
,
1000
0001
0100
0010
1000
0100
1000
0001
0010
0100
1000
0001
0100
0000
0010
0000
,
1000
0000
0100
0000
0010
0000
0001
0000
1000
0000
0010
0000
0100
0001
1000
0001
,
0010
0100
1000
0001
0010
0001
1000
0010
0100
0001
0010
0100
0010
0001
1000
0100
,
1000
0001
0100
0001
0010
0100
1000
0010
0100
0010
1000
0100
1000
0001
0010
0001
,
1000
0100
0010
0001
0100
0010
0100
0001
0010
0001
1000
0010
0100
0001
0010
0100
,
1000
0001
0100
0010
1000
0100
0010
0100
1000
0001
0010
0001
1000
0010
1000
0100
,
0010
0001
0100
0010
0100
0001
0010
0001
1000
0100
1000
0001
0010
0100
1000
0001
,
0100
0001
1000
0100
0010
0001
1000
0100
1000
0001
0010
0100
0010
0001
1000
0100
,
0010
0001
0100
0010
0100
0001
0010
0001
1000
0010
0100
0001
0010
0100
1000
0001
,
0100
0010
1000
0100
0010
0100
1000
0001
0010
0001
1000
0010
1000
0100
0010
0001
,
0100
0010
0100
0001
0010
0001
1000
0100
1000
0001
0010
0100
1000
0010
0100
0010
,
1000
0100
1000
0001
0100
0010
1000
0100
0010
0001
1000
0010
0100
0001
0010
0100
,
0010
0001
1000
0100
1000
0001
0100
0001
0010
0100
1000
0010
0100
0010
1000
0100
,
1000
0001
0010
0001
1000
0100
0010
0001
1000
0010
1000
0001
0010
0100
1000
0001
,
0010
0001
1000
0100
1000
0001
0100
0010
1000
0001
0010
0100
1000
0001
0010
0001
,
1000
0010
0100
0001
1000
0001
0100
0010
1000
0001
0010
0001
1000
0100
0010
0001
,
1000
0010
1000
0001
0100
0001
1000
0010
0100
0001
0010
0001
1000
0000
0100
0000
,
0010
0000
0001
0000
1000
0000
0100
0000
1000
0000
0001
0000
0100
0010
1000
0001
,
0100
0001
0010
0100
1000
0001
0010
0001
1000
0010
0100
0001
0010
0100
1000
0001
,
0100
0010
1000
0100
0010
0100
1000
0001
0010
0001
1000
0010
1000
0100
0010
0001
,
0100
0010
0100
0001
0010
0001
1000
0100
1000
0001
0010
0100
1000
0010
0100
0010
,
1000
0100
1000
0001
0100
0010
1000
0100
0010
0001
1000
0010
0100
0001
0010
0100
,
0010
0001
1000
0100
1000
0001
0100
0001
0010
0100
1000
0010
0100
0010
1000
0100
,
1000
0001
0010
0001
1000
0100
0010
0001
1000
0010
1000
0001
0010
0100
1000
0001
,
0010
0001
1000
0100
0010
0100
1000
0001
0010
0100
1000
0010
0100
0010
1000
0100
,
1000
0001
0100
0010
1000
0100
0010
0001
1000
0010
0100
0001
0010
0100
0010
0001
,
1000
0100
1000
0001
0100
0001
0010
0100
1000
0010
0100
0010
1000
0100
1000
0001
,
0010
0001
1000
0100
0010
0001
0100
0010
0100
0001
0010
0001
1000
0010
0100
0001
,
0010
0100
1000
0001
0100
0010
1000
0100
0010
0100
1000
0001
0010
0001
1000
0010
,
1000
0100
0010
0001
0100
0010
1000
0100
0010
0100
1000
0001
0100
0001
0010
0100
,
1000
0001
0010
0001
1000
0100
1000
0010
0100
0010
1000
0001
1000
0100
0010
0001
,
1000
0010
0100
0001
0010
0001
1000
0010
1000
0100
0010
0001
1100
0000
0000
0000
,
0101
0000
0000
0000
0110
0000
0000
0000
1010
0000
0000
0000
0001
0010
0100
1000
,
0001
0100
0010
1000
0100
0010
0001
1000
0100
1000
0001
0100
0001
0000
0010
0000
,
0100
1000
0001
0010
0001
1000
0100
1000
,
0001
0100
0010
1000
0100
0010
0001
1000
,
0010
0100
0001
0010
0001
1000
0100
1000
,
0001
0010
0100
0010
0001
1000
0100
1000
,
0001
0100
0001
0010
0100
1000
0001
0100
,
0010
1000
0100
1000
0001
0010
0001
1000
,
0010
0100
0010
1000
0001
0010
0100
1000
,
0001
0000
0100
0000
0010
0000
1000
0000
0100
0000
0010
0000
0001
1000
0010
0100
,
0001
0010
0100
1000
0001
0100
0001
1000
0100
0010
0001
1000
0100
0010
0100
1000
,
0001
0010
0001
1000
0100
1000
0010
0100
0010
1000
0001
0010
0100
0010
0001
1000
,
0100
1000
0001
0100
0001
0010
0100
1000
0010
0100
0010
1000
0100
1000
0001
0010
,
0001
1000
0010
1000
0100
0010
0001
1000
0010
0100
0001
0010
0100
1000
0010
0100
,
0010
1000
0100
1000
0001
0100
0001
0010
0100
1000
0010
0100
0010
1000
0001
1000
,
0100
0010
0001
1000
0100
1000
0001
0010
0001
1000
0010
0100
0001
1000
0001
0010
,
0100
1000
0010
0100
0010
1000
0001
0100
0010
1000
0001
0100
00M0
0000
0000
0000
,
0M00
0000
00M0
0000
1000
0001
0100
0010
,
1000
0000
0001
0010
0000
0001
1000
0100
,
0010
0001
1000
0010
0000
0100
0000
0001
,
1000
0001
0010
0100
0000
1000
0000
0001
,
0010
0001
0000
1000
0100
0010
0100
1000
,
0001
0100
0010
1000
0001
0100
0000
0010
,
1000
0000
0000
0001
0100
0000
0001
0000
1000
0000
0100
0000
1000
0000
0000
0000
,
0001
0200
0000
0000
0000
0000
0000
0000
,
0300
0000
0000
0001
1000
0100
0010
0001
,
1000
0000
0010
0100
0000
0001
0000
0010
,
0100
1000
0001
0100
0000
0010
0000
1000
,
0100
0010
0001
1000
0000
0001
0100
0001
,
1000
0010
0000
0100
0001
0010
0100
1000
,
0001
0100
0010
1000
0001
0100
0000
0001
,
1000
0000
0001
0000
1000
0010
0100
0000
,
0001
2000
0000
0000
0000
0000
0000
0000
,
3000
0000
0000
0000
0001
0010
0001
0000
,
1000
0002
0000
0000
0000
0000
0000
0000
,
0003
0000
0000
0000
1000
0001
0100
0010
,
0000
2000
0000
0000
0000
3000
0011
0000
,
1100
0000
0000
0000
0001
1000
0001
1000
0001
0000
0000
0000
1000
0100
0010
0001
,
1000
0100
0010
0100
1000
0001
0100
0001
0010
0100
1000
0001
0010
0001
1000
0100
,
1000
0010
0100
0010
1000
0001
0010
0100
0010
0001
1000
0100
1000
0001
0100
0001
,
0010
0100
1000
0010
0100
0010
1000
0100
1000
0001
0010
0001
1000
0010
1000
0100
,
0010
0001
1000
0010
0100
0001
0010
0100
1000
0010
0100
0010
1000
0100
1000
0001
,
0100
0001
0010
0100
1000
0010
0100
0010
1000
0001
1000
0100
0010
0001
1000
0100
,
1000
0001
0010
0001
1000
0010
0100
0001
1000
0001
0010
0100
1000
0010
0100
0010
,
1000
0001
0100
0010
1000
0001
0010
0100
1000
0001
0010
0001
1000
0100
1000
0010
,
0100
0010
0000
0000
1001
0000
0000
0000
0110
0000
0000
0000
0001
0010
0100
1000
,
0010
0100
0001
0010
0001
1000
0100
1000
0001
0100
0010
1000
0100
0010
0001
1000
,
0010
0100
0001
0010
0100
0010
0001
1000
0100
1000
0001
0100
0001
0010
0100
1000
,
0010
0100
0010
1000
0100
1000
0001
0010
0001
1000
0100
0010
0001
0100
0010
0100
,
0001
0010
0001
1000
0010
0100
0001
0010
0100
1000
0001
0100
0010
1000
0100
0010
,
0100
1000
0001
0010
0001
1000
0010
1000
0100
0010
0001
0100
0010
0100
0001
0010
,
0001
1000
0100
1000
0001
0010
0100
1000
0001
0100
0001
1000
0010
0000
0000
0000
,
1100
0011
0110
1010
,
0001
1000
0010
0100
0001
0010
0100
1000
0001
0100
0010
0000
1000
0100
0010
0100
,
1000
0001
0010
0001
1000
0010
1000
0100
0010
0001
0100
0010
0100
0001
0010
0001
,
1000
0100
1000
0001
0010
0100
1000
0010
0100
0010
1000
0100
1000
0001
0100
0010
,
1000
0100
0010
0001
1000
0010
0100
0001
0010
0100
0010
0001
1000
0100
1000
0001
,
0100
0001
0010
0100
1000
0010
0100
0001
0010
0100
0010
0001
1000
0010
1000
0100
,
0010
0001
1000
0100
1000
0001
0010
0001
0100
0010
0100
0001
1000
0001
0010
0100
,
1000
0001
0100
0010
1000
0100
1000
0001
0100
0001
0010
0100
1000
0001
0010
0001
,
1000
0010
0100
0001
0010
0100
0010
0001
1000
0100
1000
0001
0100
0001
0010
0100
,
1000
0010
0100
0010
1000
0100
1000
0001
0010
0001
1000
0100
0010
0001
0100
0010
,
0100
0001
0010
0001
1000
0010
0100
0001
0010
0100
1000
0001
0100
0010
1000
0100
,
0010
0100
1000
0001
0010
0001
1000
0010
1000
0100
0010
0001
0100
0010
0100
0001
,
0010
0001
1000
0100
1000
0001
0010
0100
1000
0001
0100
0001
1000
0100
0010
0001
,
1000
0100
1000
0001
0010
0100
0010
0001
1000
0100
0010
0001
0100
0010
0100
0001
,
0010
0001
1000
0010
0100
0001
0010
0100
1000
0001
0100
0010
1000
0100
0010
0100
,
1000
0001
0010
0001
1000
0010
1000
0100
0010
0001
0100
0010
0100
0001
0010
0001
,
1000
0100
1000
0001
0010
0100
1000
0010
0100
0010
1000
0100
2000
0000
3002
0000
,
0203
0000
0302
0000
0003
0000
0020
0000
0230
0000
0302
0000
1003
0100
1000
0001
,
0100
0001
0010
0100
1000
0010
0100
0010
1000
0100
1000
0001
0010
0001
1000
0100
,
0010
0001
1000
0010
1000
0001
0010
0100
1000
0001
0010
0001
1000
0100
1000
0001
,
0100
0010
1000
0001
0010
0100
1000
0001
0010
0001
1000
0010
0100
0001
1000
0001
,
0100
0010
1000
0001
0010
0001
1000
0100
0010
0001
1000
0010
1000
0001
0100
0001
,
1000
0010
0100
0001
0010
0001
1000
0100
0010
0001
0100
0010
1000
0100
1000
0001
,
0010
0001
1000
0010
0100
0001
0010
0100
1000
0001
0100
0010
1000
0100
0010
0100
,
1000
0001
0010
0001
1000
0010
1000
0100
0010
0001
0100
0010
0100
0001
0010
0001
,
1000
0100
1000
0001
0010
0100
1000
0010
0100
0010
1000
0100
1000
0001
0100
0010
,
1000
0100
0010
0001
1000
0010
0100
0001
0010
0100
0010
0001
1000
0100
1000
0001
,
0100
0001
0010
0100
1000
0010
0100
0010
1000
0100
1000
0001
0010
0001
1000
0100
,
0010
0001
1000
0010
1000
0001
0010
0100
0010
0001
1000
0100
1000
0001
0010
0100
,
1000
0001
0100
0001
1000
0100
0010
0001
1000
0100
1000
0001
0010
0001
1000
0010
,
0100
0001
1000
0100
0010
0001
1000
0100
1000
0001
0100
0010
1000
0001
1000
0010
,
0100
0001
1000
0100
1000
0001
0010
0100
1000
0001
0100
0001
1000
0010
1000
0001
,
0100
0010
1000
0100
1000
0001
0010
0100
1000
0010
0100
0001
0010
0001
1000
0100
,
1000
0001
0100
0010
1000
0100
0010
0001
1000
0010
0100
0001
0010
0100
0010
0001
,
1000
0100
1000
0001
0100
0001
0010
0100
1000
0010
0100
0010
1000
0100
1000
0001
,
0010
0001
1000
0100
0010
0001
0100
0010
0100
0001
0010
0001
1000
0010
0100
0001
,
0010
0100
1000
0001
0100
0010
1000
0100
0010
0100
1000
0001
0010
0001
1000
0010
,
1000
0100
0010
0001
0100
0010
0100
0001
0010
0001
1000
0100
1000
0001
0010
0100
,
1000
0001
0100
0001
1000
0100
0010
0100
1000
0001
0010
0001
1000
0100
1000
0001
,
0100
0010
1000
0100
0010
0001
1000
0100
0010
0100
1000
0001
0100
0001
0010
0100
,
1000
0010
0100
0010
1000
0100
1000
0001
0010
0001
1000
0010
0100
0000
0001
0000
,
1000
0001
0010
0100
1000
0010
0110
0000
,
0000
0000
0000
0000
,
0000
0000
0000
0000
,
0000
0000
0000
0000
;
