#TITLE:Engagement Suit Ikusa;
#SUBTITLE:Sacred Seven;
#ARTIST:Toshihiko Sahashi;
#TITLETRANSLIT:;
#SUBTITLETRANSLIT:;
#ARTISTTRANSLIT:;
#CREDIT:;
#BANNER:BN.jpg;
#BACKGROUND:BG.jpg;
#LYRICSPATH:;
#CDTITLE:bombastik.png;
#MUSIC:Engagement Suit Ikusa.mp3;
#OFFSET:-0.400;
#SAMPLESTART:27.460;
#SAMPLELENGTH:12.000;
#SELECTABLE:YES;
#BPMS:0.000=156.030;
#STOPS:;
#BGCHANGES:;
// cache tags:
#FIRSTBEAT:0.000;
#LASTBEAT:322.000;
#SONGFILENAME:Songs/FUCK ANIME PACK/Engagement Suit Ikusa/Engagement Suit Ikusa.sm;
#HASMUSIC:1;
#HASBANNER:1;
#MUSICLENGTH:128.888;
// end cache tags

//---------------dance-single - Blank----------------
#NOTES:
     dance-single:
     Blank:
     Challenge:
     10:
     1.000,1.000,1.000,1.000,0.916,811.000,336.000,344.000,0.000,92.000:

1000
0100
1011
0000
0100
0000
0001
0000
0100
0000
0010
0000
1110
0000
0001
0000
,
1110
0001
0001
1000
1000
0100
0100
0010
,
0010
0100
1011
0000
0100
0000
0010
0000
1000
0000
0001
0000
1110
0000
0001
0000
,
1110
0001
0001
0100
0100
0010
0010
1000
,
1000
0000
0220
0330
2200
3300
0022
0033
0220
0330
2002
3003
0022
0033
2020
3030
,
0202
0303
0220
0330
2200
3300
0022
0033
2200
3300
0220
0331
2200
3300
0022
0133
,
2002
3003
2200
3300
0022
0033
0220
0330
2002
3003
2020
3030
0202
0303
2200
3300
,
0220
0330
2002
3003
0022
0033
2020
3030
0022
0033
0220
1330
0022
0033
0220
1330
,
0220
0331
1110
0000
0001
0000
0100
0000
1000
0000
0010
0000
0111
0000
0010
0000
,
0111
1000
1000
0010
0010
0100
0100
0001
,
0001
0000
0220
0330
0022
0033
2200
3300
2002
3003
2020
3030
0220
0330
0202
0303
,
2200
3300
0220
0330
0022
0033
0220
0330
2002
3003
2200
3320
0230
0320
0032
0023
,
0230
2300
3220
0000
0000
0000
0000
0000
0000
0330
2020
3030
0220
0330
0022
0033
,
2100
0000
0011
0000
0001
0010
0101
0000
0000
0000
0011
0000
0100
0001
0110
0000
,
0000
3022
0000
0000
0033
0220
2332
3223
,
1332
0000
0110
0000
1000
0010
1100
0000
0000
0000
0110
0000
1000
0100
1010
0000
,
0000
0003
2020
0000
0000
0000
0000
0000
0000
3030
2200
3300
0220
0330
0022
0033
,
0200
0000
1001
0000
0010
0001
1010
0000
0000
0000
0011
0000
0001
0010
1001
0300
,
0000
0000
2002
0000
0000
0000
0000
0000
3003
0000
0220
0330
2200
3300
0022
0033
,
0002
0000
1100
0000
0010
1000
0110
0000
0000
0000
1010
0000
0100
1000
0113
0000
,
0001
0010
2202
3303
0220
0330
2002
3003
0022
0033
2200
3300
0202
0303
0220
0330
,
2020
3030
2200
3300
2002
3003
0220
0330
0022
0033
2200
3301
0220
1330
0022
0133
,
2020
3030
2202
3303
2020
3030
0022
0033
2200
3300
0220
0330
2002
3003
2200
3300
,
0202
0303
0022
0033
0220
0330
0202
0303
2200
3300
0220
0331
2200
3310
2002
3103
,
0022
1033
0222
0333
2200
3300
0220
0330
2002
3003
2200
3300
0202
0303
0220
0330
,
0022
0033
2002
3003
2020
3030
0202
0303
0220
0330
2000
3000
0020
0030
0200
0300
,
0002
0003
2200
3300
0022
0033
2002
3003
2020
3030
0220
0330
2200
3300
0202
0303
,
0022
0033
2220
3330
0002
0003
0022
0033
2020
3030
1100
0001
1100
0001
1100
0001
,
1100
0001
1100
0001
0010
1000
0101
0010
1000
0001
1100
0010
0001
0100
1010
0100
,
0001
1000
0011
0100
0001
0010
1001
0100
0010
1000
0011
0100
0001
0010
0101
1000
,
0001
0010
1100
0001
0100
0010
1001
0100
1000
0001
1100
0010
0100
0001
0220
0000
,
0000
0000
0000
0000
0000
0000
1330
0000
0000
0000
0000
0000
0001
0000
0010
0000
0100
0000
2002
0000
0000
0000
0000
0000
0000
0000
0000
0000
0000
0000
0000
0000
0000
0000
0000
0000
0000
0000
3003
0000
0000
0000
0220
0000
0000
0330
0000
0000
,
0000
0000
1100
0010
1000
0001
1010
0100
0001
0010
0101
1000
0010
0100
0011
1000
,
0001
0100
1001
0010
0100
0001
1100
0010
1000
0001
1100
0010
1000
0100
0011
0100
,
1000
0010
0101
1000
0001
0010
0101
1000
0010
0100
0011
1000
0100
0001
2200
0000
,
0000
0001
3320
0000
0030
0000
2002
0000
0000
0000
0000
0000
3003
0000
0220
0000
,
0330
0000
1100
0001
1010
0100
0011
1000
0110
0001
1100
0010
1001
0100
0011
1000
,
0101
0010
1100
0001
1010
0100
1001
0010
1100
0001
0110
1000
0011
0100
1010
0001
,
1100
0010
0101
0010
1100
0001
1010
0100
0011
0100
1001
0010
1100
0001
2020
0000
,
3030
0000
0000
0111
0000
0000
1000
0100
0010
2002
0000
0000
0000
0000
0000
0000
0000
0000
3003
0000
0000
0220
0000
0000
,
0000
0330
2200
3300
0220
0330
0022
0033
0022
0000
0033
0000
0220
0330
2002
3003
,
2002
3003
0220
0330
2200
3300
0220
0330
0220
0000
0330
0000
0022
0033
2200
3300
,
2200
3300
2002
3003
0202
0303
0220
0330
2020
0000
0000
3030
2200
3300
2002
0000
,
0000
3003
0020
0000
2032
0000
0000
3003
0020
0000
2032
0000
3023
0000
2032
0000
,
3003
0000
1110
0000
1110
0000
0011
0100
0010
0100
1002
0010
0100
0010
1100
0010
,
1000
0010
1100
0010
0100
0010
1100
0010
0100
0013
2100
0010
0100
0001
0110
0001
,
0010
3100
1012
0100
1000
0100
1010
0100
0010
1000
0110
1000
0010
0100
1010
0103
,
0001
0010
2100
0001
0100
0010
0101
0010
0100
0001
0110
0001
0100
3010
0101
0010
,
1000
0001
1110
0001
1110
0001
0110
1000
0010
0100
1001
0010
1000
0001
1100
0010
,
1000
0001
1010
0100
1000
0010
0101
1000
0010
0100
0011
1000
0001
0100
1001
0010
,
0100
0001
1110
0001
1110
0001
0110
1000
0010
0100
1001
0010
0100
0001
1100
0010
,
1000
0001
1010
0100
1000
0010
0101
0010
1000
0100
0011
1000
0001
0010
0101
0010
,
1000
0001
1100
0000
0001
0000
0100
0000
0010
0000
1000
0000
0001
0000
0100
0000
,
1000
0010
0100
0001
0010
1000
0100
0001
,
0001
0100
0001
0010
1000
0001
0100
0010
,
1000
0001
0100
0001
0001
1000
0010
0100
,
1000
0000
1100
0000
0001
0010
1100
0000
0010
0100
1001
0000
1000
0001
0110
0000
,
0110
0000
0110
0000
0100
0001
1100
0000
0010
0100
1001
0000
0100
0001
1100
0000
,
1100
0000
1100
0000
0001
0100
0011
0000
1000
0010
1100
0000
0010
0100
0011
0000
,
0011
0000
0011
0000
0100
1000
0011
0000
0001
0010
0101
0000
1000
0010
1100
0000
,
1100
0000
2100
0000
0001
0010
0100
0000
0010
0001
0010
0000
0100
0010
0001
0000
,
0001
0000
0001
0000
0010
0100
0010
0000
0001
3010
2001
0000
0100
0001
0010
0000
,
0010
3001
2100
0000
0010
0001
0010
0000
0001
0100
0001
0000
0100
0010
0001
0000
,
0001
3000
2001
0000
0010
0100
0001
0000
0010
0001
0100
0000
0001
0010
3100
0000
,
1000
0100
1002
0000
0100
1000
0010
0000
1000
0100
1000
0000
0010
0100
1000
0000
,
1000
0000
1000
0000
0010
0100
1000
0000
0100
0013
1002
0000
0100
1000
0010
0000
,
0100
0013
0102
0000
0100
0010
1000
0000
0100
1000
0010
0000
0100
0010
1000
0000
,
1000
0000
1000
0000
0100
0010
0100
0000
0010
0100
1000
0000
0100
1000
0010
0000
,
0100
1003
0011
0100
0001
1000
0110
0001
0100
0010
0101
1000
0001
0100
1010
0100
,
0001
0010
1001
0100
0001
1000
0011
0100
1000
0001
1100
0010
1000
0001
1010
0100
,
0001
1000
0111
1000
0010
0100
1001
0100
0001
0010
1100
0001
0100
1000
0110
0001
,
1000
0010
1001
0100
0010
1000
0101
0010
1000
0001
1010
0100
0001
1000
0101
0010
,
0100
0001
1110
0000
0110
0000
1100
0000
0011
0000
1001
0000
0101
0000
0111
0000
,
1100
0011
1001
0110
1010
1110
0111
1110
,
1011
1101
0111
1110
1011
0111
1101
1110
,
0111
2022
0000
0000
0000
3233
0000
0320
,
0000
2030
0000
3002
0000
0203
0000
0320
,
0000
0000
0000
0000
,
0000
0000
0000
0000
,
0030
1111
0110
0011
1111
1100
0110
1111
,
2222
0000
3333
0000
;
