#TITLE:TRANCEFORMer;
#SUBTITLE:;
#ARTIST:DJ Sharpnel;
#TITLETRANSLIT:;
#SUBTITLETRANSLIT:;
#ARTISTTRANSLIT:;
#CREDIT:;
#BANNER:tranceformer bn.png;
#BACKGROUND:tranceformer bg.png;
#LYRICSPATH:;
#CDTITLE:;
#MUSIC:Tranceformer.ogg;
#OFFSET:-0.046;
#SAMPLESTART:72.282;
#SAMPLELENGTH:20.635;
#SELECTABLE:YES;
#BPMS:0.000=186.080;
#STOPS:;
#BGCHANGES:;
// cache tags:
#FIRSTBEAT:30.000;
#LASTBEAT:860.000;
#SONGFILENAME:Songs/SHARPNELSTREAMZ v2/TRANCEFORMer/Tranceformer.sm;
#HASMUSIC:1;
#HASBANNER:1;
#MUSICLENGTH:280.398;
// end cache tags

//---------------dance-single - 15+ (TYLR)----------------
#NOTES:
     dance-single:
     15+ (TYLR):
     Challenge:
     15:
     1.000,1.000,0.050,0.264,1.000,2419.000,14.000,74.000,113.000,0.000:
0000
0000
0000
0000
,
0000
0000
0000
0000
,
0000
0000
0000
0000
,
0000
0000
0000
0000
,
0000
0000
0000
0000
,
0000
0000
0000
0000
,
0000
0000
0000
0000
,
0000
0000
0101
100M
,
0001
0010
0100
0000
1000
0000
0001
1000
0001
1000
0010
0000
0100
0000
0001
1000
,
0001
1000
0100
0000
0010
0000
0001
0010
0001
0010
0100
0000
1000
0000
0001
1000
,
0001
1000
0010
0000
0100
0000
0001
0100
0001
0100
0010
0000
1000
0000
0001
1000
,
0001
1000
0100
0000
0010
0000
0001
1000
0010
0000
0000
0100
0001
0000
0001
0000
,
1000
0100
0010
0000
0001
0000
1000
0010
1000
0010
0100
0000
0001
0000
1000
0100
,
1000
0100
0010
0000
0001
0000
1000
0010
1000
0010
0100
0000
0001
0000
1000
0100
,
1000
0100
0010
0000
0001
0000
1000
0001
1000
0001
0100
0000
0010
0000
1000
0001
,
0010
0000
0010
0000
0100
0000
0100
1000
0001
1000
0001
0000
022M
0330
0000
0000
,
0001
1000
0100
0000
0010
0000
0001
1000
0001
0100
0010
0000
1000
0000
0010
0100
,
0001
1000
0001
0000
0010
0000
0100
1000
0001
1000
0010
0000
0100
0000
0001
0100
,
0010
1000
0001
0000
0010
0000
0100
0010
0001
1000
0010
0000
0100
0000
0001
0100
,
0010
1000
0001
0000
0010
0000
0100
0010
0001
0000
0001
0000
1000
0000
1000
0000
,
0010
0100
0001
0000
1000
0000
0001
0100
0010
1000
0001
0000
0010
0000
0100
1000
,
0001
0100
0010
0000
1000
0000
0010
0100
0001
1000
0001
0100
0010
1000
0001
0010
,
0100
0010
0001
1000
0001
0100
0010
1000
0001
1000
0001
0010
0100
0010
0001
1000
,
0010
1000
0010
0100
0001
1000
0001
0010
0200
2300
3200
2300
3002
2003
3002
2003
,
3M20
000M
0M00
0000
M000
0M00
M000
0000
0M00
000M
0M00
0000
0000
0000
0000
0000
,
000M
0M00
000M
0000
M000
0M00
M000
0000
000M
0M00
000M
0000
0000
0000
0000
0000
,
000M
0M00
000M
0000
M000
0M00
M000
0000
000M
0M00
000M
0000
M030
000M
M000
0000
,
000M
00M0
000M
0000
M000
0M00
M000
0000
000M
00M0
000M
0000
M000
000M
M000
0000
,
000M
00M0
000M
0000
M000
0M00
M000
0000
000M
00M0
000M
0000
M000
000M
M000
0000
,
000M
00M0
000M
0000
M000
0M00
M000
0000
000M
00M0
000M
0000
M000
000M
M000
0000
,
000M
00M0
000M
0000
M000
0M00
M000
0000
000M
00M0
000M
0000
M000
000M
M000
0000
,
000M
00M0
000M
0000
M000
0M00
M000
0000
000M
00M0
000M
0000
M000
000M
M000
0000
,
00M1
0100
0001
0000
1000
0010
1000
0000
0001
0100
0001
0000
1000
0001
1000
0000
,
0100
1000
0100
0000
0010
0001
0010
0000
0100
1000
0100
0000
1000
0001
1000
0000
,
0001
0100
0001
0000
1000
0010
1000
0000
0001
0100
0001
0000
1000
0001
1000
0000
,
0100
1000
0100
0000
0010
0001
0010
0000
0100
1000
0100
0000
1000
0001
1000
0000
,
0001
0100
0001
0000
1000
0010
1000
0000
0001
0100
0001
0000
1000
0001
1000
0000
,
0001
0010
0100
1000
0010
0100
0001
1000
0100
0010
0100
1000
0010
0100
0001
1000
,
0100
0010
0001
0100
0010
0100
0001
0010
0100
1000
0010
0100
0001
0010
0100
1000
,
0020
2030
3020
2030
3002
2003
3002
2003
3002
0023
0032
0023
0230
0000
0000
0300
,
2001
0000
0000
0000
3020
0000
0000
0230
,
0000
0000
0000
0000
0000
0000
0000
0000
0000
0000
0000
0000
0000
0000
0000
0300
,
0100
0001
0100
0000
0001
1000
0001
0000
1000
0100
1000
0000
0001
1000
0001
0000
,
0010
0001
0010
0000
0100
0010
0100
0000
1000
0100
1000
0000
0100
0010
0100
0000
,
0010
0001
0010
0000
0001
1000
0001
0000
1000
0010
1000
0000
0001
1000
0001
0000
,
0100
0001
0100
0000
0001
1000
0001
0000
1000
0100
1000
0000
0001
1000
0001
0000
,
0100
0001
0100
0000
0010
1000
0010
0000
1000
0001
1000
0000
0001
0010
0001
0000
,
1000
0100
1000
0000
0100
0010
0100
0000
1000
0001
1000
0000
0010
0100
0010
0000
,
100M
0010
1000
0001
0100
0001
1000
0100
0010
0001
0010
0100
0010
0100
0010
0001
,
1000
0100
1000
0001
0010
0001
1000
0010
0100
0001
0100
0010
1000
0010
0100
0001
,
1000
0100
1000
0001
0010
0001
1000
0010
0100
0001
0100
0010
0100
0010
0100
0001
,
1000
0010
1000
0001
0100
0001
1000
0100
0010
0001
0010
0100
1000
0100
0010
0001
,
1000
0010
1000
0001
0100
0001
1000
0100
0010
0001
0010
0100
0010
0100
0010
0001
,
1000
0100
1000
0001
0010
0001
1000
0010
0100
0001
0100
0010
1000
0010
0100
0001
,
1000
0100
1000
0001
0010
0001
1000
0010
0100
0001
0100
0010
0100
0010
0100
0001
,
1000
0010
1000
0001
0100
0001
1000
0100
0010
0001
0010
0000
220M
3300
0000
0000
,
0001
0100
0001
1000
0010
1000
0001
0010
0100
1000
0100
0010
0100
0010
0100
1000
,
0001
0010
0001
1000
0100
1000
0001
0100
0010
1000
0010
0100
0001
0100
0010
1000
,
0001
0010
0001
1000
0100
1000
0001
0100
0010
1000
0010
0100
0010
0100
0010
1000
,
0001
0100
0001
1000
0010
1000
0001
0010
0100
1000
0100
0010
0001
0010
0100
1000
,
0001
0100
0001
1000
0010
1000
0001
0010
0100
1000
0100
0010
0100
0010
0100
1000
,
0001
0010
0001
1000
0100
1000
0001
0100
0010
1000
0010
0100
0001
0100
0010
1000
,
0001
0010
0001
1000
0100
1000
0001
0100
0010
1000
0010
0100
0010
0100
0010
1000
,
0001
0100
0001
1000
0010
1000
0001
0010
M200
0000
0300
0000
2M02
0000
3003
0000
,
1000
0010
1000
0001
0100
0001
1000
0100
0010
0001
0010
0100
0010
0100
0010
0001
,
1000
0100
1000
0001
0010
0001
1000
0010
0100
0001
0100
0010
1000
0010
0100
0001
,
1000
0100
1000
0001
0010
0001
1000
0010
0100
0001
0100
0010
0100
0010
0100
0001
,
1000
0010
1000
0001
0100
0001
1000
0100
0010
0001
0010
0100
1000
0100
0010
0001
,
1000
0010
1000
0001
0100
0001
1000
0100
0010
0001
0010
0100
0010
0100
0010
0001
,
1000
0100
1000
0001
0010
0001
1000
0010
0100
0001
0100
0010
1000
0010
0100
0001
,
1000
0100
1000
0001
0010
0001
1000
0010
0100
0001
0100
0010
0100
0010
0100
0001
,
1000
0010
1000
0001
0100
0001
1000
0100
0010
0001
0010
0000
220M
0000
3300
0000
,
0001
0100
0001
1000
0010
1000
0001
0010
0100
1000
0100
0010
0100
0010
0100
1000
,
0001
0010
0001
1000
0100
1000
0001
0100
0010
1000
0010
0100
0001
0100
0010
1000
,
0001
0010
0001
1000
0100
1000
0001
0100
0010
1000
0010
0100
0010
0100
0010
1000
,
0001
0100
0001
1000
0010
1000
0001
0010
0100
1000
0100
0010
0001
0010
0100
1000
,
0001
0100
0001
1000
0010
1000
0001
0010
0100
1000
0100
0010
0100
0010
0100
1000
,
0001
0010
0001
1000
0100
1000
0001
0100
0010
1000
0010
0100
0001
0100
0010
1000
,
0001
0010
0001
1000
0100
1000
0001
0100
0010
1000
0010
0100
0010
0100
0010
1000
,
0004
4003
3040
0430
0304
4003
0000
0000
,
3001
0010
0001
1000
0100
1000
0010
1000
0001
0100
0001
1000
0010
1000
0001
1000
,
0001
0010
0001
1000
0100
1000
0010
0100
0001
0010
0001
1000
0100
1000
0001
1000
,
0001
0100
0001
1000
0010
1000
0100
0010
0001
0010
0001
1000
0100
1000
0001
1000
,
0010
1000
0010
0100
0001
0100
0010
1000
0100
1000
0100
1000
0001
1000
0010
1000
,
0001
0100
0001
1000
0010
1000
0100
1000
0001
0010
0001
1000
0100
1000
0001
1000
,
0001
0100
0001
1000
0010
1000
0100
0010
0001
0100
0001
1000
0010
1000
0001
1000
,
0001
0010
0001
1000
0100
1000
0010
0100
0001
0100
0001
1000
0010
1000
0001
1000
,
0010
1000
0010
0100
0001
1000
0001
0010
0100
1000
0100
0000
M022
0000
0033
0000
,
1000
0100
1000
0001
0010
0001
0100
0001
1000
0010
1000
0001
0100
0001
1000
0001
,
1000
0100
1000
0001
0010
0001
0100
0010
1000
0100
1000
0001
0010
0001
1000
0001
,
1000
0010
1000
0001
0100
0001
0010
0100
1000
0100
1000
0001
0010
0001
1000
0001
,
0100
0001
0100
0010
1000
0010
0100
0001
0010
0001
0010
0001
1000
0001
0100
0001
,
1000
0010
1000
0001
0100
0001
0010
0001
1000
0100
1000
0001
0010
0001
1000
0001
,
1000
0010
1000
0001
0100
0001
0010
0100
1000
0010
1000
0001
0100
0001
1000
0001
,
1000
0100
1000
0001
0010
0001
0100
0010
1000
0010
1000
0001
0100
0001
1000
0001
,
0100
0001
0100
0010
1000
0001
1000
0100
0020
0032
0023
0032
2M03
0000
3000
0000
,
0001
0100
0001
1000
0010
1000
0100
1000
0001
0010
0001
1000
0100
1000
0001
1000
,
0001
0100
0001
1000
0010
1000
0100
0010
0001
0100
0001
1000
0010
1000
0001
1000
,
0001
0010
0001
1000
0100
1000
0010
0100
0001
0100
0001
1000
0010
1000
0001
1000
,
0100
1000
0100
0010
0001
0010
0100
1000
0010
1000
0010
1000
0001
1000
0100
1000
,
0001
0010
0001
1000
0100
1000
0010
1000
0001
0100
0001
1000
0010
1000
0001
1000
,
0001
0010
0001
1000
0100
1000
0010
0100
0001
0010
0001
1000
0100
1000
0001
1000
,
0001
0100
0001
1000
0010
1000
0100
0010
0001
0010
0001
1000
0100
1000
0001
1000
,
0100
1000
0100
0010
0001
1000
0001
0100
0010
1000
0010
0000
M202
0000
0303
0000
,
1000
0010
1000
0001
0100
0001
0010
0001
1000
0100
1000
0001
0010
0001
1000
0001
,
1000
0010
1000
0001
0100
0001
0010
0100
1000
0010
1000
0001
0100
0001
1000
0001
,
1000
0100
1000
0001
0010
0001
0100
0010
1000
0010
1000
0001
0100
0001
1000
0001
,
0010
0001
0010
0100
1000
0100
0010
0001
0100
0001
0100
0001
1000
0001
0010
0001
,
1000
0100
1000
0001
0010
0001
0100
0001
1000
0010
1000
0001
0100
0001
1000
0001
,
1000
0100
1000
0001
0010
0001
0100
0010
1000
0100
1000
0001
0010
0001
1000
0001
,
1000
0010
1000
0001
0100
0001
0010
0100
1000
0100
1000
0001
0010
0001
1000
0001
,
1000
0010
0100
0001
1000
0100
0010
0001
0100
0010
1000
0001
0010
0100
1000
0001
,
2000
0000
00M0
0000
0001
0001
0000
0000
,
0000
0000
0000
0000
,
0000
0000
0000
3000
,
0000
0000
0000
0000
,
0000
0000
0M00
0000
1000
1000
0000
0000
,
0000
0000
0000
0000
,
0000
0000
0000
0000
,
0000
0000
0000
0000
,
0000
0000
M000
0000
0010
0010
0000
0000
,
0000
0000
0000
0000
,
0000
0000
0000
0000
,
0000
0000
0000
0000
,
0000
0000
000M
0000
0100
0100
0000
0000
,
0000
0000
0000
0000
,
0000
0000
0000
0000
,
0000
0000
0000
0000
,
10M1
0000
1000
0100
0000
1000
0010
0000
0100
0000
0001
1000
0000
0001
0100
0000
,
0010
0000
1000
0001
0000
1000
0100
0000
0010
0000
0100
1000
0000
0001
1000
0000
,
0010
0000
0100
0001
0000
1000
0100
0000
0010
0000
0100
1000
0000
0100
0010
0000
,
0001
0000
1000
0100
0000
0010
0001
0000
0100
0000
0010
1000
0000
0001
0010
0000
,
0100
0000
1000
0001
0000
0100
0010
0000
1000
0000
0001
0010
0000
0100
1000
0000
,
0001
0000
1000
0100
0000
0010
0001
0000
0100
0000
0010
1000
0000
0010
0100
0000
,
0001
0000
1000
0100
0000
0010
0001
0000
1000
0000
0001
0010
0000
0100
1000
0000
,
0001
0000
1000
0010
0000
0100
0001
0000
0010
0000
0100
1000
0000
0100
0010
0000
,
0001
0000
1000
0010
0000
0100
0001
0000
1000
0000
0001
0100
0000
0010
1000
0000
,
0001
0000
1000
0100
0000
0010
0001
0000
0100
0000
0010
1000
0000
0001
0010
0000
,
0100
0000
1000
0001
0000
0100
0010
0000
1000
0000
0010
0100
0000
0001
1000
0000
,
0001
0000
1000
0100
0000
0010
0001
0000
0100
0000
0001
1000
0000
0100
0010
0000
,
0001
0000
0010
0100
0000
1000
0001
0000
0010
0000
0001
1000
0000
0010
0100
0000
,
0001
0000
1000
0010
0000
0100
0001
0000
0010
0000
0100
1000
0000
0100
0010
0000
,
0001
0100
0010
1000
0100
1000
0010
0100
0001
0010
0100
1000
0010
0100
0001
1000
,
0100
0010
0100
1000
0010
0100
0001
0010
0100
0010
0001
1000
0010
0100
0001
0010
,
0100
0000
0000
0000
,
0020
0032
0023
0032
2003
3002
2003
3002
2003
3020
2030
3020
0230
0000
0000
0000
,
0310
1000
0000
1000
0001
0000
0010
0000
0100
1000
0000
1000
0001
0000
0100
0000
,
0010
1000
0000
1000
0100
0000
0010
0000
0001
0100
0000
0001
0010
0000
0100
0000
,
1000
0001
0000
0001
0100
0000
0010
0000
1000
0001
0000
0001
0010
0000
0100
0000
,
1000
0010
0000
0010
0100
0000
0001
0000
0010
0100
0000
0010
0001
0000
1000
0000
,
0010
0100
0000
0100
0001
0000
0010
0000
0100
1000
0000
1000
0001
0000
0100
0000
,
0010
1000
0000
1000
0100
0000
0010
0000
0001
0100
0000
0001
1000
0000
0100
0000
,
0010
0001
0000
0001
0100
0000
0010
0000
1000
0001
0000
0001
0010
0000
0100
0000
,
1000
0000
1000
0000
1000
0000
0001
1000
0100
1000
0100
0000
0022
0000
0033
0000
,
1000
0010
0000
0010
0100
0000
0001
0000
0010
0100
0000
0100
1000
0000
0001
0000
,
0100
0010
0000
0010
1000
0000
0001
0000
0010
0100
0000
0010
0001
0000
1000
0000
,
0010
0100
0000
0100
0001
0000
1000
0000
0100
0010
0000
0010
0001
0000
1000
0000
,
0010
0100
0000
0100
0001
0000
0010
0000
0001
0100
0000
0001
1000
0000
0100
0000
,
0010
0001
0000
0001
1000
0000
0010
0000
0100
0001
0000
0001
1000
0000
0100
0000
,
0010
0001
0000
0001
0100
0000
0010
0000
1000
0100
0000
1000
0001
0000
0100
0000
,
0010
1000
0000
1000
0001
0000
0010
0000
0100
1000
0000
1000
0001
0000
0100
0000
,
0010
0000
0010
0000
0010
0000
1000
0010
0100
0000
0000
0000
1002
0000
0000
0000
,
1003
0100
1000
0001
0100
0000
0010
0000
1000
0001
1000
0100
0010
0000
0001
0000
,
0100
0010
0100
0001
1000
0000
0100
0000
0010
0100
1000
0010
0100
0000
0001
0000
,
1000
0100
1000
0001
0010
0000
0001
0000
0100
0010
0100
0001
1000
0000
0010
0000
,
1000
0100
1000
0001
0010
0000
0001
0000
0100
0010
1000
0100
0010
0000
0001
0000
,
1000
0010
1000
0001
0010
0000
0100
0000
1000
0001
1000
0100
0010
0000
0001
0000
,
0100
0010
0100
0001
1000
0000
0100
0000
1000
0010
0100
0001
0010
0000
0100
0000
,
1000
0001
1000
0010
0100
0000
0001
0000
0010
0100
0010
0001
1000
0000
0010
0000
,
0100
0000
0100
0000
0100
0000
0010
0100
0001
0100
0001
0000
2002
0000
3003
0000
,
0001
1000
0100
0010
0001
0000
1000
0000
0010
0100
0001
1000
0100
0000
0010
0000
,
0001
0010
0100
1000
0001
0000
0100
0000
0010
1000
0100
0010
0001
1000
0010
1000
,
0001
0010
0100
1000
0001
0000
1000
0000
0010
0100
0001
1000
0100
0000
0010
0000
,
0001
0010
0100
1000
0001
0000
1000
0000
0010
0100
0001
0010
0100
1000
0001
1000
,
0100
0010
0001
1000
0001
0000
0100
0000
0010
1000
0001
0010
0001
0000
1000
0000
,
0010
0100
0001
1000
0001
0000
0010
0000
0100
1000
0010
0100
0001
0010
0100
1000
,
0004
4000
0000
0000
0000
0000
0000
0000
0000
0000
0000
0000
0000
0000
0000
0000
0000
0000
0000
0000
0000
0000
0000
0000
,
00M0
0000
0000
0000
0M00
0000
0000
0000
00M0
0000
0000
0000
0M00
0000
0000
0000
0000
00M0
0000
0000
0000
0000
0M00
0000
3003
0000
0000
0000
0000
0000
0000
0000
,
1000
0001
0100
0010
1000
0001
0010
0100
1000
0001
1000
0100
0010
0001
0100
0010
,
1000
0001
1000
0010
0100
0001
0010
0100
1000
0010
0100
0001
0010
0100
1000
0001
,
1000
0100
0010
0001
1000
0001
0010
0100
1000
0001
0100
0010
1000
0010
0100
0001
,
0010
0100
0010
0001
1000
0001
0010
0001
0100
0010
1000
0100
0010
0001
1000
0001
,
0010
0100
1000
0001
0100
0001
1000
0010
0100
0001
0100
0010
1000
0001
0010
0100
,
1000
0100
0010
0001
1000
0001
0100
0010
1000
0100
0010
0001
0100
0001
0010
0100
,
1000
0001
1000
0100
0010
0001
0100
0001
1000
0010
0100
0001
1000
0001
0100
0010
,
1000
0100
0010
0001
1000
0001
0010
0100
1000
0001
1000
0001
0200
0000
0000
0000
,
0301
1000
0010
0100
0001
1000
0100
0010
0001
1000
0001
0010
0100
1000
0010
0100
,
0001
1000
0001
0100
0010
1000
0100
0010
0001
0100
0010
1000
0100
0010
0001
1000
,
0001
0010
0100
1000
0001
1000
0100
0010
0001
1000
0010
0100
0001
0100
0010
1000
,
0100
0010
0100
1000
0001
1000
0100
1000
0010
0100
0001
0010
0100
1000
0001
1000
,
0100
0010
0001
1000
0010
1000
0001
0100
0010
1000
0010
0100
0001
1000
0100
0010
,
0001
0010
0100
1000
0001
1000
0010
0100
0001
0010
0100
1000
0010
1000
0100
0010
,
0001
1000
0001
0010
0100
1000
0010
1000
0001
0100
0010
1000
0001
1000
0010
0100
,
0001
0010
0100
1000
0001
1000
0100
0010
0002
2003
3002
2003
3020
0000
0000
0000
,
1030
0001
0100
0010
1000
0001
0010
0100
1000
0001
1000
0100
0010
0001
0100
0010
,
1000
0001
1000
0010
0100
0001
0010
0100
1000
0010
0100
0001
0010
0100
1000
0001
,
1000
0100
0010
0001
1000
0001
0010
0100
1000
0001
0100
0010
1000
0010
0100
0001
,
0010
0100
0010
0001
1000
0001
0010
0001
0100
0010
1000
0100
0010
0001
1000
0001
,
0010
0100
1000
0001
0100
0001
1000
0010
0100
0001
0100
0010
1000
0001
0010
0100
,
1000
0100
0010
0001
1000
0001
0100
0010
1000
0100
0010
0001
0100
0001
0010
0100
,
1000
0001
1000
0100
0010
0001
0100
0001
1000
0010
0100
0001
1000
0001
0100
0010
,
1000
0100
0010
0001
1000
0001
0010
0100
1000
0001
1000
0001
0200
0000
0000
0000
,
0301
1000
0010
0100
0001
1000
0100
0010
0001
1000
0001
0010
0100
1000
0010
0100
,
0001
1000
0001
0100
0010
1000
0100
0010
0001
0100
0010
1000
0100
0010
0001
1000
,
0001
0010
0100
1000
0001
1000
0100
0010
0001
1000
0010
0100
0001
0100
0010
1000
,
0100
0010
0100
1000
0001
1000
0100
1000
0010
0100
0001
0010
0100
1000
0001
1000
,
0100
0010
0001
1000
0010
1000
0001
0100
0010
1000
0010
0100
0001
1000
0100
0010
,
0001
0010
0100
1000
0001
1000
0010
0100
0001
0010
0100
1000
0010
1000
0100
0010
,
0001
1000
0001
0010
0100
1000
0010
1000
0001
0100
0010
1000
0001
1000
0010
0100
,
0001
0010
0100
1000
0010
1000
0100
0010
0001
0100
0010
1000
0100
1000
0010
0100
,
0002
0000
0000
1003
0010
1000
0000
0001
,
0010
0001
0010
0001
0010
0000
0200
0000
0000
0000
0310
0000
0100
0000
0000
0000
,
1000
0100
1000
0100
1000
0000
0002
0000
0000
0000
1003
0000
0001
0000
0000
0000
,
0100
0001
0100
0001
0100
0000
0020
0000
0000
0000
0130
0000
0010
0000
0000
0000
,
1000
0020
0000
0000
0100
0130
0000
0000
,
000M
0000
0000
0000
;

//---------------dance-single - Switches----------------
#NOTES:
     dance-single:
     Switches:
     Edit:
     16:
     1.000,1.000,0.068,0.114,1.000,2392.000,19.000,32.000,113.000,0.000:
0000
0000
0000
0000
,
0000
0000
0000
0000
,
0000
0000
0000
0000
,
0000
0000
0000
0000
,
0000
0000
0000
0000
,
0000
0000
0000
0000
,
0000
0000
0000
0000
,
0000
0000
1010
M001
,
1000
0100
0010
0000
0001
0000
1000
0001
1000
0001
0100
0000
0010
0000
1000
0001
,
1000
0001
0010
0000
0100
0000
1000
0100
1000
0100
0010
0000
0001
0000
1000
0001
,
1000
0001
0100
0000
0010
0000
1000
0010
1000
0010
0100
0000
0001
0000
1000
0001
,
1000
0001
0010
0000
0100
0000
1000
0001
0100
0000
0000
0010
1000
0000
1000
0000
,
0001
0010
0100
0000
1000
0000
0001
0100
0001
0100
0010
0000
1000
0000
0001
0010
,
0001
0010
0100
0000
1000
0000
0001
0100
0001
0100
0010
0000
1000
0000
0001
0010
,
0001
0010
0100
0000
1000
0000
0001
1000
0001
1000
0010
0000
0100
0000
0001
1000
,
0100
0000
0100
0000
0010
0000
0010
0001
1000
0001
1000
0000
M220
0330
0000
0000
,
1000
0001
0010
0000
0100
0000
1000
0001
1000
0010
0100
0000
0001
0000
0100
0010
,
1000
0001
1000
0000
0100
0000
0010
0001
1000
0001
0100
0000
0010
0000
1000
0010
,
0100
0001
1000
0000
0100
0000
0010
0100
1000
0001
0100
0000
0010
0000
1000
0010
,
0100
0001
1000
0000
0100
0000
0010
0100
1000
0000
1000
0000
0001
0000
0001
0000
,
0100
0010
1000
0000
0001
0000
1000
0010
0100
0001
1000
0000
0100
0000
0010
0001
,
1000
0010
0100
0000
0001
0000
0100
0010
1000
0001
1000
0010
0100
0001
1000
0100
,
0010
0100
1000
0001
1000
0010
0100
0001
1000
0001
1000
0100
0010
0100
1000
0001
,
0100
0001
0100
0010
1000
0001
1000
0100
0040
0034
0043
0034
4003
3004
4003
3004
,
02M3
M000
00M0
0000
000M
00M0
000M
0000
00M0
M000
00M0
0000
0000
0000
0000
0000
,
M000
00M0
M000
0000
000M
00M0
000M
0000
M000
00M0
M000
0000
0000
0000
0000
0000
,
M000
00M0
M000
0000
000M
00M0
000M
0000
M000
00M0
M000
0000
030M
M000
000M
0000
,
M000
0M00
M000
0000
000M
00M0
000M
0000
M000
0M00
M000
0000
000M
M000
000M
0000
,
M000
0M00
M000
0000
000M
00M0
000M
0000
M000
0M00
M000
0000
000M
M000
000M
0000
,
M000
0M00
M000
0000
000M
00M0
000M
0000
M000
0M00
M000
0000
000M
M000
000M
0000
,
M000
0M00
M000
0000
000M
00M0
000M
0000
M000
0M00
M000
0000
000M
M000
000M
0000
,
M000
0M00
M000
0000
000M
00M0
000M
0000
M000
0M00
M000
0000
000M
M000
000M
0000
,
1M00
0010
1000
0000
0001
0100
0001
0000
1000
0010
1000
0000
0001
1000
0001
0000
,
0010
0001
0010
0000
0100
1000
0100
0000
0010
0001
0010
0000
0001
1000
0001
0000
,
1000
0010
1000
0000
0001
0100
0001
0000
1000
0010
1000
0000
0001
1000
0001
0000
,
0010
0001
0010
0000
0100
1000
0100
0000
0010
0001
0010
0000
0001
1000
0001
0000
,
1000
0010
1000
0000
0001
0100
0001
0000
1000
0010
1000
0000
0001
1000
0001
0000
,
0010
0001
0010
0000
0100
1000
0100
0000
0010
0001
0010
0000
0001
1000
0001
0000
,
1000
0010
1000
0000
0001
0100
0001
0000
1000
0010
1000
0000
0001
1000
0001
0000
,
0040
0000
0000
0000
0034
0000
0000
0000
0043
0000
0000
0000
0034
0000
0000
0000
4003
0000
0000
0000
3004
0000
0000
0000
4003
0000
0000
0000
3004
0000
0000
0000
4003
0000
0000
0000
3040
0000
0000
0000
4030
0000
0000
0000
3040
0000
0000
0000
0230
0000
0000
0000
0000
0000
0000
0000
0000
0000
0000
0000
0000
0000
0000
0300
,
1002
0000
0000
0000
0203
0000
0000
0320
,
0000
0000
0000
0000
0000
0000
0000
0000
0000
0000
0000
0000
0000
0000
0000
0030
,
0010
1000
0010
0000
1000
0001
1000
0000
0001
0010
0001
0000
1000
0001
1000
0000
,
0100
1000
0100
0000
0010
0100
0010
0000
0001
0010
0001
0000
0010
0100
0010
0000
,
0100
1000
0100
0000
1000
0001
1000
0000
0001
0100
0001
0000
1000
0001
1000
0000
,
0010
1000
0010
0000
1000
0001
1000
0000
0001
0010
0001
0000
1000
0001
1000
0000
,
0010
1000
0010
0000
0100
0001
0100
0000
0001
1000
0001
0000
1000
0100
1000
0000
,
0001
0010
0001
0000
0010
0100
0010
0000
0001
1000
0001
0000
0100
0010
0100
0000
,
M001
0100
0001
1000
0010
1000
0001
0010
0100
1000
0100
0010
0100
0010
0100
1000
,
0001
0010
0001
1000
0100
1000
0001
0100
0010
1000
0010
0100
0001
0100
0010
1000
,
0001
0010
0001
1000
0100
1000
0001
0100
0010
1000
0010
0100
0010
0100
0010
1000
,
0001
0100
0001
1000
0010
1000
0001
0010
0100
1000
0100
0010
0001
0010
0100
1000
,
0001
0100
0001
1000
0010
1000
0001
0010
0100
1000
0100
0010
0100
0010
0100
1000
,
0001
0010
0001
1000
0100
1000
0001
0100
0010
1000
0010
0100
0001
0100
0010
1000
,
0001
0010
0001
1000
0100
1000
0001
0100
0010
1000
0010
0100
0010
0100
0010
1000
,
0001
0100
0001
1000
0010
1000
0001
0010
0100
1000
0100
0000
M022
0033
0000
0000
,
1000
0010
1000
0001
0100
0001
1000
0100
0010
0001
0010
0100
0010
0100
0010
0001
,
1000
0100
1000
0001
0010
0001
1000
0010
0100
0001
0100
0010
1000
0010
0100
0001
,
1000
0100
1000
0001
0010
0001
1000
0010
0100
0001
0100
0010
0100
0010
0100
0001
,
1000
0010
1000
0001
0100
0001
1000
0100
0010
0001
0010
0100
1000
0100
0010
0001
,
1000
0010
1000
0001
0100
0001
1000
0100
0010
0001
0010
0100
0010
0100
0010
0001
,
1000
0100
1000
0001
0010
0001
1000
0010
0100
0001
0100
0010
1000
0010
0100
0001
,
1000
0100
1000
0001
0010
0001
1000
0010
0100
0001
0100
0010
0100
0010
0100
0001
,
1000
0010
1000
0001
0100
0001
1000
0100
002M
0000
0030
0000
20M2
0000
3003
0000
,
0001
0100
0001
1000
0010
1000
0001
0010
0100
1000
0100
0010
0100
0010
0100
1000
,
0001
0010
0001
1000
0100
1000
0001
0100
0010
1000
0010
0100
0001
0100
0010
1000
,
0001
0010
0001
1000
0100
1000
0001
0100
0010
1000
0010
0100
0010
0100
0010
1000
,
0001
0100
0001
1000
0010
1000
0001
0010
0100
1000
0100
0010
0001
0010
0100
1000
,
0001
0100
0001
1000
0010
1000
0001
0010
0100
1000
0100
0010
0100
0010
0100
1000
,
0001
0010
0001
1000
0100
1000
0001
0100
0010
1000
0010
0100
0001
0100
0010
1000
,
0001
0010
0001
1000
0100
1000
0001
0100
0010
1000
0010
0100
0010
0100
0010
1000
,
0001
0100
0001
1000
0010
1000
0001
0010
0100
1000
0100
0000
M022
0000
0033
0000
,
1000
0010
1000
0001
0100
0001
1000
0100
0010
0001
0010
0100
0010
0100
0010
0001
,
1000
0100
1000
0001
0010
0001
1000
0010
0100
0001
0100
0010
1000
0010
0100
0001
,
1000
0100
1000
0001
0010
0001
1000
0010
0100
0001
0100
0010
0100
0010
0100
0001
,
1000
0010
1000
0001
0100
0001
1000
0100
0010
0001
0010
0100
1000
0100
0010
0001
,
1000
0010
1000
0001
0100
0001
1000
0100
0010
0001
0010
0100
0010
0100
0010
0001
,
1000
0100
1000
0001
0010
0001
1000
0010
0100
0001
0100
0010
1000
0010
0100
0001
,
1000
0100
1000
0001
0010
0001
1000
0010
0100
0001
0100
0010
0100
0010
0100
0001
,
4000
3004
0403
0340
4030
3004
0000
0000
,
1003
0100
1000
0001
0010
0001
0100
0001
1000
0010
1000
0001
0100
0001
1000
0001
,
1000
0100
1000
0001
0010
0001
0100
0010
1000
0100
1000
0001
0010
0001
1000
0001
,
1000
0010
1000
0001
0100
0001
0010
0100
1000
0100
1000
0001
0010
0001
1000
0001
,
0100
0001
0100
0010
1000
0010
0100
0001
0010
0001
0010
0001
1000
0001
0100
0001
,
1000
0010
1000
0001
0100
0001
0010
0001
1000
0100
1000
0001
0010
0001
1000
0001
,
1000
0010
1000
0001
0100
0001
0010
0100
1000
0010
1000
0001
0100
0001
1000
0001
,
1000
0100
1000
0001
0010
0001
0100
0010
1000
0010
1000
0001
0100
0001
1000
0001
,
0100
0001
0100
0010
1000
0001
1000
0100
0010
0001
0010
0000
220M
0000
3300
0000
,
0001
0010
0001
1000
0100
1000
0010
1000
0001
0100
0001
1000
0010
1000
0001
1000
,
0001
0010
0001
1000
0100
1000
0010
0100
0001
0010
0001
1000
0100
1000
0001
1000
,
0001
0100
0001
1000
0010
1000
0100
0010
0001
0010
0001
1000
0100
1000
0001
1000
,
0010
1000
0010
0100
0001
0100
0010
1000
0100
1000
0100
1000
0001
1000
0010
1000
,
0001
0100
0001
1000
0010
1000
0100
1000
0001
0010
0001
1000
0100
1000
0001
1000
,
0001
0100
0001
1000
0010
1000
0100
0010
0001
0100
0001
1000
0010
1000
0001
1000
,
0001
0010
0001
1000
0100
1000
0010
0100
0001
0100
0001
1000
0010
1000
0001
1000
,
0010
1000
0010
0100
0001
1000
0001
0010
0400
4300
3400
4300
30M2
0000
0003
0000
,
1000
0010
1000
0001
0100
0001
0010
0001
1000
0100
1000
0001
0010
0001
1000
0001
,
1000
0010
1000
0001
0100
0001
0010
0100
1000
0010
1000
0001
0100
0001
1000
0001
,
1000
0100
1000
0001
0010
0001
0100
0010
1000
0010
1000
0001
0100
0001
1000
0001
,
0010
0001
0010
0100
1000
0100
0010
0001
0100
0001
0100
0001
1000
0001
0010
0001
,
1000
0100
1000
0001
0010
0001
0100
0001
1000
0010
1000
0001
0100
0001
1000
0001
,
1000
0100
1000
0001
0010
0001
0100
0010
1000
0100
1000
0001
0010
0001
1000
0001
,
1000
0010
1000
0001
0100
0001
0010
0100
1000
0100
1000
0001
0010
0001
1000
0001
,
0010
0001
0010
0100
1000
0001
1000
0010
0100
0001
0100
0000
202M
0000
3030
0000
,
0001
0100
0001
1000
0010
1000
0100
1000
0001
0010
0001
1000
0100
1000
0001
1000
,
0001
0100
0001
1000
0010
1000
0100
0010
0001
0100
0001
1000
0010
1000
0001
1000
,
0001
0010
0001
1000
0100
1000
0010
0100
0001
0100
0001
1000
0010
1000
0001
1000
,
0100
1000
0100
0010
0001
0010
0100
1000
0010
1000
0010
1000
0001
1000
0100
1000
,
0001
0010
0001
1000
0100
1000
0010
1000
0001
0100
0001
1000
0010
1000
0001
1000
,
0001
0010
0001
1000
0100
1000
0010
0100
0001
0010
0001
1000
0100
1000
0001
1000
,
0001
0100
0001
1000
0010
1000
0100
0010
0001
0010
0001
1000
0100
1000
0001
1000
,
0001
0100
0010
1000
0001
0010
0100
1000
0010
0100
0001
1000
0100
0010
0001
1000
,
0002
0000
0M00
0000
1000
1000
0000
0000
,
0000
0000
0000
0000
,
0000
0000
0000
0003
,
0000
0000
0000
0000
,
0000
0000
00M0
0000
0001
0001
0000
0000
,
0000
0000
0000
0000
,
0000
0000
0000
0000
,
0000
0000
0000
0000
,
0000
0000
000M
0000
0100
0100
0000
0000
,
0000
0000
0000
0000
,
0000
0000
0000
0000
,
0000
0000
0000
0000
,
0000
0000
M000
0000
0010
0010
0000
0000
,
0000
0000
0000
0000
,
0000
0000
0000
0000
,
0000
0000
0000
0000
,
1M01
0000
0001
0010
0000
0001
0100
0000
0010
0000
1000
0001
0000
1000
0010
0000
,
0100
0000
0001
1000
0000
0001
0010
0000
0100
0000
0010
0001
0000
1000
0001
0000
,
0100
0000
0010
1000
0000
0001
0010
0000
0100
0000
0010
0001
0000
0010
0100
0000
,
1000
0000
0001
0010
0000
0100
1000
0000
0010
0000
0100
0001
0000
1000
0100
0000
,
0010
0000
0001
1000
0000
0010
0100
0000
0001
0000
1000
0100
0000
0010
0001
0000
,
1000
0000
0001
0010
0000
0100
1000
0000
0010
0000
0100
0001
0000
0100
0010
0000
,
1000
0000
0001
0010
0000
0100
1000
0000
0001
0000
1000
0100
0000
0010
0001
0000
,
1000
0000
0001
0100
0000
0010
1000
0000
0100
0000
0010
0001
0000
0010
0100
0000
,
1000
0000
0001
0100
0000
0010
1000
0000
0001
0000
1000
0010
0000
0100
0001
0000
,
1000
0000
0001
0010
0000
0100
1000
0000
0010
0000
0100
0001
0000
1000
0100
0000
,
0010
0000
0001
1000
0000
0010
0100
0000
0001
0000
0100
0010
0000
1000
0001
0000
,
1000
0000
0001
0010
0000
0100
1000
0000
0010
0000
1000
0001
0000
0010
0100
0000
,
1000
0000
0100
0010
0000
0001
1000
0000
0100
0000
1000
0001
0000
0100
0010
0000
,
1000
0000
0001
0100
0000
0010
1000
0000
0100
0000
0010
0001
0000
0010
0100
0000
,
4000
0400
0000
0000
0000
0000
0000
0000
0000
0000
0000
0000
0000
0000
0000
0000
0000
0000
0000
0000
0000
0000
0000
0000
,
0000
0000
0000
0000
,
3300
0000
0000
0000
,
0004
0043
0034
0043
0034
4003
3004
4003
3004
0403
0304
0403
0320
0000
0000
0000
,
0130
0100
0000
1000
0001
0000
0010
0000
0100
0100
0000
0001
1000
0000
0010
0000
,
0100
0100
0000
1000
0001
0000
0010
0000
0100
0100
0000
0010
0010
0000
0001
0000
,
0100
0100
0000
1000
0001
0000
0010
0000
0100
0100
0000
0001
1000
0000
0010
0000
,
0100
0100
0000
1000
0001
0000
0010
0000
0100
0100
0000
0010
0010
0000
0001
0000
,
0100
0100
0000
1000
0001
0000
0010
0000
0100
0100
0000
0001
1000
0000
0010
0000
,
0100
0100
0000
1000
0001
0000
0010
0000
0100
0100
0000
0010
0010
0000
0001
0000
,
0100
0100
0000
1000
0001
0000
0010
0000
0100
0100
0000
0001
1000
0000
0010
0000
,
0100
0000
0100
0000
0100
0000
0001
0100
0001
1000
0001
0000
2100
0000
0000
0000
,
3010
0010
0000
0001
1000
0000
0100
0000
0010
0010
0000
1000
0001
0000
0100
0000
,
0010
0010
0000
0001
1000
0000
0100
0000
0010
0010
0000
0100
0100
0000
1000
0000
,
0010
0010
0000
0001
1000
0000
0100
0000
0010
0010
0000
1000
0001
0000
0100
0000
,
0010
0010
0000
0001
1000
0000
0100
0000
0010
0010
0000
0100
0100
0000
1000
0000
,
0010
0010
0000
0001
1000
0000
0100
0000
0010
0010
0000
1000
0001
0000
0100
0000
,
0010
0010
0000
0001
1000
0000
0100
0000
0010
0010
0000
0100
0100
0000
1000
0000
,
0010
0010
0000
0001
1000
0000
0100
0000
0010
0010
0000
1000
0001
0000
0100
0000
,
0010
0000
0010
0000
0010
0000
0100
0001
0100
0000
0000
0000
2100
0000
0000
0000
,
3010
0010
0001
0100
0100
1000
0010
1000
0100
0100
0001
0010
0010
1000
0100
1000
,
0010
0010
0001
0100
0100
1000
0010
1000
0100
0100
0001
0010
0010
1000
0001
0100
,
0010
0010
0001
0100
0100
1000
0010
1000
0100
0100
0001
0010
0010
1000
0100
1000
,
0010
0010
0001
0100
0100
1000
0010
1000
0100
0100
0001
0010
0010
1000
0100
1000
,
0010
0010
0001
0100
0100
1000
0010
1000
0100
0100
0001
0010
0010
1000
0100
1000
,
0010
0010
0001
0100
0100
1000
0010
1000
0100
0100
0001
0010
0010
1000
0100
1000
,
0010
0010
0001
0100
0100
1000
0010
1000
0100
0100
0001
0010
0010
1000
0100
1000
,
0010
0010
0001
0100
0100
1000
0010
1000
0100
0100
0001
0010
0200
0000
0000
0000
,
0310
0010
1000
0100
0100
0001
0010
0001
0100
0100
1000
0010
0010
0001
0100
0001
,
0010
0010
1000
0100
0100
0001
0010
0001
0100
0100
1000
0010
0010
0001
0100
0001
,
0010
0010
1000
0100
0100
0001
0010
0001
0100
0100
1000
0010
0010
0001
0100
0001
,
0010
0010
1000
0100
0100
0001
0010
0001
0100
0100
1000
0010
0010
0001
0100
0001
,
0010
0010
1000
0100
0100
0001
0010
0001
0100
0100
1000
0010
0010
0001
0100
0001
,
0010
0010
1000
0100
0100
0001
0010
0001
0100
0100
1000
0010
0010
0001
0100
0001
,
4000
0004
0000
0000
0000
0000
0000
0000
0000
0000
0000
0000
0000
0000
0000
0000
,
00M0
0000
0000
0000
0M00
0000
0000
0000
00M0
0000
0000
0000
0M00
0000
0000
0000
0000
0M00
0000
0000
0000
0000
00M0
0000
0000
0000
0000
0000
3003
0000
0000
0000
,
1001
0001
1000
0010
0010
0001
0100
0001
0010
0010
1000
0100
0100
0001
0010
0001
,
0100
0100
1000
0010
0010
0001
0100
0001
0010
0010
1000
0100
0100
0001
1000
0010
,
0100
0100
1000
0010
0010
0001
0100
0001
0010
0010
1000
0100
0100
0001
0010
0001
,
0100
0100
1000
0010
0010
0001
0100
0001
0010
0010
1000
0100
0100
0001
0010
0001
,
0100
0100
1000
0010
0010
0001
0100
0001
0010
0010
1000
0100
0100
0001
0010
0001
,
0100
0100
1000
0010
0010
0001
0100
0001
0010
0010
1000
0100
0100
0001
0010
0001
,
0100
0100
1000
0010
0010
0001
0100
0001
0010
0010
1000
0100
0100
0001
0010
0001
,
0100
0100
1000
0010
0010
0001
0100
0001
0010
0010
1000
0100
0020
0000
0000
0000
,
0130
0100
0001
0010
0010
1000
0100
1000
0010
0010
0001
0100
0100
1000
0010
1000
,
0100
0100
0001
0010
0010
1000
0100
1000
0010
0010
0001
0100
0100
1000
0010
1000
,
0100
0100
0001
0010
0010
1000
0100
1000
0010
0010
0001
0100
0100
1000
0010
1000
,
0100
0100
0001
0010
0010
1000
0100
1000
0010
0010
0001
0100
0100
1000
0010
1000
,
0100
0100
0001
0010
0010
1000
0100
1000
0010
0010
0001
0100
0100
1000
0010
1000
,
0100
0100
0001
0010
0010
1000
0100
1000
0010
0010
0001
0100
0100
1000
0010
1000
,
0100
0100
0001
0010
0010
1000
0100
1000
0010
0010
0001
0100
0100
1000
0010
1000
,
0100
0100
0001
0010
0010
1000
0100
1000
0010
0010
0001
0100
0020
0000
0000
0000
,
0130
0100
1000
0010
0010
0001
0100
0001
0010
0010
1000
0100
0100
0001
0010
0001
,
0100
0100
1000
0010
0010
0001
0100
0001
0010
0010
1000
0100
0100
0001
1000
0010
,
0100
0100
1000
0010
0010
0001
0100
0001
0010
0010
1000
0100
0100
0001
0010
0001
,
0100
0100
1000
0010
0010
0001
0100
0001
0010
0010
1000
0100
0100
0001
0010
0001
,
0100
0100
1000
0010
0010
0001
0100
0001
0010
0010
1000
0100
0100
0001
0010
0001
,
0100
0100
1000
0010
0010
0001
0100
0001
0010
0010
1000
0100
0100
0001
0010
0001
,
0100
0100
1000
0010
0010
0001
0100
0001
0010
0010
1000
0100
0100
0001
0010
0001
,
0100
0100
1000
0010
0010
0001
0100
0001
0010
0010
1000
0100
0020
0000
0000
0000
,
0130
0100
0001
0010
0010
1000
0100
1000
0010
0010
0001
0100
0100
1000
0010
1000
,
0100
0100
0001
0010
0010
1000
0100
1000
0010
0010
0001
0100
0100
1000
0001
0010
,
0100
0100
0001
0010
0010
1000
0100
1000
0010
0010
0001
0100
0100
1000
0010
1000
,
0100
0100
0001
0010
0010
1000
0100
1000
0010
0010
0001
0100
0100
1000
0010
1000
,
0100
0100
0001
0010
0010
1000
0100
1000
0010
0010
0001
0100
0100
1000
0010
1000
,
0100
0100
0001
0010
0010
1000
0100
1000
0010
0010
0001
0100
0100
1000
0010
1000
,
0100
0100
0001
0010
0010
1000
0100
1000
0010
0010
0001
0100
0100
1000
0010
1000
,
0100
0100
0001
0010
0010
1000
0100
1000
0010
0010
0001
0100
0100
1000
0010
0010
,
0002
0000
0000
1003
0010
1000
0000
0001
,
0010
0001
0010
0001
0010
0000
0200
0000
0000
0000
0310
0000
0100
0000
0000
0000
,
1000
0100
1000
0100
1000
0000
0002
0000
0000
0000
1003
0000
0001
0000
0000
0000
,
0100
0001
0100
0001
0100
0000
0020
0000
0000
0000
0130
0000
0010
0000
0000
0000
,
1000
0020
0000
0000
0100
0130
0000
0000
,
000M
0000
0000
0000
;
