#TITLE:Aquatic Ruin Zone;
#SUBTITLE:Sonic the Hedgehog 2;
#ARTIST:Masato Nakamura;
#TITLETRANSLIT:;
#SUBTITLETRANSLIT:;
#ARTISTTRANSLIT:;
#CREDIT:;
#BANNER:Aquatic Ruin.png;
#BACKGROUND:Aquatic Ruin-bg.png;
#LYRICSPATH:;
#CDTITLE:;
#MUSIC:Sonic_2_Aquatic_Ruin_Zone.mp3;
#OFFSET:0.120;
#SAMPLESTART:45.595;
#SAMPLELENGTH:12.000;
#SELECTABLE:YES;
#BPMS:0.000=132.000;
#STOPS:80.000=0.260
,160.000=0.260
;
#BGCHANGES:;
// cache tags:
#FIRSTBEAT:0.500;
#LASTBEAT:178.750;
#SONGFILENAME:Songs/toune 3/Sonic_2_Aquatic_Ruin_Zone/Sonic_2_Aquatic_Ruin_Zone.sm;
#HASMUSIC:1;
#HASBANNER:1;
#MUSICLENGTH:83.330;
// end cache tags

//---------------dance-single - Created by Pyzik----------------
#NOTES:
     dance-single:
     Created by Pyzik:
     Challenge:
     10:
     0.833,0.778,0.540,1.000,0.690,332.000,45.000,109.000,0.000,28.000:
0000
0000
1001
0010
0100
1000
0100
0000
0010
0000
0200
0000
0000
0000
0000
0000
,
0300
0000
0001
1000
0001
1000
0002
0000
0000
0000
0000
0000
0000
0003
1100
0011
,
0000
0000
0000
0010
0100
1000
0010
0000
0100
0000
0020
0000
0000
0000
0000
0000
,
0030
0000
1000
0001
1000
0001
2000
0000
0000
0000
0000
0000
0000
3000
0011
1100
,
0000
0000
0100
0010
2000
0000
3200
0000
0000
0000
0320
0000
0131
0000
0000
0000
,
0000
0000
0010
0000
0010
0100
2000
0000
0000
0000
0001
0000
0001
0010
0200
0000
,
3300
0000
1000
0000
1000
0000
0000
0010
0000
0000
0010
0100
2000
0000
0000
0000
,
3200
0000
0000
0000
0320
0001
0100
0000
1000
0000
1000
0000
0100
0000
0100
0001
,
1030
0000
0100
0010
0002
0000
0023
0000
0000
0000
0230
0000
1310
0000
0000
0000
,
0000
0000
0100
0000
0100
0010
0002
0000
0000
0000
1000
0000
1000
0100
0020
0000
,
0033
0000
0000
0000
0020
0000
0000
0032
0000
0000
0013
0100
2000
0000
0000
0000
,
3200
0000
0000
0000
0000
0000
0000
0000
1300
0100
0010
0001
1000
0100
0010
0001
1000
0000
0000
0000
0001
0000
0010
0000
0100
0000
1000
0000
0100
0000
0010
0000
,
0001
0010
0100
0000
2000
0000
0000
0000
3020
0000
0200
0000
0330
0000
1000
0100
,
0000
1000
0100
0000
0002
0000
0000
0000
0203
0000
0020
0000
0330
0000
0100
0010
,
0000
0100
0010
0000
0200
0000
0000
0000
0302
0000
2000
0000
3003
0000
0010
0001
,
0000
0010
0001
0000
1000
0000
0010
0000
0100
0010
0002
0000
0000
0000
1003
0100
,
0010
0001
0010
0100
2000
0000
0000
0000
0200
0000
0020
0000
3330
0000
0001
0010
,
0000
0001
0010
0000
0002
0000
0000
0000
0020
0000
0200
0000
0333
0000
0010
0100
,
0000
0010
0100
0000
0200
0000
0000
0000
0020
0000
2000
0000
3330
0000
0100
1000
,
0000
0100
1000
0000
0000
0010
0010
1001
0000
0000
0000
0100
0100
1001
0000
0000
,
1001
0000
0000
0200
0000
2000
0000
0000
0302
0000
3200
0000
0000
0000
0000
0000
,
0303
0000
2000
0100
0010
0001
0200
0000
0000
0000
0000
0000
3300
0000
0110
0110
,
0000
0000
0000
0200
0000
0002
0000
0000
2300
0000
0203
0000
0000
0000
0000
0000
,
3300
0000
0002
0010
0100
1000
0020
0000
0000
0000
0000
0000
0033
0000
1001
1001
,
0000
0000
0010
0001
0200
0000
0020
0000
0000
0000
1000
0000
1330
0000
0000
0000
,
0000
0000
2000
0000
3010
0010
0200
0000
0000
0000
0002
0000
1003
1000
0020
0000
,
0330
0000
2000
0000
3200
0000
0000
0302
0000
0000
0013
0010
0002
0000
0000
0000
,
0020
0000
0000
0000
0233
1000
0010
0000
0001
0000
0001
0000
0010
0000
0010
1000
,
0301
0000
1000
0100
0020
0000
0200
0000
0000
0000
0001
0000
0331
0000
0000
0000
,
0000
0000
0002
0000
0013
0010
0200
0000
0000
0000
2000
0000
3001
0001
0020
0000
,
0330
0000
0000
0000
2000
0000
0000
3002
0000
0000
0013
0100
0002
0000
0000
0000
,
2003
0000
0000
0000
0000
0000
0000
0000
3001
0010
0100
1000
0001
0010
0100
1000
0001
0000
0000
0000
1000
0000
0100
0000
0010
0000
0001
0000
0010
0000
0100
0000
,
1000
0100
0010
0000
0200
0000
0000
0000
2300
0000
3022
0000
0033
0000
1010
0100
,
0000
1010
0001
0000
2000
0000
0000
0000
3002
0000
0223
0000
0330
0000
0101
0010
,
0000
0101
1000
0000
0020
0000
0000
0000
0032
0000
2203
0000
3300
0000
0110
1000
,
0000
0110
0001
0000
1000
0000
0010
0000
0001
0001
0100
0000
0000
0000
0110
0000
,
0110
0110
0110
0110
0002
0000
0000
0000
0200
0000
0020
0000
0333
0000
0011
0100
,
0000
0011
1000
0000
0020
0000
0000
0000
0002
0000
0200
0000
0333
0000
1100
0010
,
0000
1100
0001
0000
2000
0000
0000
0000
0020
0000
0200
0000
3330
0000
0110
0001
,
0000
0110
1000
0000
0000
0100
0100
1001
0000
0000
0000
0010
0010
1001
0000
0000
,
1001
0000
0000
0020
0000
2000
0000
0000
0230
0000
3002
0000
0000
0000
0000
0000
,
0303
0000
0100
0010
0100
0010
2200
0000
0000
0000
0000
0000
3300
0000
0011
0011
,
0000
0000
0000
0200
0000
0002
0000
0000
0320
0000
2003
0000
0000
0000
0000
0000
,
3030
0000
0010
0100
0010
0100
0022
0000
0000
0000
0000
0000
0033
0000
1100
1100
,
0000
0000
0010
0001
0020
0000
0200
0000
0000
0000
1001
1331
0000
0000
0000
0000
;

//---------------dance-single - BLANK----------------
#NOTES:
     dance-single:
     BLANK:
     Edit:
     1:
     0.000,0.000,0.000,0.000,0.000,0.000,0.000,0.000,0.000,0.000:
0000
0000
0000
0000
;
