#TITLE:Kyle's Mom Is A Bitch;
#SUBTITLE:South Park\;
#ARTIST:Eric Cartman;
#TITLETRANSLIT:;
#SUBTITLETRANSLIT:;
#ARTISTTRANSLIT:;
#CREDIT:Owem;
#BANNER:../banner.png;
#BACKGROUND:../bg.png;
#LYRICSPATH:;
#CDTITLE:../cdtitleowem.png;
#MUSIC:Kyle's Mom Is A Bitch.ogg;
#OFFSET:-0.291;
#SAMPLESTART:19.288;
#SAMPLELENGTH:15.342;
#SELECTABLE:YES;
#DISPLAYBPM:158.000;
#BPMS:0.000=156.670,23.000=147.681,24.000=149.822,25.000=156.902,48.000=156.846,49.000=158.008,50.000=157.998,55.000=158.008,56.000=157.998,61.000=158.008,62.000=157.998,67.000=158.008,68.000=157.998,70.000=160.005,71.000=159.995,72.000=160.005,73.000=159.995,74.000=160.005,75.000=159.995,76.000=160.005,77.000=159.995,78.000=160.005,79.000=159.995,80.000=160.005,81.000=130.005,82.000=157.857,83.000=200.000,84.000=170.008,85.000=160.005,86.000=157.857,87.000=157.848,88.000=157.857,89.000=142.006,90.000=160.005,91.000=159.995,92.000=160.005,93.000=159.995,94.000=160.005,95.000=157.857,96.000=157.848,97.000=157.857,98.000=157.848,99.000=157.857,100.000=157.848,101.000=157.857,102.000=157.848,103.000=157.857,104.000=157.848,105.000=157.857,106.000=157.848,107.000=157.857,108.000=157.848,109.000=157.857,110.000=157.848,111.000=157.857,112.000=157.848,113.000=157.857,114.000=156.856,115.000=156.846,116.000=156.856,117.000=156.846,119.000=156.856,120.000=156.846,122.000=158.852,125.000=158.843,126.000=158.852,130.000=158.843,131.000=158.852,134.000=158.843,135.000=158.852,137.000=140.850,138.000=160.005,139.000=159.995,140.000=160.005,141.000=159.995,142.000=160.005,143.000=159.995,144.000=160.005,145.000=159.995,146.000=160.005,147.000=159.995,148.000=160.005,149.000=159.995,150.000=160.005,151.000=159.995,152.000=170.008,153.000=169.997,154.000=120.000,155.000=100.000,170.000=105.000,173.000=100.000;
#STOPS:;
#BGCHANGES:;
// cache tags:
#FIRSTBEAT:0.000;
#LASTBEAT:177.000;
#SONGFILENAME:Songs/Owem's Simfiles 08 - 1.2/Kyle's Mom Is A Bitch - [Owem] v1.0.1/Kyle's Mom Is A Bitch.sm;
#HASMUSIC:1;
#HASBANNER:1;
#MUSICLENGTH:75.116;
// end cache tags

//---------------dance-single - 16- (Owem)----------------
#NOTES:
     dance-single:
     16- (Owem):
     Challenge:
     16:
     1.000,1.000,0.639,1.000,1.000,479.000,48.000,79.000,3.000,0.000:

1MM2
0000
0000
0000
0000
0000
0000
0003
1000
0000
0100
0000
0010
0000
0001
0100
,
0010
0000
0100
0000
0001
0000
1000
0100
0010
0000
0001
0000
1000
0000
0001
0100
,
0020
0030
2000
3000
0002
0003
0010
0001
1000
0000
0001
0000
0100
0000
0010
1000
,
0020
0030
0100
0001
0100
0000
0010
1000
0001
0000
1000
0000
0200
0300
0020
0030
,
0004
0000
4003
0000
3040
0000
0130
0000
0001
0000
1000
0100
0010
0000
0001
0000
,
1000
0010
1000
0001
0100
0010
1000
0000
0000
0001
0000
0000
0010
0000
0000
0100
1000
0001
1000
0000
0000
0010
0000
0000
,
0M00
0000
0101
0000
2001
0000
3010
0000
0100
0001
1000
0100
0010
0000
0001
0000
,
0100
0010
0100
0001
1000
0000
0100
0000
0020
0030
0001
0000
0100
0010
1000
0000
,
0002
0003
0200
0300
0120
0030
1000
0000
0002
0000
0013
0100
2000
3000
0020
0030
,
0100
0000
0001
1000
0001
0010
0100
1000
0010
0000
0100
0000
0101
0000
0002
0003
,
2000
0000
0000
3000
0000
0000
0200
0000
0000
0300
0000
0000
0020
0000
0000
0030
0000
0000
0002
0000
0000
0003
0000
0000
0000
0000
4000
0000
0000
0000
0000
0000
3040
0000
0000
0000
0230
0000
0000
0000
0000
0000
0301
0000
0000
1000
0000
0000
,
0001
0000
0000
0000
0000
0000
0010
0000
0000
0000
0000
0000
0200
0000
0000
0000
0000
0000
1300
0000
0000
0010
0000
0000
1000
0000
0000
0000
0000
0000
0100
0000
0000
0000
0000
0000
0010
0000
0001
0000
1000
0000
0001
0000
0100
0000
0010
0000
,
1000
0000
1001
0000
2010
0000
3001
0100
0020
0000
0130
0001
1000
0000
0100
0000
,
0010
0000
0002
0003
1000
0000
0010
0100
0002
0003
2000
3000
0200
0300
0010
0001
,
1000
0000
0002
0003
0200
0300
0010
1000
0010
0000
0100
0000
0001
0000
1000
0100
,
0010
0000
0001
1000
0001
0000
0100
0010
0100
0000
0101
0000
1001
0000
1010
0000
,
0110
0101
1001
0000
1100
0110
0011
1001
,
1010
0110
1001
0101
0100
0010
1000
0001
,
0200
0000
0340
0030
2000
3000
0001
0100
,
0110
0000
0010
0000
1000
0000
0001
0000
0010
0000
0100
0000
2000
0000
3002
0003
,
0201
0000
0340
0030
1000
0001
1000
0100
,
0010
0000
0001
0000
0200
0000
0301
0000
1000
0000
0100
0000
0010
0001
1000
0000
,
0010
0000
0000
0000
0000
0000
0100
0000
0000
0000
0000
0000
0102
0000
0000
0003
0000
0000
0000
0000
0000
0000
0000
0000
1000
0000
0100
0000
0010
0000
0001
0000
1000
0000
0001
0000
0100
0000
0010
0000
1000
0000
0001
0000
0100
0000
0001
0000
,
1000
0100
0010
0001
1000
0100
1000
0001
0100
0010
1000
0001
0100
0001
0010
0100
1000
0001
0010
0001
0100
0010
1000
0001
,
0100
0000
0000
0010
0000
0000
1000
0000
0000
0002
0000
0000
1003
0100
0010
0001
1000
0010
1000
0001
0100
0010
1000
0001
,
0100
0010
0100
0001
1000
0100
0010
0001
1000
0010
0100
0001
1000
0100
1000
0001
0100
0010
0100
0001
1000
0100
1000
0001
,
0010
0000
0000
0100
0000
0000
2000
0000
0000
3000
0000
0000
0001
0100
0010
1000
0001
0100
0010
0100
0001
1000
0010
1000
,
0001
1000
0100
0010
0001
0010
0100
1000
0001
0100
0001
1000
0010
0100
0001
1000
0010
1000
0001
0100
0010
1000
0001
0100
,
0001
1000
0100
0010
0001
1000
0020
0000
0000
0030
0000
0000
1000
0001
0100
0010
1000
0001
0100
0001
0010
0100
1000
0001
,
0010
0001
0100
0010
1000
0001
0100
0010
0100
0001
1000
0100
0010
0100
1000
0001
1000
0010
0100
0001
1000
0100
0010
0001
,
1000
0000
0010
0000
1000
0000
0001
0000
0100
0000
0010
0000
0100
0000
0000
0000
0000
0000
0001
0000
0000
1000
0000
0000
0002
0000
0000
0000
0000
0000
0013
0000
0000
0100
0000
0000
1000
0000
0000
0000
0000
0000
0010
0000
0000
0000
0000
0000
,
0100
0001
2000
3000
0200
0300
0010
0001
2000
3000
0002
0003
0200
0300
0010
1000
,
0001
0000
0010
0000
0200
0300
1000
0001
2000
0000
3020
0000
0130
0000
0001
1000
,
0200
0300
0010
0001
1000
0000
0001
0100
0010
0000
0110
0000
0101
0000
1001
0000
,
1010
0000
0110
0000
0102
0000
0000
0003
1001
0000
0110
0000
0101
0000
0110
0000
,
1010
1001
0101
0011
0001
1000
0010
0100
,
0020
0000
0030
0000
2000
3001
0100
0010
,
0120
0130
0001
1000
0100
0010
0001
1000
,
1020
0000
0000
0000
0000
0000
0030
0000
0000
0000
0100
0000
0000
0000
0000
0000
0002
0000
0000
0000
0003
1000
0000
0000
0200
0000
0000
0000
0300
0010
0000
0000
,
0002
0000
0000
1003
0010
0200
0301
1000
0000
0000
0100
0000
0020
0000
0000
0030
0001
0000
0200
0000
0000
0300
0010
0000
,
2000
0000
0000
3000
0001
0000
0200
0000
0310
0000
1000
0000
1001
0000
0001
0000
0010
0000
0220
0330
0000
2200
0000
0000
,
3300
0000
0000
2002
0000
0000
3003
0000
0000
0000
1000
0000
0200
0000
0000
0300
0010
0000
0002
0000
0000
0003
0200
0000
,
0300
0010
1000
0002
0003
0010
0100
2000
3000
2020
0000
3030
1002
0000
0000
0000
,
0000
0000
0000
0000
0000
0000
0000
0000
0000
0000
0000
0000
0000
0000
0000
0000
0000
0000
0000
0000
0000
0000
0000
0000
0000
0000
0000
0000
0000
0000
0000
0000
0000
0000
0000
0000
0000
0000
0000
0000
0003
0000
0000
0000
0000
0000
0000
0000
0200
0000
0000
0000
0000
0000
0000
0000
0000
0000
0000
0000
0000
0000
0000
0000
0000
0000
0000
0000
0000
0000
0000
0000
0000
0000
0000
0000
0000
0000
0000
0000
0000
0000
0000
0000
0000
0000
0000
0000
0000
0000
0000
0000
0000
0000
0000
0000
0000
0000
0000
0000
0000
0000
0000
0000
0000
0000
0000
0000
0000
0000
0000
0000
0000
0000
0000
0000
0000
0000
0000
0000
0310
0000
0000
0000
0000
0000
0000
0000
0000
0000
0000
0000
1000
0000
0000
0000
0000
0000
0000
0000
0000
0000
0000
0000
0001
0000
0000
0000
0000
0000
0000
0000
0000
0000
0000
0000
0000
0000
0000
0000
0000
0000
0000
0000
0000
0000
0000
0000
0100
0000
0000
0000
0000
0000
0010
0000
0000
0000
0000
0000
0200
0000
0000
0000
0000
0000
0000
0000
0000
0000
0000
0000
,
0000
0300
0000
0000
;
