#TITLE:Visible Noise;
#SUBTITLE:;
#ARTIST:Hybrid;
#TITLETRANSLIT:;
#SUBTITLETRANSLIT:;
#ARTISTTRANSLIT:;
#CREDIT:;
#BANNER:Visible Noise-banner.png;
#BACKGROUND:Visible Noise-bg.png;
#LYRICSPATH:;
#CDTITLE:;
#MUSIC:music.ogg;
#OFFSET:0.006;
#SAMPLESTART:36.340;
#SAMPLELENGTH:11.900;
#SELECTABLE:YES;
#BPMS:0.000=132.000;
#STOPS:;
#BGCHANGES:-10000.000=songbackground=1.000=0=0=1,
16.000=In The Groove 2/595_JumpBack.mpg=1.000=0=0=1,
144.000=In The Groove 2/657_JumpBack.mpg=1.000=0=0=1,
224.000=Visible Noise-bg.png=1.000=0=0=1,
99999=-nosongbg-=1.000=0=0=0 // don't automatically add -songbackground-
;
// cache tags:
#FIRSTBEAT:16.000;
#LASTBEAT:228.000;
#SONGFILENAME:Songs/In The Groove 2 (Official)/Visible Noise/Visible Noise.sm;
#HASMUSIC:1;
#HASBANNER:1;
#MUSICLENGTH:105.720;
// end cache tags

//---------------dance-single - C. Emirzian----------------
#NOTES:
     dance-single:
     C. Emirzian:
     Easy:
     4:
     0.272,0.297,0.114,0.019,0.000,187.000,12.000,2.000,0.000,0.000:









0000
0000
0000
0000
,
0000
0000
0000
0000
,
0000
0000
0000
0000
,
0000
0000
0000
0000
,
1000
0100
0010
0001
,
1001
1000
0110
0001
,
0001
0010
0100
1000
,
1001
0100
0110
0010
,
1000
1000
0010
1010
,
0001
0001
0010
0100
,
0001
0001
0100
0110
,
1001
1000
0100
0010
,
1000
0100
0001
0010
,
1000
0010
0001
0010
,
0001
0010
1000
0100
,
0001
0100
1000
0010
,
1000
0100
0001
1000
,
1000
0010
0001
1000
,
1000
0100
1000
0010
,
0001
0100
0001
0010
,
1000
0100
1000
0010
,
0001
0100
0001
0010
,
1000
0100
0001
0100
,
1000
0100
0010
0001
,
0001
1000
0001
0000
,
1001
0110
1001
0000
,
0001
0010
0100
0100
,
1000
0010
0100
0100
,
0001
0100
1000
0100
,
0001
0100
1000
0100
,
0001
1000
0100
0010
,
0001
0100
0010
0010
,
1000
0100
0001
0100
,
1000
0100
0001
0100
,
1000
0100
0010
0001
,
1000
0100
0010
0001
,
1000
0000
0100
0000
,
0001
0000
0010
0000
,
1000
0000
0100
0000
,
0001
0000
0010
0000
,
1000
0000
0100
0000
,
0001
0000
0010
0000
,
1000
0000
0100
0000
,
0001
0000
0010
0000
,
1000
0100
0010
0001
,
1000
0100
0010
0000
,
0001
1000
0010
0100
,
0001
0010
0100
0000
,
1000
0100
0001
0100
,
1000
0010
0100
0000
,
0001
0010
1000
0010
,
0001
0100
0010
0000
,
1000
0001
0010
0100
,
1000
1000
0010
0100
,
0001
0010
0001
0100
,
0010
1000
0001
0110
,
2002
0000
0000
0000
,
3003
0000
0000
0000
;

//---------------dance-single - C. Emirzian----------------
#NOTES:
     dance-single:
     C. Emirzian:
     Medium:
     6:
     0.368,0.404,0.104,0.019,0.000,259.000,11.000,2.000,0.000,0.000:

0000
0000
0000
0000
,
0000
0000
0000
0000
,
0000
0000
0000
0000
,
0000
0000
0000
0000
,
1000
0100
1000
0010
1000
0000
0010
0000
,
0001
0010
1000
0001
,
0010
0100
0010
0100
0010
0000
0001
0000
,
0100
0010
0100
0010
0100
0000
1001
0000
,
0001
0010
0100
1000
0001
0000
0100
0000
,
1000
0100
0001
1000
,
0000
0100
0000
0010
0000
0001
0100
0000
,
0010
1000
0010
0000
1000
0001
1000
0000
,
1001
0000
0100
0000
0010
0001
0000
1000
,
0000
0010
1000
0010
0000
1000
0100
0000
,
0010
0000
0001
0000
0001
0100
0000
0010
,
0000
1000
0001
1000
0010
1000
0100
0000
,
0010
0000
0001
0000
1000
0010
0000
0100
,
0000
0001
0010
0001
0000
0100
0001
0000
,
1000
0000
0001
0000
0010
0100
0010
0000
,
1000
1010
0001
0101
,
1001
0000
1000
0001
0010
0100
0010
0100
,
0000
1000
0010
1000
0010
0100
0000
0100
,
0001
0000
0001
0010
0000
0100
0000
1000
,
0000
0001
0100
0000
0100
0010
0100
0000
,
1001
0000
0001
1000
0000
0100
0000
0010
,
0000
0001
0100
0000
0100
0010
0000
0010
,
1000
0000
1000
0100
0000
0010
0000
0001
,
0000
1000
0010
1000
0010
1000
0000
0000
,
1000
0100
0001
0100
,
1000
0010
1000
0000
0001
0010
0001
0010
,
0100
0000
0100
1000
0001
1000
0010
0000
,
0100
0000
1000
0000
0100
0000
0001
1000
,
0001
1000
0100
0010
,
0001
1000
0001
0000
1000
0010
1000
0010
,
1000
0000
0001
0010
0001
0010
0001
0000
,
0100
0000
0010
0000
1000
0000
0001
1000
,
1000
0100
0010
0000
,
0001
0100
0010
0000
,
1000
0100
0001
0010
,
0011
0000
1100
0000
,
1000
0010
0100
0000
,
0001
0010
0100
0000
,
1000
0010
0001
0100
,
0101
0000
1010
0000
,
1000
0100
0000
0010
0000
0001
0100
0000
,
0010
1000
0000
0010
0000
1000
0001
0000
,
0010
0100
0000
1000
0000
0010
0100
0000
,
0100
0001
0000
0010
0000
0100
1000
0100
,
1000
0100
0000
0010
0000
0001
1000
0100
,
1000
0010
0000
0100
0000
0001
0010
0000
,
0100
1000
0000
0001
0000
0100
0010
0100
,
0010
0100
0000
0001
0000
1000
0100
1000
,
0001
1000
0000
0010
0000
0100
0001
0000
,
0010
0100
0000
1000
0000
0001
0010
0000
,
0001
0100
0000
0010
0000
1000
0001
1000
,
0001
1000
0000
0100
0000
0010
0001
0000
,
2002
0000
0000
0000
,
3003
0000
0000
0000
;

//---------------dance-single - C. Emirzian----------------
#NOTES:
     dance-single:
     C. Emirzian:
     Hard:
     9:
     0.641,0.620,0.161,0.019,1.000,455.000,17.000,2.000,0.000,0.000:










0000
0000
0000
0000
,
0000
0000
0000
0000
,
0000
0000
0000
0000
,
0000
0000
0000
0000
,
1000
0100
0000
0100
1000
0000
0010
0000
0001
0000
0010
0000
1000
0000
0001
0000
,
0010
0100
0000
0100
0010
0000
0001
0000
0100
0010
0100
0000
0010
0000
1000
0000
,
0001
0010
0000
0010
0001
0000
0100
0000
1000
0000
0100
0000
0001
0000
1000
0000
,
0000
0100
0000
0010
0000
0000
0001
0000
1000
0010
0000
1000
0001
0000
1000
0000
,
0001
0010
0000
0010
0001
0000
0100
0000
1000
0000
0100
0000
0001
0000
1000
0000
,
0100
0010
0000
0010
0100
0000
1000
0000
0010
0100
0010
0000
0100
0000
0001
0000
,
1000
0100
0000
0100
1000
0000
0010
0000
0001
0000
0010
0000
1000
0000
0001
0000
,
0000
0010
0000
0100
0000
0000
1000
0000
0010
0100
0000
0001
1000
0000
0001
0000
,
0000
1000
0000
0100
0000
0000
0010
0000
0001
1000
0000
0010
1000
0000
0100
0000
,
0000
0010
0000
0001
0000
0000
0001
0000
0100
0010
0000
1000
0001
0000
1000
0000
,
0000
0100
0000
0010
0000
0000
0001
0000
1000
0010
0000
0100
0001
0000
0100
0000
,
0000
0010
0000
1000
0000
0000
0100
0000
0010
0000
1001
0000
0000
0000
0101
0000
,
0000
0001
0000
0010
0000
0000
0100
0000
1000
0001
0000
1000
0100
0000
0010
0000
,
0000
0001
0000
0100
0000
0000
0010
0000
1000
0001
0000
1000
0001
0000
0010
0000
,
0000
0100
0000
1000
0000
0000
0001
0000
0100
0010
0000
1000
0100
0000
0010
0000
,
0000
0001
0000
1000
0000
0000
0100
0000
0010
0000
0000
0001
1000
0000
1010
0000
,
1001
0000
0000
0001
0000
0010
0000
0100
0000
1000
0010
0000
0010
1000
0000
1000
,
0001
0000
0001
0010
0000
0100
0000
1000
0000
0001
0100
0000
0100
0010
0000
0000
,
1001
0000
0000
1000
0000
0100
0000
0010
0000
0001
0100
0000
0100
0001
0000
0001
,
0010
0000
0010
0100
0000
1000
0000
0010
0000
0100
0001
0000
0001
0100
0000
0000
,
1001
0000
0000
1000
0000
0100
0000
0010
0000
0001
0100
0000
0100
0001
0000
0001
,
1000
0000
1000
0100
0000
0010
0000
0001
0000
1000
0010
0000
0010
0100
0000
0000
,
1001
0000
0000
0001
0000
0010
0000
0100
0000
1000
0010
0000
0010
1000
0000
1000
,
0100
0000
0100
0010
0000
0001
0000
0100
0000
0010
1000
0000
1000
0010
0000
0000
,
1000
0000
0000
0100
0000
0001
0000
0100
0000
1000
0010
0000
1000
0001
0000
0010
,
0100
0000
0100
1000
0000
1000
0000
0010
0000
0100
1000
0000
0100
0001
0000
1000
,
0001
0000
0000
1000
0000
0100
0000
0010
0000
0001
1000
0000
0001
1000
0000
0010
,
1000
0000
0001
0010
0000
0010
0000
0001
0000
0100
0010
0000
1000
0001
0000
1000
,
0001
0000
0000
0010
0000
1000
0000
0010
0000
0001
0100
0000
0001
1000
0000
0100
,
0010
0000
0010
0001
0000
0001
0000
0100
0000
0010
0001
0000
0010
1000
0000
0001
,
1000
0000
0000
0001
0000
0010
0000
0100
0000
1000
0001
0000
1000
0001
0000
0100
,
0001
0000
1000
0100
0000
0100
0000
1000
0000
0010
0100
0000
0001
1000
0000
0001
,
1000
0100
0001
0000
1000
0100
0001
0000
,
1000
0010
0100
0001
0011
0000
1100
0000
,
1000
0010
0001
0000
1000
0010
0001
0000
,
1000
0100
0010
0001
0101
0000
1010
0000
,
0001
0100
0010
0000
0001
0100
0010
0000
,
1000
0001
0010
0100
1100
0000
0011
0000
,
0001
0010
0100
0000
0001
0010
0100
0000
,
1000
0001
0100
0010
1010
0000
0101
0000
,
1000
0100
0000
1000
0000
0001
0100
0000
0001
1000
0000
0010
0000
1000
0001
0000
,
0010
0001
0000
1000
0000
0010
0100
0000
0100
0001
0000
0010
0000
0100
1000
0100
,
1000
0100
0000
0010
0000
0001
1000
0000
1000
0010
0000
1000
0000
0001
1000
0000
,
0100
0010
0000
0001
0000
0100
0010
0000
0010
0100
0000
0001
0000
1000
0001
1000
,
0001
0010
0000
0001
0000
1000
0010
0000
1000
0001
0000
0100
0000
0001
1000
0000
,
0100
1000
0000
0001
0000
0100
0010
0000
0010
1000
0000
0100
0000
0010
0001
0010
,
0001
0010
0000
0100
0000
1000
0001
0000
0001
0100
0000
0001
0000
1000
0001
0000
,
0010
0100
0000
1000
0000
0010
0100
0000
0100
0010
0000
1000
0000
0001
1000
0001
,
1000
0001
0000
0010
0000
0100
1000
0000
1000
0010
0000
0100
0000
0001
0010
0000
,
0001
0100
0000
0010
0000
1000
0001
0000
0001
1000
0000
0100
0000
0010
0001
0010
,
0001
1000
0000
0100
0000
0010
0001
0000
0001
0100
0000
0010
0000
1000
0100
0000
,
1000
0010
0000
0100
0000
0001
1000
0001
1000
0001
0000
0100
0000
0000
0110
0000
,
2002
0000
0000
0000
,
3003
0000
0000
0000
;

//---------------dance-single - M. Emirzian----------------
#NOTES:
     dance-single:
     M. Emirzian:
     Challenge:
     10:
     0.693,0.809,0.738,0.132,1.000,421.000,78.000,14.000,0.000,12.000:









0000
0000
0000
0000
,
0000
0000
0000
0000
,
0000
0000
0000
0000
,
0000
0000
0000
0000
,
0010
0100
0000
1001
0000
0000
0010
1000
0100
0010
0001
0100
0000
1010
0000
0001
,
0100
1000
0000
0110
0000
0000
1001
0000
0000
0100
0000
0010
1001
0000
0100
0000
,
0010
1000
0000
1100
0000
0000
0010
0001
0100
0010
1000
0100
0000
0110
0000
1000
,
0100
0010
0000
0011
0000
0000
1100
0000
0000
0010
0000
0100
0101
0000
0010
0000
,
1000
0100
0000
0011
0000
0000
0010
1000
0100
0001
0100
1000
0000
0011
0000
0010
,
1000
0100
0000
0011
0000
0000
0101
0000
0000
0010
0000
0100
1100
0000
0001
0000
,
0100
0010
0000
1010
0000
0000
0001
0100
1000
0100
0001
0010
0000
1100
0000
0010
,
1000
0100
0000
0011
0000
0000
1001
0000
0000
0100
0000
0010
1100
0000
0001
0000
,
1000
0001
0000
1100
0000
0000
1000
0010
0100
0001
0010
0100
0000
1100
0000
0100
,
0001
0010
0000
1100
0000
0000
0011
0000
0000
1000
0000
0010
0101
0000
0010
0000
,
0100
1000
0000
1001
0000
0000
0010
0001
0100
0010
1000
0100
0000
0011
0000
1000
,
0010
0001
0000
1010
0000
0000
1100
0000
0000
0010
0000
0001
0101
0000
0010
0000
,
1000
0100
0000
1001
0000
0000
0010
1000
0100
0010
0001
0100
0000
1010
0000
0001
,
0100
1000
0000
0101
0000
0000
0011
0000
0000
0100
0000
1000
1010
0000
0100
0000
,
0001
1000
0000
1100
0000
0000
0001
0100
0010
1000
0100
0010
0000
0011
0000
0100
,
1000
0010
0000
0101
0000
0000
1100
0000
0101
0000
0000
1001
0100
0000
1001
0000
,
1100
0000
0000
1000
0000
0010
0000
0001
0000
0010
0100
0000
0001
1000
0000
0000
,
0010
0000
0100
0001
0000
1000
0000
0001
0000
0010
0001
0000
0010
1000
0000
0000
,
0100
0000
0000
0001
0000
1000
0000
0010
0000
1000
0100
0000
0001
0010
0000
0000
,
1000
0000
0010
0100
0000
1001
0000
0110
0000
0010
1000
0000
0100
0001
0000
0000
,
0010
0000
0000
0100
0000
1100
0000
1010
0000
0100
0001
0000
0010
0100
0000
0000
,
0010
0000
1000
0100
0000
0001
0000
0010
0000
1000
0100
0000
0001
0010
0000
0000
,
0100
0000
0000
0010
0000
0001
0000
0110
0000
0001
0100
0000
1000
0010
0000
0000
,
0001
0000
0010
0100
0000
1000
0000
0010
0000
0001
1000
0000
0100
0001
0000
0000
,
0010
0000
0000
0100
0000
0010
0000
0001
0000
1000
0010
0000
0100
1000
0000
0000
,
0010
0000
0001
0100
0000
0010
0000
1000
0000
0100
0001
0000
0010
1000
0000
0000
,
0100
0000
0000
0010
0000
0001
0000
0100
0000
1000
0010
0000
0001
0100
0000
0000
,
0010
0000
0100
0001
0000
0010
0000
1000
0000
0100
0001
0000
1000
0100
0000
0000
,
0010
0000
0000
0001
0000
0100
0000
1000
0000
0100
0001
0000
0010
1000
0000
0000
,
0010
0000
0001
0100
0000
1000
0000
0100
0000
0001
0010
0000
1000
0100
0000
0000
,
0010
0000
0000
0001
0000
0010
0000
1000
0000
0010
0001
0000
0100
1000
0000
0000
,
1000
0000
0010
0001
0000
0010
0000
1000
0000
0100
0010
0000
0001
0100
0000
0000
,
0010
0000
0000
1001
0000
0000
0000
1100
0000
0000
0010
0000
0001
1000
0000
0000
,
0010
0000
0000
0100
0000
0000
0000
0001
0000
0000
1000
0000
0100
0010
0000
0000
,
0001
0000
0000
1100
0000
0000
0000
0011
0000
0000
0010
0000
0100
1000
0000
0000
,
0001
0000
0000
0100
0000
0000
0000
0010
0000
0000
1000
0100
0010
0000
0000
0000
,
0011
0000
0000
0100
1000
0000
0000
0000
1010
0000
0000
0001
0100
0000
0000
0000
,
0011
0000
0000
1000
0001
0000
0000
0000
0110
0000
0000
0010
1000
0000
0000
0000
,
0101
0000
0000
0010
1000
0000
0000
0000
1100
0000
0000
0001
0010
0000
0000
0000
,
0110
0000
0000
1000
0100
0000
0000
0000
0011
0000
0000
0100
1000
0000
0000
0000
,
1010
0000
0000
0100
0001
0000
0000
0000
1001
0000
0000
0010
0100
0000
0000
0000
,
0220
0000
0000
0000
0000
0000
0000
1000
0000
0000
0331
0000
0000
0000
0000
0000
,
2200
0000
0000
0000
0000
0000
0000
0001
0000
0000
3310
0000
0000
0000
0000
0000
,
0022
0000
0000
0000
0000
0000
0000
1000
0000
0000
0133
0000
0000
0000
0000
0000
,
2002
0000
0000
0000
0000
0000
0000
0100
0000
0000
3013
0000
0000
0000
0000
0000
,
2020
0000
0000
0000
0000
0000
0000
0001
0000
0000
3130
0000
0000
0000
0000
0000
,
0202
0000
0000
0000
0000
0000
0000
1000
0000
0000
0313
0000
0000
0000
0000
0000
,
0100
0010
0000
0001
0000
1000
0010
0100
0001
0010
0000
0110
0000
1000
0010
0100
,
0001
0010
0000
1100
0000
0001
0100
0010
1000
0100
0000
0011
0000
0100
1000
0010
,
0100
0001
0000
0110
0000
0001
0100
1000
0100
0001
0000
0011
0000
1000
0010
0001
,
0010
1000
0000
0110
0000
0001
1000
0100
0010
0001
0000
0101
0000
0010
1000
0100
,
0010
0001
0000
1100
0000
0010
1000
0100
1000
0010
0000
0110
0000
0001
1000
0100
,
2002
0000
0000
0000
,
3003
0000
0000
0000
;

//---------------dance-double - M. Emirzian----------------
#NOTES:
     dance-double:
     M. Emirzian:
     Easy:
     3:
     0.174,0.243,0.009,0.019,0.000,126.000,1.000,2.000,0.000,0.000:









00000000
00000000
00000000
00000000
,
00000000
00000000
00000000
00000000
,
00000000
00000000
00000000
00000000
,
00000000
00000000
00000000
00000000
,
00100000
00100000
00000000
00000000
,
10000000
10000000
00000000
00000000
,
00010000
00010000
00000000
00000000
,
01000000
00100000
01000000
00100000
,
00001000
00001000
00000000
00000000
,
00010000
00010000
00000000
00000000
,
00000100
00000100
00000000
00000000
,
00001000
00000010
00001000
00000010
,
00000100
00000100
00000000
00000000
,
00000001
00000001
00000000
00000000
,
00001000
00001000
00000000
00000000
,
00000100
00001000
00000100
00001000
,
00000010
00000010
00000000
00000000
,
00010000
00010000
00000000
00000000
,
00001000
00001000
00000000
00000000
,
00010000
01000000
00010000
01000000
,
00100000
00000000
10000000
01000000
,
10000000
00000000
00100000
00010000
,
00100000
00000000
00001000
01000000
,
00010000
00000000
00100000
00010000
,
00001000
00000000
00000010
00000100
,
00001000
00000000
00000001
00000010
,
00001000
00000000
00000001
00000100
,
00001000
00000000
00000010
00001000
,
00000100
00000000
00010000
00001000
,
00000100
00000000
00001000
01000000
,
00100000
00000000
01000000
00010000
,
10000000
00000000
01000000
00100000
,
01000000
00000000
10000000
00010000
,
01000000
00000000
00001000
00010000
,
00000100
00000000
00001000
00000010
,
00000100
00000000
00000001
00001000
,
00000100
00000000
00000000
00000000
,
00000000
00000000
00000000
00000000
,
10000000
00000000
00000000
00000000
,
00000000
00000000
00000000
00000000
,
00000001
00000000
00000000
00000000
,
00000000
00000000
00000000
00000000
,
00100000
00000000
00000000
00000000
,
10000000
00000000
00000000
00000000
,
00001000
00000000
00000000
00000000
,
00010000
00000000
00001000
00000000
,
00000100
00000000
00000001
00000000
,
00001000
00000000
00000010
00000000
,
00000100
00000001
00000010
00000000
,
00000100
00001000
00000001
00000000
,
00000100
00010000
00001000
00000000
,
00010000
00001000
00000010
00000000
,
00001000
00010000
01000000
00000000
,
10000000
00100000
01000000
00000000
,
00010000
01000000
00001000
00000000
,
00010000
00000100
00001000
00000010
,
00002002
00000000
00000000
00000000
,
00003003
00000000
00000000
00000000
;

//---------------dance-double - M. Emirzian----------------
#NOTES:
     dance-double:
     M. Emirzian:
     Medium:
     6:
     0.408,0.431,0.161,0.019,0.076,283.000,17.000,2.000,0.000,0.000:









00000000
00000000
00000000
00000000
,
00000000
00000000
00000000
00000000
,
00000000
00000000
00000000
00000000
,
00000000
00000000
00000000
00000000
,
00100000
00000000
10000000
00000000
01000000
00100000
00010000
10000000
,
01000000
00000000
10010000
00000000
00100000
00001000
00010000
00001000
,
01000000
00000000
00001000
00000000
00010000
00000100
00001000
00000100
,
00000010
00000000
00000011
00000000
00000010
00000001
00001000
00000100
,
00000010
00000000
00000100
00000000
00001000
00000010
00010000
00001000
,
01000000
00000000
00011000
00000000
01000000
00010000
01000000
00100000
,
10000000
00000000
01000000
00000000
00100000
00010000
01000000
00100000
,
10000000
00000000
10010000
00000000
01000000
00100000
00010000
01000000
,
00001000
00000000
00010000
00000000
00000100
00010000
00001000
00010000
,
00000010
00000000
00001010
00000000
00000100
00000010
00000001
00001000
,
00000010
00000000
00000100
00000000
00000001
00001000
00000100
00000010
,
00000001
00000000
00001100
00000000
00000010
00010000
00001000
01000000
,
00010000
00000000
01000000
00000000
00001000
00010000
00001000
00100000
,
00010000
00000000
01010000
00000000
00100000
10000000
01000000
00100000
,
00010000
00000000
10000000
00000000
00100000
01000000
00010000
10000000
,
01000000
00000000
00110000
00000000
00001000
00010000
00000100
00001000
,
00000100
00000000
00000010
00000001
00000010
00000100
00001000
00000000
,
00001001
00000000
00000100
00001000
00000100
00010000
00001000
00000000
,
01000000
00000000
00001000
00010000
00000010
00001000
00000100
00000000
,
00011000
00000000
01000000
00010000
10000000
01000000
00100000
00000000
,
00010000
00000000
01000000
00100000
10000000
00010000
01000000
00000000
,
10100000
00000000
01000000
00100000
00010000
01000000
00001000
00000000
,
00010000
00000000
00001000
01000000
00001000
00010000
00000100
00000000
,
00001010
00000000
00000100
00001000
00000010
00001000
00000100
00000000
,
00000010
00000000
00000001
00001000
00000010
00000100
00000001
00000000
,
00000110
00000000
00001000
00000100
00000010
00000001
00000100
00000000
,
00000010
00000000
00001000
00000100
00010000
00001000
01000000
00000000
,
00110000
00000000
01000000
10000000
00100000
01000000
00010000
00000000
,
00100000
00000000
01000000
10000000
00010000
01000000
00100000
00000000
,
01010000
00000000
00001000
00010000
00000100
00001000
00000100
00000000
,
00010000
00000000
00001000
00010000
00000010
00001000
00000010
00000000
,
00000101
00000000
00000010
00000100
00001000
00000100
00001000
00000001
,
00000100
00000000
00000000
00000000
00000000
00000000
00000000
00000100
00000000
00000000
00000000
00000000
00000000
00000000
00000000
00000000
,
00010000
00000000
00000000
00000000
00000000
00000000
00000000
00010000
00000000
00000000
00000000
00000000
00000000
00000000
00000000
00000000
,
01000000
00000000
00000000
00000000
00000000
00000000
00000000
01000000
00000000
00000000
00000000
00000000
00000000
00000000
00000000
00000000
,
10000000
00000000
00000000
00000000
00000000
00000000
00000000
10000000
00000000
00000000
00000000
00000000
00000000
00000000
00000000
00000000
,
00010000
00000000
00000000
00000000
00000000
00000000
00000000
00010000
00000000
00000000
00000000
00000000
00000000
00000000
00000000
00000000
,
00001000
00000000
00000000
00000000
00000000
00000000
00000000
00001000
00000000
00000000
00000000
00000000
00000000
00000000
00000000
00000000
,
00010000
00001000
00010000
00000100
,
00010000
00000000
00000000
00010000
00000000
00000000
00000000
00000000
00001000
00000000
00000000
00001000
00000000
00000000
00000000
00000000
,
00000010
00000000
00000000
00000010
00000000
00000000
00000000
00000000
00000001
00000000
00000000
00000001
00000000
00000000
00000000
00000000
,
00000100
00000000
00000000
00000100
00000000
00000000
00000000
00000000
00000001
00000000
00000000
00000001
00000000
00000000
00000000
00000000
,
00001000
00000000
00000000
00001000
00000000
00000000
00000000
00000000
00000100
00000000
00000000
00000100
00000000
00000000
00000000
00000000
,
00010000
00000000
00000000
00010000
00000000
00000000
00000000
00000000
00001000
00000000
00000000
00001000
00000000
00000000
00000000
00000000
,
00010000
00001000
01000000
00000000
00010000
01000000
00010000
00000000
,
00100000
01000000
00100000
00000000
10000000
01000000
10000000
01000000
,
00100000
00010000
00100000
00000000
01000000
10000000
00010000
00000000
,
01000000
00001000
00010000
00000000
00001000
00010000
00000100
00001000
,
00000100
00001000
00000001
00000000
00000010
00000100
00001000
00000000
,
00000001
00000100
00000010
00000000
00001000
00000100
00000010
00000100
,
00000010
00000001
00000100
00000000
00000010
00001000
00000010
00000000
,
00001000
00000100
00001000
00000100
00010000
00001000
01000000
00010000
,
20020000
00000000
00000000
00000000
,
30030000
00000000
00000000
00000000
;

//---------------dance-double - M. Emirzian----------------
#NOTES:
     dance-double:
     M. Emirzian:
     Hard:
     9:
     0.620,0.593,0.407,0.019,0.970,414.000,43.000,2.000,0.000,0.000:









00000000
00000000
00000000
00000000
,
00000000
00000000
00000000
00000000
,
00000000
00000000
00000000
00000000
,
00000000
00000000
00000000
00000000
,
10000000
00010000
00000000
01000000
00000000
00000000
00100000
00000000
01000000
00001000
00000000
00010000
00001000
00000000
00000010
00000000
,
00000001
00001000
00000000
00000010
00000000
00000000
00000100
00000000
00000001
00001000
00000000
00000100
00000010
00000000
00000001
00000000
,
00000100
00001000
00000000
00010000
00000000
00000000
01000000
00000000
10000000
00100000
00000000
01000000
00100000
00000000
00010000
00000000
,
00100000
10000000
00000000
01000000
00000000
00000000
00010000
00000000
00001000
01000000
00000000
00100000
01000000
00000000
00001000
00000000
,
00010000
00000100
00000000
00000010
00000000
00000000
00000001
00000000
00000010
00001000
00000000
00000010
00000100
00000000
00001000
00000000
,
00000001
00000100
00000000
00001000
00000000
00000000
00010000
00000000
00100000
10000000
00000000
00010000
01000000
00000000
10000000
00000000
,
00010000
00100000
00000000
10000000
00000000
00000000
01000000
00000000
00010000
00001000
00000000
00000010
00000100
00000000
00001000
00000000
,
00000001
00000100
00000000
00000010
00000000
00000000
00001000
00000000
00000100
00010000
00000000
00001000
01000000
00000000
00100000
00000000
,
10000000
01000000
00000000
00100000
00000000
00000000
00010000
00000000
01000000
10000000
00000000
00010000
00100000
00000000
10000000
00000000
,
01000000
00010000
00000000
00001000
00000000
00000000
00000100
00000000
00000001
00001000
00000000
00000010
00000100
00000000
00001000
00000000
,
00000100
00000001
00000000
00000010
00000000
00000000
00001000
00000000
00010000
00100000
00000000
10000000
00010000
00000000
00100000
00000000
,
01000000
00010000
00000000
01000000
00000000
00000000
10000000
00000000
00100000
00010000
00000000
00001000
00010000
00000000
00001000
00000000
,
00000010
00000001
00000000
00000100
00000000
00000000
00001000
00000000
00000001
00000010
00000000
00001000
00000100
00000000
00000010
00000000
,
00000001
00001000
00000000
00000010
00000000
00000000
00000100
00000000
00001000
00010000
00000000
00000100
00010000
00000000
00100000
00000000
,
01000000
00010000
00000000
10000000
00000000
00000000
01000000
00000000
00100000
00010000
00000000
01000000
00100000
00000000
00010000
00000000
,
00001000
00010000
00000000
01000000
00000000
00000000
10000000
00000000
01100000
00000000
00000000
00010000
10000000
00000000
00100000
00000000
,
01000000
00000000
00000000
00010000
00000000
00010000
00000000
10000000
00000000
01000000
00100000
00000000
00100000
00010000
00000000
00000000
,
01000000
00000000
00100000
01000000
00000000
01000000
00000000
00001000
00000000
00010000
00000100
00000000
00000100
00001000
00000000
00000000
,
00000010
00000000
00000000
00000100
00000000
00000100
00000000
00000001
00000000
00000010
00000100
00000000
00000100
00001000
00000000
00000000
,
00000001
00000000
00000100
00001000
00000000
00010000
00000000
00100000
00000000
10000000
01000000
00000000
00100000
00010000
00000000
00000000
,
01000000
00000000
00000000
00001000
00000000
00001000
00000000
00010000
00000000
00100000
00010000
00000000
00001000
00010000
00000000
00000000
,
01000000
00000000
10000000
00100000
00000000
00100000
00000000
01000000
00000000
00010000
00100000
00000000
00100000
01000000
00000000
00000000
,
10000000
00000000
00000000
00100000
00000000
00010000
00000000
00001000
00000000
00000010
00000100
00000000
00001000
00000001
00000000
00000000
,
00000100
00000000
00000010
00001000
00000000
00001000
00000000
00000100
00000000
00010000
00001000
00000000
00001000
00000010
00000000
00000000
,
00001001
00000000
00000000
00000010
00000000
00000010
00000000
00000100
00000000
00000001
00001000
00000000
00001000
00000100
00000000
00000000
,
00000001
00000000
00000100
00001000
00000000
00001000
00000000
00000001
00000000
00000100
00001000
00000000
00001000
00010000
00000000
00000000
,
00100000
00000000
00000000
10000000
00000000
10000000
00000000
00010000
00000000
01000000
00100000
00000000
00100000
10000000
00000000
00000000
,
00010000
00000000
00100000
01000000
00000000
10000000
00000000
01000000
00000000
00100000
00010000
00000000
00010000
01000000
00000000
00000000
,
00001000
00000000
00000000
00010000
00000000
01000000
00000000
00010000
00000000
00001000
00000010
00000000
00000100
00001000
00000000
00000000
,
00001000
00000000
00000010
00000100
00000000
00000100
00000000
00000001
00000000
00001000
00000100
00000000
00000100
00000010
00000000
00000000
,
00000001
00000000
00000000
00000100
00000000
00001000
00000000
00010000
00000000
00100000
01000000
00000000
01000000
00010000
00000000
00000000
,
00100000
00000000
00001000
00010000
00000000
00010000
00000000
01000000
00000000
10000000
00010000
00000000
00010000
01000000
00000000
00000000
,
10010000
00000000
00000000
00000000
00000000
10000000
00000000
10000000
00000000
00000000
01000000
00000000
00100000
00010000
00000000
00000000
,
10000000
00000000
00000000
00000000
00000000
00100000
00000000
00100000
00000000
00000000
01000000
00000000
00001000
00010000
00000000
00000000
,
00000100
00000000
00000000
00000000
00000000
00010000
00000000
00010000
00000000
00000000
00001000
00000000
01000000
00001000
00000000
00000000
,
00010000
00000000
00000000
00000000
00000000
00000010
00000000
00000010
00000000
00000000
00001000
00000100
00000010
00000000
00000000
00000000
,
00000001
00000000
00000000
00000100
00000010
00000000
00000000
00000000
00001010
00000000
00000000
00000001
00000100
00000000
00000000
00000000
,
00000110
00000000
00000000
00010000
00001000
00000000
00000000
00000000
01001000
00000000
00000000
00010000
00100000
00000000
00000000
00000000
,
11000000
00000000
00000000
00010000
01000000
00000000
00000000
00000000
10100000
00000000
00000000
01000000
00100000
00000000
00000000
00000000
,
00101000
00000000
00000000
00001000
00010000
00000000
00000000
00000000
00010100
00000000
00000000
00001000
00000010
00000000
00000000
00000000
,
00000101
00000000
00000000
00000010
00000100
00000000
00000000
00000000
00001100
00000000
00000000
00000010
00010000
00000000
00000000
00000000
,
00001100
00000000
00000000
00000000
00001001
00000000
00000000
00001100
00000000
00000000
00011000
00000000
00000000
01001000
00000000
00000000
,
00011000
00000000
00000000
00000000
00110000
00000000
00000000
10100000
00000000
00000000
10010000
00000000
00000000
00110000
00000000
00000000
,
01010000
00000000
00000000
00000000
00101000
00000000
00000000
00110000
00000000
00000000
00011000
00000000
00000000
00001100
00000000
00000000
,
00001010
00000000
00000000
00000000
00000101
00000000
00000000
00001100
00000000
00000000
00001010
00000000
00000000
00010010
00000000
00000000
,
00000110
00000000
00000000
00000000
00001001
00000000
00000000
00001100
00000000
00000000
00011000
00000000
00000000
01100000
00000000
00000000
,
01010000
00000000
00000000
00000000
10100000
00000000
00000000
11000000
00000000
00000000
10010000
00000000
00000000
10000000
00010000
00000000
,
00100000
01000000
00000000
10000000
00000000
00100000
01000000
00000000
01000000
00010000
00000000
10000000
00000000
01000000
00010000
00000000
,
00001000
00010000
00000000
00000010
00000000
00010000
00001000
00000000
00000010
00000100
00000000
00001000
00000000
00000001
00000100
00000000
,
00000010
00001000
00000000
00000100
00000000
00000010
00000001
00000000
00000100
00000010
00000000
00010000
00000000
00001000
00010000
00000000
,
00100000
01000000
00000000
00010000
00000000
10000000
01000000
00000000
00100000
00010000
00000000
01000000
00000000
00001000
00010000
00000000
,
00000100
00001000
00000000
00000010
00000000
00000100
00000001
00000000
00000010
00000000
00000000
00000100
00001000
00000000
00000110
00000000
,
00002002
00000000
00000000
00000000
,
00003003
00000000
00000000
00000000
;

//---------------dance-double - M. Emirzian----------------
#NOTES:
     dance-double:
     M. Emirzian:
     Challenge:
     10:
     0.646,0.701,0.445,0.170,1.000,413.000,47.000,18.000,0.000,12.000:









00000000
00000000
00000000
00000000
,
00000000
00000000
00000000
00000000
,
00000000
00000000
00000000
00000000
,
00000000
00000000
00000000
00000000
,
01000000
00100000
00000000
10010000
00000000
00000000
01000000
00100000
00010000
01000000
00000000
00001000
00010000
00000000
00001000
00000000
,
00000100
00000001
00000000
00000010
00000000
00000000
00001100
00000000
00000000
00000101
00000000
00000100
00001000
00000000
00010000
00000000
,
00100000
10000000
00000000
00010000
00000000
00000000
00100000
01000000
10000000
00100000
00000000
01000000
00010000
00000000
00100000
00000000
,
00001000
00010000
00000000
00010100
00000000
00000000
00001010
00000000
00000000
00001001
00000000
00001000
00000100
00000000
00000010
00000000
,
00000001
00000100
00000000
00000010
00000000
00000000
00001000
00000100
00010000
00001000
00000000
01000000
00010000
00000000
00100000
00000000
,
01000000
10000000
00000000
10100000
00000000
00000000
01010000
00000000
00000000
10010000
00000000
00100000
00010000
00000000
00001000
00000000
,
00000010
00000001
00000000
00001001
00000000
00000000
00000010
00000100
00000001
00000010
00000000
00000100
00001000
00000000
00000001
00000000
,
00000100
00001000
00000000
00010000
00000000
00000000
01000100
00000000
00000000
00010000
00000000
00001000
00010000
00000000
00100000
00000000
,
10000000
00010000
00000000
01010000
00000000
00000000
10000000
01000000
00010000
01000000
00000000
00100000
10000000
00000000
01000000
00000000
,
00100000
00010000
00000000
01010000
00000000
00000000
00101000
00000000
00000000
00011000
00000000
00001000
00000010
00000000
00000001
00000000
,
00001000
00000001
00000000
00000110
00000000
00000000
00000010
00001000
00000100
00010000
00000000
00001000
00000100
00000000
00001000
00000000
,
00010000
00100000
00000000
10010000
00000000
00000000
11000000
00000000
00000000
00110000
00000000
00010000
01000000
00000000
00100000
00000000
,
10000000
00010000
00000000
01001000
00000000
00000000
00001000
00010000
00000010
00001000
00000000
00000100
00000010
00000000
00000001
00000000
,
00000100
00000010
00000000
00001001
00000000
00000000
00001100
00000000
00000000
00000101
00000000
00000100
00001000
00000000
00010000
00000000
,
00100000
10000000
00000000
10010000
00000000
00000000
10000000
01000000
00100000
00010000
00000000
01000000
00001000
00000000
00010000
00000000
,
00000100
00001000
00000000
00001010
00000000
00000000
00001001
00000000
00001100
00000000
00000000
00001010
00010000
00000000
00100010
00000000
,
00011000
00000000
00000000
01000000
00000000
00000100
00000000
01000000
00000000
00000100
00010000
00000000
00001000
00100000
00000000
00000000
,
00010000
00000000
10000000
00001000
00000000
10000000
00000000
00001000
00000000
01000000
00010000
00000000
01000000
00001000
00000000
00000000
,
00010000
00000000
00000000
00000010
00000000
00100000
00000000
00000010
00000000
00100000
00001000
00000000
00010000
00000100
00000000
00000000
,
00001000
00000000
00000010
00010000
00000000
00000001
00000000
00010000
00000000
00000001
00001000
00000000
00000100
00000010
00000000
00000000
,
00000002
00000000
00000000
00000100
00000000
00010000
00000003
00001000
00000000
00010000
00001000
00000000
00010000
00000100
00000000
00000000
,
00001000
00000000
00000020
00000100
00000000
00010000
00000030
00001000
00000000
01000000
00010000
00000000
00100000
01000000
00000000
00000000
,
20000000
00000000
00000000
00100000
00000000
00001000
00000000
30010000
00000000
10000000
01000000
00000000
00100000
00010000
00000000
00000000
,
01000000
00000000
00002000
00010000
00000000
01000000
00000000
00010000
00003000
00001000
00010000
00000000
00000100
00000010
00000000
00000000
,
00000100
00000000
00000000
00010000
00000000
00000001
00000000
00010000
00000000
00000001
00001000
00000000
00000100
00010000
00000000
00000000
,
00001000
00000000
01000000
00000100
00000000
01000000
00000000
00000100
00000000
00010000
00001000
00000000
01000000
00100000
00000000
00000000
,
01000000
00000000
00000000
00001000
00000000
10000000
00000000
00001000
00000000
10000000
00010000
00000000
00100000
01000000
00000000
00000000
,
10000000
00000000
00100000
01000000
00000000
00001000
00000000
00010000
00000000
00000100
00001000
00000000
00000010
00000100
00000000
00000000
,
00000001
00000000
00000000
00000100
00000000
00001000
00000000
00010000
00000000
00100000
10000000
00000000
01000000
00100000
00000000
00000000
,
00010000
00000000
10000000
01000000
00000000
00010000
00000000
00001000
00000000
00000010
00000001
00000000
00001000
00000010
00000000
00000000
,
00001000
00000000
00000000
00000001
00000000
00000100
00000000
00001000
00000000
00010000
01000000
00000000
10000000
00010000
00000000
00000000
,
01000000
00000000
00100000
10000000
00000000
01000000
00000000
00100000
00000000
00001000
00010000
00000000
00000100
00001000
00000000
00000000
,
00000010
00000000
00000000
00001000
00000000
00000000
00000000
00000100
00000000
00000000
00000010
00000000
00000001
00001000
00000000
00000000
,
00000010
00000000
00000000
00000100
00000000
00000000
00000000
00001000
00000000
00000000
00010000
00000000
00000100
00010000
00000000
00000000
,
00001000
00000000
00000000
01000000
00000000
00000000
00000000
00010000
00000000
00000000
00100000
00000000
01000000
10000000
00000000
00000000
,
00100000
00000000
00000000
01000000
00000000
00000000
00000000
00001000
00000000
00000000
00010000
00000000
00000100
00001000
00000000
00000000
,
00001001
00000000
00000000
00001000
00000100
00000000
00000000
00000000
00001010
00000000
00000000
00010000
00001000
00000000
00000000
00000000
,
00010100
00000000
00000000
00010000
00001000
00000000
00000000
00000000
01000100
00000000
00000000
00010000
00001000
00000000
00000000
00000000
,
00100010
00000000
00000000
00010000
00001000
00000000
00000000
00000000
10001000
00000000
00000000
01000000
00100000
00000000
00000000
00000000
,
01001000
00000000
00000000
00010000
00001000
00000000
00000000
00000000
00010001
00000000
00000000
00001000
00000100
00000000
00000000
00000000
,
00000011
00000000
00000000
00010000
00000010
00000000
00000000
00000000
00001001
00000000
00000000
00010000
00001000
00000000
00000000
00000000
,
00022000
00000000
00000000
00000000
00000000
00000000
00000000
00100000
00000000
00000000
00033010
00000000
00000000
00000000
00000000
00000000
,
02002000
00000000
00000000
00000000
00000000
00000000
00000000
00100000
00000000
00000000
03013000
00000000
00000000
00000000
00000000
00000000
,
00002200
00000000
00000000
00000000
00000000
00000000
00000000
00010000
00000000
00000000
00003310
00000000
00000000
00000000
00000000
00000000
,
20020000
00000000
00000000
00000000
00000000
00000000
00000000
00001000
00000000
00000000
30030100
00000000
00000000
00000000
00000000
00000000
,
20002000
00000000
00000000
00000000
00000000
00000000
00000000
00100000
00000000
00000000
30013000
00000000
00000000
00000000
00000000
00000000
,
02200000
00000000
00000000
00000000
00000000
00000000
00000000
00000010
00000000
00000000
03300100
00000000
00000000
00000000
00000000
00000000
,
00010000
00001000
00000000
00000010
00000000
00000001
00001000
00000010
00000100
00000001
00000000
00001000
00000000
00000100
00010000
00001000
,
00010000
00000100
00000000
00010000
00000000
00001000
01000000
00010000
01000000
00100000
00000000
10000000
00000000
01000000
00100000
00010000
,
01000000
00001000
00000000
00010000
00000000
00000100
00001000
00000010
00000100
00000001
00000000
00001000
00000000
00000100
00000010
00000001
,
00000100
00000010
00000000
00000100
00000000
00000001
00001000
00000100
00010000
00001000
00000000
00000100
00000000
00001000
00010000
00000100
,
00010000
00001000
00000000
01000000
00000000
00010000
10000000
01000000
00100000
00010000
00000000
01000000
00000000
00001000
00010000
00000100
,
00002200
00000000
00000000
00000000
,
00003300
00000000
00000000
00000000
;

//---------------dance-single - K. Ward----------------
#NOTES:
     dance-single:
     K. Ward:
     Beginner:
     1:
     0.084,0.106,0.009,0.000,0.000,61.000,1.000,0.000,0.000,0.000:







0000
0000
0000
0000
,
0000
0000
0000
0000
,
0000
0000
0000
0000
,
0000
0000
0000
0000
,
1000
0000
0000
0000
,
1000
0000
0000
0000
,
0100
0000
0000
0000
,
0100
0000
1000
0000
,
0001
0000
0000
0000
,
0010
0000
0000
0000
,
0001
0000
0000
0000
,
0010
0000
0100
0000
,
1000
0000
0000
0000
,
0001
0000
0000
0000
,
1000
0000
0000
0000
,
0001
0000
0000
0000
,
0010
0000
0100
0000
,
0010
0000
0000
0000
,
0010
0000
0100
0000
,
0010
0000
0000
0000
,
0001
0000
0000
0000
,
0100
0000
0000
0000
,
1000
0000
0000
0000
,
0100
0000
0010
0000
,
1000
0000
0000
0000
,
0010
0000
0000
0000
,
0100
0000
0000
0000
,
0001
0000
0010
0000
,
0001
0000
0000
0000
,
1000
0000
0000
0000
,
0001
0000
0000
0000
,
0010
0000
0010
0000
,
0100
0000
0000
0000
,
0100
0000
0000
0000
,
1000
0000
0000
0000
,
1000
0000
0001
0000
,
0010
0000
0000
0000
,
0000
0000
0000
0000
,
0010
0000
0000
0000
,
0000
0000
0000
0000
,
0001
0000
0000
0000
,
0000
0000
0000
0000
,
0001
0000
0000
0000
,
0010
0000
0001
0000
,
1000
0000
0000
0000
,
1000
0000
0000
0000
,
1000
0000
0000
0000
,
0100
0000
0010
0000
,
0100
0000
0000
0000
,
0100
0000
0000
0000
,
0100
0000
0000
0000
,
1000
0000
0001
0000
,
1000
0000
0000
0000
,
0001
0000
0000
0000
,
0010
0000
0000
0000
,
0100
0000
0000
0000
,
1001
0000
0000
0000
;
