#TITLE:Mr. Torture;
#SUBTITLE:The Dark Ride (2000);
#ARTIST:Helloween;
#TITLETRANSLIT:;
#SUBTITLETRANSLIT:;
#ARTISTTRANSLIT:;
#CREDIT:SulferDragon;
#BANNER:Mr Torture-banner.png;
#BACKGROUND:Mr Torture-bg.png;
#LYRICSPATH:;
#CDTITLE:!SulferDragon.png;
#MUSIC:02-Mr Torture.mp3;
#OFFSET:-0.176;
#SAMPLESTART:45.639;
#SAMPLELENGTH:15.100;
#SELECTABLE:YES;
#BPMS:0.000=190.000;
#STOPS:;
#BGCHANGES:;
// cache tags:
#FIRSTBEAT:0.000;
#LASTBEAT:653.563;
#SONGFILENAME:Songs/Astronomic Metal Collection/Mr. Torture (SulferDragon)/02-Mr Torture.sm;
#HASMUSIC:1;
#HASBANNER:1;
#MUSICLENGTH:208.021;
// end cache tags

//---------------dance-single - ----------------
#NOTES:
     dance-single:
     :
     Hard:
     11:
     1.000,1.000,1.000,0.019,0.810,1562.000,386.000,4.000,0.000,0.000:
1000
0100
1000
0010
1000
0001
0100
0010
,
0010
1000
0010
0100
0010
0010
0010
1000
,
0010
0010
0001
0010
0100
1000
1000
0010
,
0010
1000
0010
0100
0010
0010
0010
1000
,
0010
0000
0101
1010
0101
0000
0010
0000
0101
0000
1000
0000
1001
0000
0010
0000
,
0010
0000
1100
0000
0010
0000
0101
0000
0010
0000
0110
1001
0110
0000
1100
0000
,
0010
0010
0001
0010
0101
1000
1001
0010
,
1100
0011
1100
0000
0010
0000
0101
0000
0010
0000
0010
0000
0010
0000
1001
0000
,
0010
0000
1001
0110
1001
0000
0010
0000
1100
0000
1000
0000
1000
0000
1000
0000
,
1000
1000
1000
1000
0100
0100
0100
0100
,
0100
0100
0100
0100
0010
0010
0010
0010
,
0010
0010
0010
0010
0001
0001
0001
0001
,
0001
0001
0001
0001
1100
1000
1000
1000
,
1000
1000
1000
1000
0100
0100
0100
0100
,
0100
0100
0100
0100
0010
0010
0010
0010
,
0010
0000
0000
0010
0000
0000
0010
0000
0000
0010
0000
0000
0001
0000
1100
0000
0010
0000
1000
0000
0100
0000
0011
0000
,
1100
0000
0011
0000
0100
0000
0010
0000
0001
0000
0100
0000
1001
0000
0110
0001
1100
0000
0010
0000
0100
0000
0011
0000
,
1100
0000
0011
0000
1100
0000
0010
0000
0001
0000
1010
0000
0101
0000
1010
0100
1001
0000
0010
0100
1000
0010
0100
0000
,
0001
0010
0100
1000
0000
0000
0011
1100
0011
1100
0000
0001
,
0100
0000
0000
0000
0010
0000
1000
0000
0000
0000
0100
0010
1001
0000
0000
0000
0000
0000
0000
0000
0000
1000
0000
0000
,
0101
0000
0010
0000
0101
0000
0000
0000
1001
0010
1000
0010
1100
0000
0010
0000
,
0100
0001
0100
0001
0110
0000
1000
0000
0000
0000
1000
0000
0011
0000
1000
0010
,
0100
0001
0100
0001
1100
0000
0000
0000
0010
0001
0010
0001
1010
0000
0001
0000
,
1000
0100
1000
0100
1001
0000
0010
0000
0000
0000
0010
0000
1100
0000
0010
1000
,
0100
0010
0100
0010
0101
0000
0000
0000
1000
0100
1000
0100
1001
0000
0100
0000
,
0010
0001
0010
0001
1010
0000
0100
0000
0000
0000
0100
0000
1001
0000
0100
0010
,
1000
0001
1000
0001
1010
0000
0000
0000
0100
0010
0100
0010
1100
0000
0001
0000
,
0100
0010
0100
0010
1100
0000
0001
0000
0000
0000
0001
0000
1010
0000
0001
0100
,
0010
1000
0010
1000
0011
0000
0000
0000
0001
1000
0001
1000
0101
0000
0010
0000
,
1000
0010
1000
0010
1001
0000
0100
0000
0000
0000
0100
0000
0011
0000
0100
0001
,
1000
0100
1000
0100
1010
0000
0000
0000
0001
0010
0001
0010
1001
0000
0010
0000
,
1000
0001
1000
0001
1100
0000
0010
0000
0000
0000
0010
0000
0101
0000
0010
0100
,
0001
1000
0001
1000
0011
0000
0000
0000
0010
1000
0010
1000
0110
0000
0001
0000
,
0100
0001
0100
0001
1100
0000
0010
0000
0000
0000
0010
0000
0101
0000
0010
0001
,
1000
0010
1000
0010
1100
0000
0001
0000
0010
0001
0010
0001
0110
0000
1000
0000
,
0010
0001
0010
0001
0110
0000
1000
0000
0000
0000
1000
0000
0101
0000
1000
0001
,
0100
0010
0100
0001
1100
0000
1100
0000
0011
0000
0100
0000
0010
0000
1001
0000
,
0100
0001
1010
0001
1100
0010
0100
0010
,
0101
0010
1001
0100
1010
0001
1000
0110
,
1000
0010
0101
1000
0011
0100
0001
0100
,
1010
0001
0110
1000
0011
0100
0010
1001
,
0100
0001
1100
0001
1010
0100
1000
0100
,
0011
1000
0101
0010
1100
0001
1000
0001
,
1010
0100
0010
1000
0001
0110
1000
0001
,
0110
1000
0101
0101
1010
0100
0001
0110
,
0001
1000
0011
1000
0101
0010
0100
0010
,
1001
0100
1010
0001
1100
0010
1000
0110
,
0001
1000
0101
1000
0011
0100
0001
0100
,
1001
0010
0101
1000
0110
0001
0100
0011
,
1000
0010
1100
0001
1010
0100
1000
0100
,
0011
0100
1000
0010
0101
0010
1000
0001
1100
0000
0010
0000
0100
0000
1001
0000
,
0010
0100
0011
1000
0001
0010
0001
0100
,
1010
0001
1100
0010
1001
0100
0010
1001
,
0100
0010
1001
0100
0010
1001
0100
0010
,
1001
0000
0010
0000
1100
0000
1100
0000
0011
0100
0001
1000
0011
0000
0100
0000
,
0010
1000
0001
0100
0011
0000
0100
0000
0000
0000
0100
0000
1010
0000
0100
0001
,
0100
0010
1000
0001
1100
0000
0000
0000
0010
1000
0001
0100
0011
0000
0100
0000
,
0010
1000
0001
0100
0011
0000
1000
0000
0000
0000
1000
0000
0101
0000
1000
0010
,
1000
0100
0010
0001
0110
0000
0000
0000
0001
0010
0100
1000
0101
0000
1000
0000
,
0001
0010
0100
1000
0101
0000
0010
0000
0000
0000
0010
0000
1100
0000
0010
0100
,
0010
1000
0001
0100
0011
0000
0000
0000
1000
0001
0010
0100
1010
0000
0001
0000
,
1000
0001
0010
0100
1010
0000
0001
0000
0000
0000
0001
0000
0110
0000
0001
1000
,
0001
0100
0010
1000
0011
0000
0000
0000
1100
0001
1000
0001
1010
0000
0100
0000
,
0010
1000
0010
1000
0011
0000
1000
0000
0000
0000
1000
0000
0101
0000
1000
0010
,
0100
0001
0100
0001
1100
0000
0000
0000
0010
0100
0010
0100
0011
0000
1000
0000
,
0001
0100
0001
0100
1001
0000
0010
0000
0000
0000
0010
0000
0101
0000
0010
0100
,
0001
0010
0001
0010
1100
0000
0000
0000
0010
1000
0010
1000
0110
0000
0001
0000
,
0010
0001
0010
0001
1010
0000
0100
0000
0000
0000
0100
0000
1001
0000
0100
0010
,
1000
0100
1000
0100
0011
0000
0000
0000
0100
0001
0100
0001
1100
0000
0010
0000
,
1000
0001
1000
0001
1010
0000
0100
0000
0000
0000
0100
0000
0011
0000
0100
0010
,
1000
0100
1000
0100
1001
0000
0000
0000
0010
0100
0010
0100
0011
0000
1000
0000
,
0001
0100
0001
0100
1001
0000
0010
0000
0000
0000
0010
0000
1100
0000
0010
0100
,
0001
0010
0001
0010
1001
0000
0000
0000
0010
1000
0010
1000
0110
0000
0001
0000
,
0100
0010
0100
0010
1100
0000
0001
0000
0000
0000
0001
0000
1010
0000
0001
0100
,
0010
1000
0010
1000
0101
0000
0000
0000
0010
0100
0010
0100
0011
0000
1000
0000
,
0001
0010
0001
0010
1001
0000
0100
0000
0000
0000
0100
0000
1010
0000
0100
0010
,
1000
0100
1000
0100
0011
0000
0000
0000
0100
0010
0100
0010
1100
0000
0001
0000
,
0100
0001
0100
0001
0110
0000
1000
0000
0000
0000
1000
0000
0101
0000
1000
0001
,
0100
0010
1000
0001
1100
0001
1100
0000
0011
0000
1000
0000
0001
0000
0110
0000
,
0001
0100
0011
1000
0101
0010
0100
0010
,
1001
0100
1010
0001
1100
0010
0100
0011
,
1000
0001
0110
1000
0101
0010
0001
0010
,
1100
0001
0110
1000
0101
0010
1000
0101
,
1000
0001
1010
0001
1100
0010
1000
0010
,
0101
1000
0011
0100
1010
0001
1000
0001
,
1100
0010
1000
0100
1000
0011
0100
0010
,
1001
0100
0011
0011
1100
0010
1000
0110
,
0001
1000
0101
1000
0011
0100
0010
0100
,
1001
0010
1100
0001
1010
0100
1000
0101
,
0010
0100
1001
0100
0011
1000
0010
1000
,
0110
0001
1010
0001
1100
0010
1000
0101
,
1000
0100
0011
0100
1001
0010
1000
0010
,
0101
1000
0001
0100
0011
1000
0010
0100
1001
0000
0100
0000
0001
0000
1010
0000
,
0100
0001
1100
0010
1000
0001
1000
0100
,
0011
1000
0101
0010
1001
0100
0010
1001
,
0100
0010
1001
0100
0010
1001
0100
0010
,
1001
0000
0100
0000
0001
0100
0001
0000
1000
0010
1000
0001
0110
0000
1000
0010
,
0100
0000
0000
0000
0000
0000
0001
0000
0000
1000
0000
0000
0010
0000
0000
0000
0000
0000
0100
0000
0000
0001
0000
0000
1000
0000
0000
0000
0000
0000
0010
0000
0000
0100
0000
0000
0001
0000
0000
0000
0000
0000
1000
0000
0100
0000
0010
0000
,
1001
0000
0100
0000
0001
0000
1100
0000
0000
0000
0001
1000
0010
0000
1000
0100
,
0010
0000
0100
0010
0001
0000
0100
0001
1010
0101
0010
0000
1000
0000
0101
0000
,
0010
0000
1000
0000
0101
0000
0010
0000
1001
0000
0100
0010
1000
0000
0001
0010
,
0100
0000
0000
0000
0000
0000
0010
0000
0000
0100
0000
0000
1000
0000
0000
0000
0000
0000
0010
0000
0000
0100
0000
0000
0001
0000
0000
0000
0000
0000
1000
0000
0000
0001
0000
0000
0100
0000
0000
0000
0000
0000
0010
0000
1000
0000
0001
0000
,
0110
0000
1000
0000
0001
0000
0110
0000
0000
0000
1000
0001
0100
0000
0010
0100
,
0001
0000
0100
0010
1000
0000
0001
1000
0110
1001
0100
0000
0010
0000
1001
0110
,
1000
0000
0001
0000
0110
1001
0100
0000
1001
0000
0010
1000
0011
0000
0100
0010
,
1100
0000
0001
0100
0011
0000
1000
0001
1100
0000
0010
1000
0110
0000
0001
0000
,
1100
0000
0010
0000
0110
0000
1000
0000
0101
0000
1000
0100
1001
0000
0010
0100
,
0011
0000
0100
0010
1100
0000
0001
0010
1001
0000
0100
0000
1010
0000
0001
0000
,
1100
0000
0001
0000
1010
0000
0100
0000
1001
0000
0010
0100
0011
0000
1000
0001
,
1100
0000
0010
1000
0011
0000
0100
0010
1100
0000
0001
1000
0101
0000
0010
0000
,
1100
0000
0001
0000
1001
0000
0010
0000
0101
0000
1000
0001
1010
0000
0001
0100
,
0011
0000
0100
0010
1100
0000
0001
1000
0101
0010
0100
0010
0001
1000
0010
1000
,
0001
0000
0100
0000
0010
0000
1000
0000
0110
0000
0000
0000
0000
0000
0000
0000
0010
1000
0001
0000
0010
0000
0100
0000
1000
0000
0010
0000
1000
0000
0010
0000
,
0100
0001
1000
0000
0100
0000
0010
0000
0001
0000
0010
0000
0001
0000
1000
0000
0010
1000
0001
0000
0100
0000
0010
0000
0100
0000
0010
0000
1000
0000
0001
0000
,
0100
0001
1000
0000
0010
0000
0100
0000
0010
0000
1000
0000
0100
0000
0010
0000
0001
1000
0010
0000
0100
0000
0001
0000
1000
0000
0001
0000
0100
0000
0010
0000
,
1000
0001
0100
0000
0010
0000
1000
0000
0001
0000
0100
0000
0001
0000
1000
0000
0020
0000
0000
0000
0000
0000
0000
0000
0000
0000
0000
0000
0000
0000
0000
0000
,
0000
0000
0030
0000
0000
0000
0000
0000
0000
0000
0000
0000
0000
0000
0000
0000
0000
0000
0000
0000
0000
0000
0000
0000
1000
0100
0010
0000
0100
0000
0010
0000
,
0001
0000
0200
0000
0000
0000
0300
0000
0001
1000
0010
0000
1000
0100
1000
0000
,
0010
1000
0010
0000
1000
0001
1000
0000
0100
1000
0100
0000
1000
0010
1000
0000
,
0010
0100
0010
0000
0100
0001
1100
0011
1100
0000
1100
0000
1100
0000
1100
0000
,
1100
0000
1100
0000
1100
0000
1100
0000
0011
1000
0001
1000
0101
0000
0010
0000
,
0100
1000
0100
1000
0011
0000
0100
0000
0000
0000
0100
0000
1001
0000
0100
0010
,
1000
0001
1000
0001
1010
0000
0000
0000
0100
0001
0100
0001
0110
0000
1000
0000
,
0010
0100
0010
0100
1001
0000
0010
0000
0000
0000
0010
0000
1100
0000
0010
0100
,
0001
1000
0001
1000
0011
0000
0000
0000
1000
0100
1000
0100
1010
0000
0001
0000
,
1000
0010
1000
0010
0101
0000
1000
0000
0000
0000
1000
0000
0011
0000
1000
0010
,
0100
0001
0100
0001
1100
0000
0000
0000
0010
0001
0010
0001
1010
0000
0100
0000
,
0010
0001
0010
0001
1010
0000
0100
0000
0000
0000
0100
0000
1001
0000
0100
0001
,
1000
0100
1000
0100
0011
0000
0000
0000
1000
0001
1000
0001
1010
0000
0100
0000
,
0010
0100
0010
0100
1001
0000
0010
0000
0000
0000
0010
0000
1100
0000
0010
0100
,
0001
1000
0001
1000
0101
0000
0000
0000
0010
1000
0010
1000
0110
0000
0001
0000
,
0100
0001
0100
0001
1010
0000
0100
0000
0000
0000
0100
0000
0011
0000
0100
0010
,
1000
0100
1000
0100
1001
0000
0000
0000
0010
1000
0010
1000
0011
0000
1000
0000
,
0010
0100
0010
0100
1010
0000
0001
0000
0000
0000
0001
0000
0110
0000
0001
1000
,
0010
0100
0010
0100
0011
0000
0000
0000
1000
0001
1000
0001
1100
0000
0010
0000
,
1000
0001
1000
0001
1100
0000
0010
0000
0000
0000
0010
0000
0101
0000
0010
1000
,
0001
0100
0010
0000
1100
0000
1100
0000
0011
0000
1000
0000
0010
0000
1001
0000
,
0100
0001
0110
1000
0101
0010
0100
0010
,
1001
0100
1010
0001
1100
0010
0100
0011
,
1000
0001
0110
1000
0101
1000
0001
1000
,
0110
0001
1010
0001
1100
0010
0100
1001
,
0010
1000
0011
1000
0101
0010
0001
0010
,
1100
0001
1010
0100
0011
1000
0001
1000
,
0101
0010
0100
0001
1000
0110
0001
1000
,
0110
0001
1010
1010
0101
1000
0001
1100
,
0010
0001
1010
0100
1001
0010
1000
0010
,
0101
1000
0110
0001
1010
0100
0001
1100
,
0010
0100
1001
0100
1010
0001
1000
0001
,
1010
0100
0011
1000
0101
1000
0010
1100
,
0001
0100
0011
1000
0101
0010
0001
0010
,
1100
0010
0001
0100
1010
0100
0001
1000
0011
0000
0100
0000
0001
0000
1010
0000
,
0100
0001
1100
0010
1000
0001
1000
0010
,
0101
1000
0110
1000
0011
0100
1000
0011
,
0100
1000
0011
0100
1000
0011
0100
1000
,
0011
0100
1001
0010
1100
0001
0010
1100
,
0001
0010
1100
0001
0010
1100
0001
0010
,
1100
0010
1001
0000
0101
1000
1000
0010
,
0010
1000
0010
0100
0010
0010
0010
1000
,
0010
0010
0001
0010
0100
1000
1000
0010
,
0010
1000
0010
0100
0010
0010
0010
1000
,
0010
0000
0100
0000
0010
1000
0010
1000
0010
0000
0001
0000
0100
0000
0010
0000
,
0010
1000
0010
0100
0010
0010
0010
1000
,
0010
0100
0001
0010
0100
1000
1000
0010
,
0010
0000
0000
0000
0000
0000
0000
0000
2000
3000
0000
0000
0000
0000
0000
0000
0010
0000
0000
0000
0000
0000
0000
0000
0200
0300
0000
0000
0000
0000
0000
0000
0000
0000
0000
0000
0000
0000
0000
0000
0000
0000
0000
0000
0000
0000
0000
0000
0000
0000
0000
0000
0000
0000
0000
0000
0000
0000
0000
0000
0000
0000
0000
0000
;

//---------------dance-single - ----------------
#NOTES:
     dance-single:
     :
     Edit:
     15:
     1.000,1.000,1.000,0.024,1.000,1900.000,490.000,5.000,0.000,25.000:
1000
0100
1000
0010
1000
0001
0100
0010
,
0010
1000
0010
0100
0010
0010
0010
1000
,
0010
0010
0001
0010
0100
1000
1000
0010
,
0010
1000
0010
0100
0010
0010
0010
1000
,
0010
0000
0101
0101
0101
0000
1000
0000
0011
0000
1000
0000
1001
0000
0010
0000
,
0010
0000
1100
0000
0010
0000
0101
0000
0010
0000
0110
0110
0110
0000
1100
0000
,
0010
0010
0001
0010
0101
1000
1001
0010
,
1100
1100
1100
0000
0010
0000
0101
0000
0010
0000
0010
0000
0010
0000
1001
0000
,
0100
0000
1001
1001
1001
0000
0010
0000
1101
0000
1100
0000
1100
0000
1100
0000
,
1100
1100
1100
1100
1010
1010
1010
1010
,
1010
1010
1010
1010
0101
0101
0101
0101
,
0101
0101
0101
0101
0011
0011
0011
0011
,
0011
0011
0011
0011
1101
1100
1100
1100
,
1100
1100
1100
1100
1010
1010
1010
1010
,
1010
1010
1010
1010
0101
0101
0101
0101
,
0101
0000
0000
0101
0000
0000
0101
0000
0000
0101
0000
0000
0010
0000
1100
0000
0001
0000
1000
0000
0100
0000
0011
0000
,
1100
0000
0011
0000
0100
0000
0010
0000
0001
0000
0100
0000
1011
0000
0110
0001
1100
0000
0010
0000
0100
0000
0011
0000
,
1100
0000
0011
0000
1100
0000
0010
0000
0001
0000
1010
0000
0101
0000
1010
0100
1001
0000
0010
0100
1000
0010
0100
0000
,
0001
0010
0100
1000
0000
0000
1011
1100
0011
1100
0000
0001
,
0100
0000
0000
0000
0010
0000
1000
0000
0000
0000
0100
0010
1111
0000
0000
0000
0000
0000
0000
0000
0000
1000
0000
0000
,
0101
0000
0010
0000
0101
0000
0000
0000
1001
1000
1000
1000
1100
0000
0010
0000
,
0100
0100
0100
0100
0110
0000
1000
0000
0000
0000
1000
0000
0011
0000
1000
0010
,
0100
0100
0100
0100
1100
0000
0000
0000
0010
0010
0010
0010
1010
0000
0001
0000
,
1000
1000
1000
1000
1001
0000
0010
0000
0000
0000
0010
0000
1100
0000
0010
1000
,
0100
0100
0100
0100
0101
0000
0000
0000
1000
1000
1000
1000
1001
0000
0100
0000
,
0010
0010
0010
0010
1010
0000
0100
0000
0000
0000
0100
0000
1001
0000
0100
0010
,
1000
1000
1000
1000
1010
0000
0000
0000
0100
0100
0100
0100
1100
0000
0001
0000
,
0100
0100
0100
0100
1100
0000
0001
0000
0000
0000
0001
0000
1010
0000
0001
0100
,
0010
0010
0010
0010
0011
0000
0000
0000
0001
0001
0001
0001
0101
0000
0010
0000
,
1000
1000
1000
1000
1001
0000
0100
0000
0000
0000
0100
0000
0011
0000
0100
0001
,
1000
1000
1000
1000
1010
0000
0000
0000
0001
0001
0001
0001
1001
0000
0010
0000
,
1000
1000
1000
1000
1100
0000
0010
0000
0000
0000
0010
0000
0101
0000
0010
0100
,
0001
0001
0001
0001
0011
0000
0000
0000
0010
0010
0010
0010
0110
0000
0001
0000
,
0100
0100
0100
0100
1100
0000
0010
0000
0000
0000
0010
0000
0101
0000
0010
0001
,
1000
1000
1000
1000
1100
0000
0001
0000
0010
0010
0010
0010
0110
0000
1000
0000
,
0010
0010
0010
0010
0110
0000
1000
0000
0000
0000
1000
0000
0101
0000
1000
0001
,
1100
0011
1100
0011
1100
0000
1100
0000
0011
1000
0100
0001
0010
0100
1001
0010
,
0100
1000
0001
0100
1010
0100
0001
0010
1100
0001
0010
1000
0100
0001
0010
1000
,
0101
1000
0010
0100
1001
0010
0100
0001
1010
0100
0001
0100
1000
0001
0110
0001
,
1000
0100
0010
1000
0101
0010
1000
0100
0011
1000
0100
0010
0001
1000
0100
0001
,
1010
0100
0001
1000
0110
0001
1000
0100
0011
1000
0100
0001
0010
0100
1001
0010
,
0100
0010
0001
0010
1100
0010
0001
0100
1010
0001
0100
0001
1000
0010
0100
1000
,
0011
0100
1000
0010
0101
1000
0010
0001
1100
0010
0001
0010
1000
0100
0001
0100
,
1010
0001
0100
1000
0010
0100
1000
0010
0001
1000
0110
0001
1000
0100
0001
1000
,
0110
0001
1000
0010
0101
0010
0101
0010
1001
0010
0100
1000
0001
1000
0110
1000
,
0001
0010
1000
0100
0011
0100
1000
0010
0101
1000
0010
0001
0100
1000
0010
0100
,
1001
0010
0100
0001
1010
0100
0001
0010
1100
0001
0010
0100
1000
0001
0110
1000
,
0001
0100
1000
0010
0101
0010
1000
0100
0011
1000
0100
1000
0001
0010
0100
0010
,
1001
0100
0010
1000
0101
0010
1000
0001
0110
1000
0001
0010
0100
1000
0011
0100
,
1000
0001
0010
0001
1100
0010
0001
0100
1010
0001
0100
0010
1000
0001
0100
1000
,
0011
0101
1100
0011
0101
1010
1100
1001
1100
0000
0010
0000
0100
0000
1001
0000
,
0010
0100
0011
1000
0001
0010
0001
0100
,
1010
0001
1100
0010
1001
0100
0010
1001
,
0100
0010
1001
0100
0010
1001
0100
0010
,
1001
0000
0010
0000
1100
0000
1100
0000
0011
0001
0001
0001
0011
0000
0100
0000
,
0010
0010
0010
0010
0011
0000
0100
0000
0000
0000
0100
0000
1010
0000
0100
0001
,
1000
1000
1000
1000
1100
0000
0000
0000
0001
0001
0001
0001
0011
0000
0100
0000
,
0010
0010
0010
0010
0011
0000
1000
0000
0000
0000
1000
0000
0101
0000
1000
0010
,
0100
0100
0100
0100
0110
0000
0000
0000
0001
0001
0001
0001
0101
0000
1000
0000
,
0100
0100
0100
0100
0101
0000
0010
0000
0000
0000
0010
0000
1100
0000
0001
1000
,
0010
0010
0010
0010
0011
0000
0000
0000
1000
1000
1000
1000
1010
0000
0001
0000
,
1000
1000
1000
1000
1010
0000
0001
0000
0000
0000
0001
0000
0110
0000
0001
1000
,
0010
0010
0010
0010
0011
0000
0000
0000
1100
1000
1000
1000
1010
0000
0100
0000
,
0010
0010
0010
0010
0011
0000
1000
0000
0000
0000
1000
0000
0101
0000
1000
0010
,
0100
0100
0100
0100
1100
0000
0000
0000
0010
0010
0010
0010
0011
0000
1000
0000
,
0001
0001
0001
0001
1001
0000
0010
0000
0000
0000
0010
0000
0101
0000
0010
0100
,
1000
1000
1000
1000
1100
0000
0000
0000
0010
0010
0010
0010
0110
0000
0001
0000
,
0010
0010
0010
0010
1010
0000
0100
0000
0000
0000
0100
0000
1001
0000
0100
0010
,
0001
0001
0001
0001
0011
0000
0000
0000
0100
0100
0100
0100
1100
0000
0010
0000
,
1000
1000
1000
1000
1010
0000
0100
0000
0000
0000
0100
0000
0011
0000
0100
0010
,
1000
1000
1000
1000
1001
0000
0000
0000
0010
0010
0010
0010
0011
0000
1000
0000
,
0001
0001
0001
0001
1001
0000
0010
0000
0000
0000
0010
0000
1100
0000
0010
0100
,
0001
0001
0001
0001
1001
0000
0000
0000
0010
0010
0010
0010
0110
0000
0001
0000
,
0100
0100
0100
0100
1100
0000
0001
0000
0000
0000
0001
0000
1010
0000
0001
0010
,
0100
0100
0100
0100
0101
0000
0000
0000
0010
0010
0010
0010
0011
0000
1000
0000
,
0001
0001
0001
0001
1001
0000
0100
0000
0000
0000
0100
0000
1010
0000
0100
0010
,
0001
0001
0001
0001
0011
0000
0000
0000
0100
0100
0100
0100
1100
0000
0001
0000
,
0100
0100
0100
0100
0110
0000
1000
0000
0000
0000
1000
0000
0101
0000
1000
0000
,
0011
1100
0011
1100
0011
1000
0011
0000
1100
0001
0010
0001
1000
0001
0110
1000
,
0001
0010
0100
1000
0011
0100
1000
0010
0101
1000
0010
1000
0100
0001
0010
0100
,
1001
0010
0100
0001
1010
0100
0001
0010
1100
0001
0010
1000
0100
1000
0011
0100
,
1000
0010
0001
1000
0110
0001
1000
0010
0101
1000
0010
0100
0001
0100
0010
0001
,
1100
0010
0001
1000
0110
0001
1000
0010
0101
1000
0010
0100
1000
0010
0101
0010
,
1000
0100
0001
0100
1010
0100
0001
0010
1100
0001
0010
0100
1000
0001
0010
1000
,
0101
0010
1000
0100
0011
1000
0100
0001
1010
0100
0001
0010
1000
0010
0001
0010
,
1100
0001
0010
0100
1000
0010
0100
0010
1000
0100
0011
1000
0100
0001
0010
0100
,
1001
0010
0100
1000
0011
0100
0011
0100
1001
0100
0010
0001
1000
0001
0110
1000
,
0001
0010
1000
0010
0101
0010
1000
0100
0011
1000
0100
0001
0010
1000
0100
0010
,
1001
0100
0010
0001
1100
0010
0001
0100
1010
0001
0100
0010
1000
0010
0101
1000
,
0010
0001
0100
0010
1001
0010
0100
1000
0011
0100
1000
0001
0010
0100
1000
0001
,
0110
1000
0001
0100
1010
0100
0001
0010
1100
0001
0010
0100
1000
0010
0101
0010
,
1000
0001
0100
1000
0011
1000
0100
0010
1001
0100
0010
0001
1000
0100
0010
1000
,
0101
1100
0011
1100
0011
1001
0011
0110
1001
0000
0100
0000
0001
0000
1010
0000
,
0100
0001
1100
0010
1000
0001
1000
0100
,
0011
1000
0101
0010
1001
0100
0010
1001
,
0100
0010
1001
0100
0010
1001
0100
0010
,
1001
0000
0100
0000
0001
0100
0001
0000
1000
0010
1000
0001
0110
0000
1000
0010
,
0100
0000
0000
0000
0000
0000
0001
0000
0000
1000
0000
0000
0010
0000
0000
0000
0000
0000
0100
0000
0000
0001
0000
0000
1000
0000
0000
0000
0000
0000
0010
0000
0000
0100
0000
0000
0001
0000
0000
0000
0000
0000
1000
0000
0100
0000
0010
0000
,
1101
0000
0100
0000
0011
0000
1101
0000
0000
0000
0001
1000
0010
0000
1000
0100
,
0010
0000
0100
0010
0001
0000
0100
0001
1010
1010
0001
0000
1000
0000
0101
0000
,
0010
0000
1000
0000
0101
0000
0010
0000
1011
0000
0100
0010
1000
0000
0001
0010
,
0100
0000
0000
0000
0000
0000
0010
0000
0000
0100
0000
0000
1000
0000
0000
0000
0000
0000
0010
0000
0000
0100
0000
0000
0001
0000
0000
0000
0000
0000
1000
0000
0000
0001
0000
0000
0100
0000
0000
0000
0000
0000
0010
0000
1000
0000
0001
0000
,
1110
0000
1000
0000
0001
0000
1110
0000
0000
0000
1000
0001
0100
0000
0010
0100
,
0001
0000
0100
0010
1000
0000
0001
1000
0110
0110
1000
0000
0010
0000
1001
1001
,
0100
0000
0001
0000
0110
0110
1000
0000
1101
0000
0010
0010
0011
0000
0100
0100
,
1100
0000
0001
0001
0011
0000
1000
1000
1100
0000
0010
0010
0110
0000
1000
1000
,
1100
0000
0010
0010
0110
0000
0001
0001
0111
0000
1000
1000
1001
0000
0010
0010
,
0011
0000
0100
0100
1100
0000
0001
0001
1001
0000
0010
0010
1010
0000
0100
0100
,
1100
0000
0010
0010
1010
0000
0001
0001
1101
0000
0010
0010
0011
0000
1000
1000
,
1100
0000
0010
0010
0011
0000
0100
0100
1100
0000
0001
0001
0101
0000
1000
1000
,
1100
0000
0001
0001
1001
0000
0100
0100
1101
0000
0010
0010
1010
0000
0001
0001
,
0011
0000
1000
1000
1100
0000
0001
0001
0101
0010
0100
0010
0001
1000
0010
1000
,
0001
0000
0100
0000
0010
0000
1000
0000
0111
0000
0000
0000
0000
0000
0000
0000
0110
1000
0001
0000
0010
0000
0100
0000
1001
0000
0010
0000
1000
0000
0010
0000
,
1100
0001
1000
0000
0100
0000
0010
0000
0101
0000
0010
0000
0001
0000
1000
0000
0110
1000
0001
0000
0100
0000
0010
0000
0101
0000
0010
0000
1000
0000
0001
0000
,
0110
0001
1000
0000
0010
0000
0100
0000
0011
0000
1000
0000
0100
0000
0010
0000
0101
1000
0010
0000
0100
0000
0001
0000
1100
0000
0001
0000
0100
0000
0010
0000
,
1100
0001
0100
0000
0010
0000
1000
0000
0011
0000
0100
0000
0001
0000
1000
0000
0120
0000
0000
0000
0000
0000
0000
0000
0100
0000
0000
0000
0000
0000
0000
0000
,
0100
0000
0030
0000
0000
0000
0000
0000
0100
0000
0000
0000
0000
0000
0000
0000
0100
0000
0000
0000
0000
0000
0000
0000
1001
0100
0010
0000
0100
0000
0010
0000
,
1001
0000
0200
0000
0010
0000
0300
0000
0011
1000
0010
0000
1001
0100
1000
0000
,
0110
1000
0010
0000
1100
0001
1000
0000
0101
1000
0100
0000
1001
0010
1000
0000
,
0011
0100
0010
0000
0110
0001
1100
1100
1101
0000
1101
0000
1101
0000
1101
0000
,
1101
0000
1101
0000
1101
0000
1101
0000
0021
0001
0001
0001
0101
0000
1000
0000
,
0001
0001
0001
0001
1001
0000
0100
0000
0000
0000
0130
0000
0011
0000
0100
0010
,
1000
1000
1000
1000
1010
0000
0000
0000
0100
0100
0100
0100
0110
0000
1000
0000
,
0001
0001
0001
0001
1001
0000
0010
0000
0000
0000
0010
0000
1100
0000
0010
0100
,
0001
0001
0001
0001
0011
0000
0000
0000
1000
1000
1000
1000
1010
0000
0001
0000
,
0100
0100
0100
0100
0101
0000
1000
0000
0000
0000
1000
0000
0011
0000
1000
0010
,
0100
0100
0100
0100
1100
0000
0000
0000
0010
0010
0010
0010
1010
0000
0100
0000
,
0010
0010
0010
0010
1010
0000
0100
0000
0000
0000
0100
0000
1001
0000
0100
0001
,
0010
0010
0010
0010
0011
0000
0000
0000
1000
1000
1000
1000
1010
0000
0100
0000
,
0001
0001
0001
0001
1001
0000
0010
0000
0000
0000
0010
0000
1100
0000
0010
0100
,
0001
0001
0001
0001
0101
0000
0000
0000
0100
0100
0100
0100
0110
0000
0001
0000
,
0010
0010
0010
0010
1010
0000
0100
0000
0000
0000
0100
0000
0011
0000
0100
0010
,
1000
1000
1000
1000
1001
0000
0000
0000
0010
0010
0010
0010
0011
0000
0100
0000
,
1000
1000
1000
1000
1010
0000
0001
0000
0000
0000
0001
0000
0110
0000
0001
1000
,
0010
0010
0010
0010
0011
0000
0000
0000
1000
1000
1000
1000
1100
0000
0010
0000
,
0100
0100
0100
0100
1100
0000
0010
0000
0000
0000
0010
0000
0101
0000
0010
1000
,
0001
0100
0010
0000
1100
0000
1100
0000
0011
0100
1000
0001
0010
0100
1001
0010
,
0100
1000
0001
1000
0110
0001
1000
0010
0101
1000
0010
1000
0100
0001
0010
0100
,
1001
0010
0100
0001
1010
0100
0001
0010
1100
0001
0010
1000
0100
1000
0011
0100
,
1000
0010
0001
1000
0110
0001
1000
0010
0101
0010
1000
0100
0001
0010
1000
0001
,
0110
1000
0001
0100
1010
0100
0001
0010
1100
0001
0010
1000
0100
0010
1001
0100
,
0010
0100
1000
0100
0011
0100
1000
0010
0101
1000
0010
1000
0001
1000
0010
0001
,
1100
0010
0001
0100
1010
0001
0100
1000
0011
0100
1000
0010
0001
0100
1000
0010
,
0101
1000
0010
0001
0100
0010
0001
0010
1000
0001
0110
1000
0001
0100
1000
0001
,
0110
1000
0001
0100
1010
0100
1010
0100
1001
0010
1000
0100
0001
0010
1100
0001
,
0010
0100
0001
0100
1010
0001
0100
0010
1001
0100
0010
0001
1000
0100
0010
1000
,
0101
0010
1000
0001
0110
1000
0001
0100
1010
0001
0100
0010
0001
0010
1100
0001
,
0010
1000
0100
0010
1001
0010
0100
0001
1010
0100
0001
0010
1000
0010
0001
0100
,
1010
0001
0100
1000
0011
0100
1000
0010
0101
0010
1000
0001
0010
0001
1100
0010
,
0001
1000
0100
1000
0011
0100
1000
0010
0101
1000
0010
0100
0001
1000
0010
0001
,
1100
1010
0011
0101
1010
0110
0101
1100
0011
0000
0100
0000
0001
0000
1010
0000
,
0100
0001
1100
0010
1000
0001
1000
0010
,
0101
1000
0110
1000
0011
0100
1000
0011
,
0100
1000
0011
0100
1000
0011
0100
1000
,
0011
0100
1001
0010
1100
0001
0010
1100
,
0001
0010
1100
0001
0010
1100
0001
0010
,
1100
0010
1001
0000
0101
1000
1000
0010
,
0010
1000
0010
0100
0010
0010
0010
1000
,
0010
0010
0001
0010
0100
1000
1000
0010
,
0010
1000
0010
0100
0010
0010
0010
1000
,
0010
0000
0100
0000
0010
1000
0010
1000
0010
0000
0001
0000
0100
0000
0010
0000
,
0010
1000
0010
0100
0010
0010
0010
1000
,
0010
0100
0001
0010
0100
1000
1000
0010
,
0010
0000
0000
0000
0000
0000
0000
0000
2000
3000
0000
0000
0000
0000
0000
0000
0010
0000
0000
0000
0000
0000
0000
0000
0200
0300
0000
0000
0000
0000
0000
0000
0000
0000
0000
0000
0000
0000
0000
0000
0000
0000
0000
0000
0000
0000
0000
0000
0000
0000
0000
0000
0000
0000
0000
0000
0000
0000
0000
0000
0000
0000
0000
0000
;
