#TITLE:Level Up!;
#SUBTITLE:;
#ARTIST:Fele & Juice;
#TITLETRANSLIT:;
#SUBTITLETRANSLIT:;
#ARTISTTRANSLIT:;
#CREDIT:;
#BANNER:../ban - Jawn2.png;
#BACKGROUND:../Jawn2 - bg.png;
#LYRICSPATH:;
#CDTITLE:CDa.png;
#MUSIC:Level Up!.ogg;
#OFFSET:0.009;
#SAMPLESTART:77.364;
#SAMPLELENGTH:18.210;
#SELECTABLE:YES;
#BPMS:0.000=211.000;
#STOPS:;
#BGCHANGES:;
// cache tags:
#FIRSTBEAT:0.000;
#LASTBEAT:495.750;
#SONGFILENAME:Songs/Jimmy Jawns 2/Level Up! - [Aoreo]/Level Up!.sm;
#HASMUSIC:1;
#HASBANNER:1;
#MUSICLENGTH:142.042;
// end cache tags

//---------------dance-single - J. Nero----------------
#NOTES:
     dance-single:
     J. Nero:
     Challenge:
     16:
     1.000,1.000,0.035,0.465,1.000,1455.000,5.000,66.000,0.000,0.000:
1001
0001
0010
0100
1000
0001
1000
0010
,
0100
0001
0010
0001
1000
0010
1000
0100
,
0100
0010
0001
1000
0100
1000
0001
1000
,
0010
1000
0100
0010
0100
1000
0001
0100
,
0100
0001
1000
0100
0010
0100
1000
0001
,
0100
0001
0010
0001
1000
0010
0100
0001
,
0001
1000
0100
1000
0001
0100
0001
1000
,
0010
1000
0100
0010
0001
1000
0001
0100
,
0100
0001
0010
0001
1000
0100
0010
0100
,
1000
0001
0100
0001
1000
0010
0100
0010
,
1000
0001
0010
0001
1000
0100
0010
0100
,
1000
0001
0100
0001
1000
0010
0100
0010
,
1000
0100
0010
0100
1000
0001
0010
0001
,
1000
0010
0100
0010
1000
0001
0010
0001
,
1000
0010
0100
0010
1000
0001
0010
0001
,
1000
0001
0100
0010
0100
0001
0010
0001
,
1002
1003
0100
0010
0000
0001
1000
0000
,
0010
1000
0010
0100
0001
1000
0001
0010
,
0100
1000
0100
1000
0010
0100
0010
0100
,
0001
0000
1000
0000
0001
0000
0010
0000
0100
1000
0010
0100
0001
1000
0100
0010
,
0001
0000
0000
0000
,
0000
0000
0000
0000
,
1000
0100
1000
0001
1000
0010
0100
0001
,
0100
0010
1000
0001
0100
0001
1000
0001
,
0010
0100
1000
0001
1000
0010
0100
0010
1000
0001
1000
0010
0100
0001
0100
0001
,
1000
0010
0100
0010
1000
0001
1000
0100
0010
0001
1000
0001
0100
0000
0000
0000
,
0001
0100
0001
1000
0001
0100
0010
1000
,
0100
1000
0001
1000
0010
0100
0001
1000
,
0001
0000
1000
0100
0010
0001
1000
0001
,
0100
0010
1000
0001
1000
0010
1000
0001
,
0010
0001
0100
0000
0100
0000
0100
0000
,
0001
0000
1000
0000
0100
0000
0000
0000
0001
0000
1000
0000
0100
0000
1000
0001
,
1000
0010
1000
0010
0100
0001
0100
0001
,
0010
0000
0000
0000
0100
0000
0000
0000
0010
0000
0000
0000
0100
0000
0000
0000
1000
0000
0000
0000
0001
0000
0000
0000
2002
3003
0000
0000
0000
0000
0000
0000
,
1000
0010
0100
0001
1000
0001
0010
0100
,
0100
1000
0001
0100
0001
0010
0001
1000
,
0010
1000
0100
0010
0100
1000
0010
0100
,
0010
1000
0000
0000
0100
0010
0000
0000
0001
0100
0000
0000
0001
0000
1000
0000
,
0001
1000
0100
1000
0010
0100
0001
1000
0001
1000
0100
1000
0010
0100
0001
0100
,
0001
1000
0100
1000
0010
0100
0001
0010
0001
1000
0100
1000
0010
0100
0001
1000
,
0001
1000
0100
0010
0001
1000
0010
0100
0001
1000
0001
0010
0100
1000
0001
1000
,
0010
0100
0001
1000
0001
0010
0100
1000
0001
1000
0010
0100
0001
1000
0001
0010
,
0100
1000
0001
1000
0010
0100
0001
1000
0001
0010
0100
1000
0001
1000
0010
0100
,
0010
1000
0001
1000
0100
0010
0001
1000
0001
0100
0010
1000
0001
1000
0010
0100
,
0001
0010
0001
0100
0010
0100
0001
0010
0001
0100
0010
0100
0001
0010
0001
1000
,
0010
1000
0100
0010
0001
1000
0001
0100
0010
1000
0001
1000
0100
0010
0001
1000
,
0100
1000
0010
0100
0010
1000
0100
1000
0010
0100
0010
1000
0100
1000
0001
0100
,
0001
1000
0010
0100
0010
1000
0001
0010
0100
1000
0010
0100
0001
0010
0100
1000
,
0001
1000
0100
1000
0010
0100
0001
0100
0001
1000
0100
1000
0010
0100
0001
1000
,
0001
0010
0100
1000
0010
1000
0001
0100
0001
0010
0100
0010
0001
1000
0010
0100
,
0001
1000
0100
1000
0010
0100
0001
0010
0100
0010
0001
1000
0001
0100
0010
1000
,
0001
1000
0100
0010
0001
1000
0100
1000
0001
1000
0010
0100
0001
1000
0010
1000
,
0001
0100
0010
1000
0100
1000
0001
0100
0010
1000
0010
1000
0100
0010
0001
1000
,
0001
0100
0010
1000
0100
1000
0001
0010
0100
0010
0001
1000
0001
0100
0010
1000
,
0001
1000
0100
1000
0010
0100
0010
1000
0001
0010
0100
0010
0001
1000
0100
1000
,
0001
0100
0010
1000
0001
0100
0001
1000
0001
0010
0100
1000
0001
0010
0001
1000
,
0100
0000
0000
0020
0000
0000
0000
0000
0000
0000
0000
0000
0000
0000
0000
0000
0000
0000
0000
0000
0000
0000
0030
0000
,
0001
0000
0001
0000
1000
0100
0200
0300
,
1000
0001
1000
0001
0010
0100
0010
0100
,
1000
0001
1000
0100
0010
0001
1000
0001
0100
0010
0100
0001
0010
0100
1000
0010
,
0100
0001
0100
0010
0100
0001
0100
0010
,
1000
0001
1000
0100
1000
0010
1000
0001
,
0010
0010
0100
1000
0001
1000
0010
1000
,
0001
0000
0001
0000
1000
0000
0010
0000
1000
0000
0100
0000
1000
0000
0001
0100
,
0001
0010
0100
1000
0001
1000
0010
0100
,
0001
1000
0001
0100
0010
0100
0001
1000
0100
0010
0001
1000
0001
0010
0100
1000
,
0010
0100
0001
0010
0001
1000
0100
0010
0001
0100
0001
0010
0100
1000
0010
0100
,
0001
0000
0000
0000
0000
0000
1001
0000
0000
0000
0000
0000
1000
0100
0010
0001
,
0100
0010
0100
0001
0010
0001
1000
0100
1000
0001
0100
0001
0010
0100
1000
0001
,
1000
0010
0100
0001
0010
0001
1000
0010
1000
0001
0100
0001
0010
0001
1000
0010
,
1000
0001
0010
0100
0010
0001
1000
0010
1000
0100
0010
0001
1000
0001
0100
0010
,
1000
0100
0010
0001
0100
0001
0010
0100
1000
0010
0100
0001
1000
0000
0000
0000
,
0002
0003
0000
0000
1000
0000
0000
0000
0010
0000
0000
0000
1000
0000
0000
0000
0100
0000
0000
0000
1000
0000
0000
0000
0001
0000
0000
0000
0100
0000
0000
0000
0010
0000
0000
0000
1000
0000
0000
0000
0010
0000
0000
0000
1000
0000
0000
0000
0100
0000
0000
0000
1000
0000
0000
0000
0001
0000
0000
0000
0010
0000
0000
0000
,
0200
0300
1000
0000
0020
0030
1000
0000
0001
0000
0010
0000
0100
0000
0010
0000
0001
0000
1000
0000
0001
0000
0100
0000
0010
0000
0100
0000
0001
0000
1000
0000
,
0200
0300
0020
0030
0002
0003
1000
0000
0001
0000
0100
0000
0010
0000
1000
0000
0100
0000
0010
0000
0100
0000
1000
0000
0001
0000
1000
0000
0010
0000
0100
0000
,
0002
0003
1000
0000
0100
0000
0010
0000
0001
0000
1000
0000
0200
0300
1000
0000
0001
0000
1000
0000
0020
0030
0100
0000
0001
0000
2000
3000
0010
0000
1000
0000
,
0100
0010
0001
1000
0001
0100
0010
1000
0001
0100
0010
1000
0100
1000
0001
0100
,
0001
1000
0010
1000
0100
0010
0100
1000
0001
0100
0010
1000
0100
1000
0001
0010
,
0001
1000
0010
1000
0100
0010
0001
0100
0001
1000
0010
1000
0100
0010
0001
0100
,
0001
1000
0010
0100
0001
1000
0010
1000
0001
1000
0100
0010
0001
1000
0100
1000
,
0001
0010
0100
1000
0010
1000
0001
0100
0001
1000
0100
1000
0010
0100
0010
1000
,
0001
0010
0100
1000
0010
0100
0001
0010
0001
1000
0100
1000
0010
0100
0001
1000
,
0100
0010
0100
1000
0010
0100
0001
0010
0001
1000
0100
1000
0010
0100
0001
1000
,
0001
0000
1000
0000
0000
0000
0004
0000
0103
0000
0001
1000
0001
0010
0100
1000
,
0001
0100
0001
1000
0010
1000
0100
0010
,
0100
1000
0010
0100
0010
0100
0001
1000
,
0100
0100
0010
0001
1000
0001
0010
0100
,
1000
0010
1000
0100
0010
0002
0103
0000
,
0010
1000
0001
0100
0010
0100
0001
0010
,
0100
0100
1000
0001
0010
0100
1000
0001
,
1000
1000
0100
1000
0010
0100
0001
0010
,
0100
0100
1000
0001
0100
0100
0001
0000
,
1000
0100
1000
0001
1000
0010
0100
0010
1000
0001
0010
0001
1000
0100
0010
0001
,
1000
0010
0100
0010
1000
0001
0010
0100
0010
0001
1000
0010
1000
0001
0100
0001
,
0010
0001
1000
0010
1000
0001
0100
0001
0010
0001
1000
0010
0100
0010
1000
0001
,
0100
0001
1000
0100
0010
0001
1000
0001
0100
0010
0100
0001
1000
0100
0010
0001
,
1000
0001
0100
0010
0100
0001
1000
0010
1000
0001
0010
0100
0010
0001
1000
0010
,
1000
0001
0010
0100
1000
0001
0100
0001
0010
0100
0010
0001
1000
0010
1000
0001
,
0010
0001
0100
0001
1000
0100
1000
0001
0010
0001
0100
0001
1000
0100
0010
0100
,
1000
0001
0100
0010
0100
0001
1000
0001
0010
0100
1000
0001
1000
0010
0100
0001
,
0010
0001
1000
0100
1000
0001
1000
0010
0100
0001
1000
0100
0010
0100
1000
0001
,
0100
0001
1000
0010
0100
0010
1000
0001
0010
0100
1000
0001
0100
0001
1000
0100
,
1000
0010
1000
0001
0100
0001
1000
0100
1000
0010
0100
0001
0100
0010
1000
0001
,
1000
0100
0010
0100
1000
0001
1000
0010
0100
0001
0100
0010
1000
0100
0010
0001
,
1000
0100
1000
0001
1000
0010
0100
0010
1000
0001
0010
0001
1000
0100
0010
0001
,
1000
0010
0100
0010
1000
0001
0010
0100
0010
0001
1000
0010
1000
0001
0100
0001
,
0010
0001
1000
0010
1000
0001
0100
0001
0010
0001
1000
0010
0100
0010
1000
0001
,
0100
0001
1000
0100
0010
0001
1000
0001
0100
0010
0100
0001
1000
0001
0010
0100
,
2000
3000
0000
0000
0000
0000
0000
0000
0000
0000
0000
0000
0000
0000
0000
0000
0000
0000
0000
0000
0000
0000
0000
0000
0200
0000
0000
0300
0000
0000
0000
0000
0000
0000
0000
0000
0000
0000
0000
0000
0000
0000
0000
0000
0000
0000
0000
0000
0020
0000
0000
0000
0000
0000
0030
0000
0000
0000
0000
0000
0000
0000
0000
0000
0000
0000
0000
0000
0000
0000
0000
0000
0002
0000
0000
0000
0000
0000
0003
0000
0000
0000
0000
0000
0000
0000
0000
0000
0000
0000
0000
0000
0000
0000
0000
0000
2000
0000
0000
0000
0000
0000
0000
0000
0000
3000
0000
0000
0000
0000
0000
0000
0000
0000
0000
0000
0000
0000
0000
0000
0020
0000
0000
0000
0000
0000
0000
0000
0000
0030
0000
0000
0000
0000
0000
0000
0000
0000
0000
0000
0000
0000
0000
0000
0200
0000
0000
0000
0000
0000
0000
0000
0000
0300
0000
0000
0000
0000
0000
0000
0000
0000
0000
0000
0000
0000
0000
0000
0002
0000
0000
0000
0000
0000
0000
0000
0000
0000
0000
0000
0003
0000
0000
0000
0000
0000
0000
0000
0000
0000
0000
0000
,
2000
0000
0000
3000
0000
0000
0002
0000
0000
0000
0003
0000
0020
0000
0000
0000
0030
0000
0200
0000
0000
0000
0300
0000
2000
0000
0000
0000
3000
0000
0002
0000
0000
0000
0000
0000
0203
0000
0000
0000
0000
0000
0302
0000
0000
0000
0000
0000
,
2003
3020
2030
3200
0320
0032
2003
3020
,
2030
3200
0320
0032
0203
0302
0023
0230
,
2300
0000
0000
0000
0000
0000
3002
0000
0000
0000
0000
0000
0203
0000
0000
0000
0300
0000
0002
0000
0000
0000
0003
0000
2000
0000
0000
0000
3000
0000
0200
0000
0000
0300
0000
0000
0020
0000
0000
0030
0000
0000
0200
0000
0000
0300
0000
0000
,
2000
0000
0000
0000
0000
0000
0000
0000
0000
3000
0000
0000
0000
0000
0000
0000
0000
0000
0000
0000
0000
0000
0000
0000
0002
0000
0000
0000
0000
0000
0000
0000
0000
0003
0000
0000
0000
0000
0000
0000
0000
0000
0000
0000
0000
0000
0000
0000
0200
0000
0000
0000
0000
0000
0300
0000
0000
0000
0000
0000
0000
0000
0000
0000
0000
0000
0000
0000
0000
0000
0000
0000
0020
0000
0000
0000
0000
0000
0030
0000
0000
0000
0000
0000
0000
0000
0000
0000
0000
0000
0000
0000
0000
0000
0000
0000
2000
0000
0000
0000
0000
0000
3000
0000
0000
0000
0000
0000
0000
0000
0000
0000
0000
0000
0000
0000
0000
0000
0000
0000
0020
0000
0000
0030
0000
0000
0000
0000
0000
0000
0000
0000
0000
0000
0000
0000
0000
0000
0000
0000
0000
0000
0000
0000
2000
0000
0000
3000
0000
0000
0000
0000
0000
0000
0000
0000
0200
0300
0000
0000
0000
0000
0000
0000
0000
0000
0000
0000
0020
0030
0000
0000
0000
0000
0000
0000
0000
0000
0000
0000
0002
0003
0000
0000
0000
0000
0000
0000
0000
0000
0000
0000
,
0100
0001
0100
0010
1000
0100
1000
0001
,
0100
0001
0010
0001
0100
0100
0001
0001
,
1000
0010
0100
0001
0010
0001
1000
0010
1000
0001
0100
0001
0010
0100
1000
0001
,
1000
0010
0100
0010
1000
0100
0010
0100
1000
0001
0100
0001
1000
0001
0010
0100
,
1000
0010
1000
0001
1000
0100
0010
0100
1000
0001
0100
0001
1000
0010
0100
0010
,
1000
0001
0010
0100
1000
0001
0100
0001
0010
0100
0010
0001
1000
0001
0100
0010
,
1000
0001
0010
0100
1000
0001
1000
0100
1000
0001
0100
0010
1000
0001
1000
0010
,
0100
0001
1000
0010
1000
0001
0010
0100
1000
0010
1000
0001
0010
0001
0100
0010
,
1000
0100
0010
0100
1000
0001
0100
0001
0010
0100
0010
0001
1000
0010
0100
0010
,
1000
0001
1000
0100
0010
0001
1000
0001
0100
0010
0100
0001
1000
0001
0010
0100
;
