#TITLE:Perfect Cherry Storm;
#SUBTITLE:Oh Henry!;
#ARTIST:Sun3;
#TITLETRANSLIT:;
#SUBTITLETRANSLIT:;
#ARTISTTRANSLIT:;
#CREDIT:;
#BANNER:../Fallback-Ban.png;
#BACKGROUND:../Fallback-BG.png;
#LYRICSPATH:;
#CDTITLE:../~CDTitle-@@.png;
#MUSIC:Sun3 - Perfect Cherry Storm.ogg;
#OFFSET:-3.816;
#SAMPLESTART:131.016;
#SAMPLELENGTH:19.200;
#SELECTABLE:YES;
#BPMS:0.000=200.000;
#STOPS:;
#BGCHANGES:;
// cache tags:
#FIRSTBEAT:0.000;
#LASTBEAT:1028.000;
#SONGFILENAME:Songs/Oh Henry! Mad Stamina/Perfect Cherry Storm (17-)/Perfect Cherry Storm.sm;
#HASMUSIC:1;
#HASBANNER:1;
#MUSICLENGTH:319.764;
// end cache tags

//---------------dance-single - @@----------------
#NOTES:
     dance-single:
     @@:
     Challenge:
     17:
     1.000,1.000,0.100,0.125,1.000,3348.000,32.000,40.000,2.000,0.000:
1000
0100
0010
0001
1000
0100
1000
0010
0100
0001
0100
0010
1000
0001
0010
0100
,
1000
0001
1000
0001
0100
0010
1000
0100
0010
0001
0010
0100
1000
0001
0100
0001
,
1000
0100
1000
0100
0010
0001
0100
0010
1000
0001
0100
0001
1000
0100
0010
0001
,
1000
0010
1000
0010
0100
0001
0010
0100
1000
0001
0010
0001
1000
0010
0100
0001
,
0010
0100
0010
0100
1000
0100
0010
0001
0100
0010
1000
0001
0010
0100
0010
0001
,
1000
0010
1000
0010
0100
0001
0010
0100
1000
0100
0010
0001
1000
0010
0100
0010
,
1000
0001
1000
0001
0010
0100
1000
0001
1000
0010
0100
0001
0100
0010
1000
0001
,
0010
0100
1000
0010
1000
0001
0010
0001
0100
0010
1000
0010
0100
0001
0010
0001
,
0100
0010
1000
0001
0100
0001
0010
0100
0010
0001
1000
0100
1000
0001
0100
0001
,
1000
0100
1000
0100
0010
0001
0100
0001
1000
0010
1000
0001
0010
0100
0010
0001
,
1000
0010
1000
0010
0100
0001
0010
0100
0010
0001
1000
0001
0100
0010
1000
0001
,
0010
0100
0010
0100
1000
0010
0100
0001
1000
0010
1000
0001
0010
0100
1000
0001
,
0100
0001
1000
0010
0100
0010
1000
0100
0010
0100
1000
0001
0100
0010
0100
0001
,
1000
0100
1000
0100
0010
0001
0100
0010
1000
0001
0100
0001
1000
0100
1000
0001
,
0100
0010
0100
0010
1000
0100
0010
0001
1000
0001
0010
0100
1000
0001
0100
0001
,
0010
0100
1000
0010
1000
0010
0100
0001
0100
0001
0010
0100
1000
0010
1000
0001
,
0010
0100
1000
0001
0010
0001
0100
0010
0100
0001
1000
0010
1000
0001
0010
0001
,
1000
0010
1000
0010
0100
0001
0010
0001
1000
0100
1000
0001
0100
0010
0100
0001
,
1000
0100
1000
0100
0010
0001
0100
0010
0100
0001
1000
0001
0010
0100
1000
0001
,
0100
0010
0100
0010
1000
0100
0010
0001
1000
0100
1000
0001
0100
0010
1000
0001
,
0010
0001
1000
0100
0010
0100
1000
0010
0100
0010
1000
0001
0010
0100
0010
0001
,
1000
0010
1000
0010
0100
0001
0010
0100
1000
0001
0010
0001
1000
0010
1000
0001
,
0010
0100
0010
0100
1000
0010
0100
0001
1000
0001
0100
0010
1000
0001
0010
0001
,
0100
0010
1000
0010
0100
0001
0010
0100
1000
0010
0100
0001
0100
0010
1000
0100
,
1000
0001
0100
0010
0100
0001
0010
0100
1000
0001
0010
0001
1000
0010
0100
0001
,
1000
0100
1000
0100
0010
0001
1000
0001
0100
0010
0100
0010
1000
0001
0100
0001
,
1000
0100
1000
0100
0010
0100
1000
0010
0100
0001
0100
0010
1000
0001
0010
0001
,
0100
0010
1000
0001
0100
0001
1000
0010
1000
0100
0010
0001
1000
0100
0010
0100
,
1000
0001
0100
0001
1000
0010
1000
0100
0010
0001
1000
0100
1000
0001
0100
0001
,
1000
0100
1000
0100
0010
0001
1000
0010
0100
0001
0100
0001
1000
0010
0100
0001
,
1000
0100
0010
0001
0100
0010
1000
0100
1000
0001
0010
0100
1000
0010
0100
0001
,
1000
0100
1000
0001
1000
0001
0100
0001
0010
0100
1000
0001
0100
0010
0100
0001
,
1000
0100
0010
0001
0100
0001
1000
0010
1000
0001
1000
0100
0010
0001
1000
0001
,
0010
0100
0010
0100
1000
0001
0010
0100
1000
0010
1000
0010
0100
0001
1000
0010
,
1000
0100
0010
0001
0100
0001
1000
0010
0100
0001
1000
0001
0010
0100
1000
0001
,
0100
0010
0100
0010
1000
0001
0100
0001
1000
0100
0010
0100
1000
0001
0010
0100
,
1000
0010
0100
0001
0010
0100
1000
0001
0010
0001
1000
0010
0100
0001
1000
0001
,
0100
0010
0100
0010
1000
0001
0100
0001
0010
0100
0010
0100
1000
0001
0010
0001
,
0100
0010
0100
0001
0010
0100
0010
0001
1000
0001
0100
0010
1000
0001
0100
0001
,
1000
0100
0010
0001
0100
0010
0100
0001
1000
0100
1000
0001
0100
0010
1000
0100
,
1000
0001
0010
0100
1000
0010
0100
0001
1000
0010
1000
0001
0010
0100
1000
0100
,
0010
0001
0010
0001
1000
0100
1000
0001
0100
0010
0100
0010
1000
0001
0100
0001
,
0010
0100
1000
0010
1000
0001
0100
0010
1000
0001
0010
0100
1000
0001
0010
0001
,
1000
0010
1000
0010
0100
0001
1000
0010
1000
0001
0010
0100
1000
0001
0010
0001
,
0100
0010
0100
0001
0010
0100
0010
0001
1000
0100
1000
0001
0100
0010
0100
0001
,
1000
0010
1000
0010
0100
0001
1000
0001
0010
0100
0010
0100
1000
0001
0010
0001
,
1000
0010
0100
0001
0010
0100
1000
0010
1000
0001
0100
0010
1000
0100
0010
0001
,
1000
0010
1000
0001
1000
0001
0010
0001
0100
0010
1000
0001
0010
0100
0010
0001
,
1000
0010
0100
0001
0010
0001
1000
0100
1000
0001
1000
0010
0100
0001
1000
0001
,
0100
0010
0100
0010
1000
0001
0100
0010
1000
0100
1000
0100
0010
0001
1000
0100
,
1000
0010
0100
0001
0010
0001
1000
0100
0010
0001
1000
0001
0100
0010
1000
0001
,
0010
0100
0010
0100
1000
0001
0010
0001
1000
0010
0100
0010
1000
0001
0100
0010
,
1000
0100
0010
0001
0100
0010
1000
0001
0100
0001
1000
0100
0010
0001
1000
0001
,
0010
0100
0010
0100
1000
0001
0010
0001
0100
0010
0100
0010
1000
0001
0100
0001
,
0010
0100
0010
0001
0100
0010
0100
0001
1000
0001
0010
0100
1000
0001
0010
0001
,
1000
0010
0100
0001
0010
0100
0010
0001
1000
0010
1000
0001
0010
0100
1000
0010
,
1000
0001
0100
0010
1000
0100
0010
0001
1000
0100
1000
0001
0100
0010
1000
0010
,
0100
0001
0100
0001
1000
0010
1000
0001
0010
0100
0010
0100
1000
0001
0010
0001
,
0100
0010
1000
0100
1000
0001
0010
0100
1000
0001
0100
0010
1000
0001
0100
0001
,
1000
0100
1000
0100
0010
0001
1000
0100
1000
0001
0100
0010
1000
0001
0100
0001
,
0010
0100
1000
0001
0010
0100
0010
0001
1000
0010
1000
0001
0100
0010
1000
0001
,
0010
0100
1000
0100
0010
0001
1000
0001
0100
0010
0100
0001
1000
0010
0100
0001
,
1000
0100
0010
0001
0100
0010
1000
0100
1000
0001
0010
0100
1000
0010
0100
0001
,
1000
0000
0000
0100
0000
0000
1000
0000
0000
0001
0000
0000
1000
0000
0000
0001
0000
0000
0100
0000
0000
0001
0000
0000
0010
0000
0000
0100
0000
0000
1000
0000
0000
0001
0000
0000
0100
0000
0000
0000
0010
0000
0000
0000
1000
0000
0000
0000
,
0001
0000
0000
0000
,
0000
0000
0000
0000
,
0000
0000
0000
0000
,
0000
0000
0000
0000
,
0000
0000
0000
0000
,
0000
0000
0000
0000
,
0000
0000
0000
0000
,
0000
0000
0000
0000
,
2001
3000
1000
0000
0100
0000
1000
0000
,
0010
0000
0210
0300
0102
0003
2001
3000
,
1200
0300
0100
0000
0010
0000
0001
0000
,
0100
0000
0120
0030
2010
3000
1002
0003
,
0021
0030
0010
0000
0001
0000
1000
0000
,
0001
0000
0201
0300
0120
0030
2010
3000
,
1002
0003
0001
0000
0010
0000
0001
0000
,
0200
0300
0020
0030
,
1002
0003
0001
0000
0100
0000
0001
0000
,
0010
0000
0210
0300
2100
3000
1002
0003
,
0201
0300
0100
0000
0010
0000
1000
0000
,
0100
0000
0120
0030
0012
0003
2001
3000
,
1020
0030
0010
0000
1000
0000
0001
0000
,
1000
0000
1200
0300
0120
0030
0012
0003
,
2001
3000
1000
0000
0010
0000
1000
0000
,
0200
0300
0020
0030
,
0001
0000
0100
0000
0010
0000
1000
0001
0010
0100
1000
0001
1000
0000
0010
0100
,
0001
0000
0010
0000
0100
0000
1000
0001
0100
0010
1000
0001
1000
0000
0100
0010
,
0001
0000
0100
0000
0010
0000
1000
0001
0010
0100
1000
0001
1000
0000
0010
0100
,
0001
0000
0010
0000
0100
0000
1000
0001
0100
0010
1000
0100
1000
0000
0010
0100
,
0001
0000
0010
0000
0100
0000
1000
0001
0100
0010
1000
0001
1000
0000
0100
0010
,
0001
0000
0100
0000
0010
0000
1000
0001
0010
0100
1000
0001
1000
0000
0010
0100
,
0001
0000
0010
0000
0100
0000
1000
0001
0100
0010
1000
0001
1000
0000
0100
0010
,
0001
0000
0100
0000
0010
0000
1000
0001
0010
0100
1000
0010
1000
0000
0010
1000
,
0100
0000
0010
0000
0001
0000
1000
0001
0100
0010
0100
0001
1000
0000
0100
0010
,
0001
0000
0010
0000
0100
0000
1000
0001
0100
0010
0100
0001
1000
0000
0100
1000
,
0010
0100
0001
1000
0010
1000
0001
0100
0001
1000
0100
0010
0001
1000
0100
1000
,
0001
0100
0001
1000
0010
0100
0001
1000
0100
1000
0001
0010
0001
1000
0100
0010
,
0001
0100
0010
1000
0001
1000
0010
0100
0001
1000
0100
0010
0100
1000
0001
0010
,
0001
0100
0010
1000
0001
0100
0001
1000
0100
0010
0100
1000
0001
0010
0100
1000
,
0010
0100
0001
1000
0010
0100
0010
1000
0100
0010
0001
1000
0001
0010
0100
1000
,
0010
0000
0000
0100
0000
0000
0010
0000
0000
1000
0000
0000
0100
0000
0000
0010
0000
0000
0001
0000
0000
1000
0000
0000
0010
0000
0000
0000
0100
0000
0000
0000
0001
0000
0000
0000
1000
0000
0000
0000
0100
0000
0000
0000
0010
0000
0000
0000
,
0000
0000
0000
0000
,
0000
0000
0000
0000
,
0001
0100
0010
1000
0010
0100
0001
1000
0100
0010
0001
0010
0100
1000
0001
1000
,
0010
0100
0001
1000
0001
0100
0010
1000
0001
0010
0100
1000
0001
0100
0010
1000
,
0100
0010
0001
1000
0100
1000
0001
0100
0010
1000
0010
0100
0001
1000
0100
0010
,
0001
1000
0010
1000
0001
0010
0100
1000
0001
0100
0010
1000
0001
0010
0100
1000
,
0010
0100
0001
1000
0010
1000
0001
0010
0100
1000
0001
0010
0001
1000
0010
1000
,
0001
0100
0010
0100
0001
1000
0100
0010
0001
1000
0010
0100
0001
1000
0100
0010
,
0001
0100
0010
1000
0100
1000
0001
0100
0010
1000
0001
0100
0001
1000
0100
0010
,
0001
1000
0010
1000
0001
0100
0001
1000
0100
1000
0001
0010
0001
0100
0010
1000
,
0001
0010
0100
1000
0100
0010
0001
1000
0010
0100
0001
0100
0010
1000
0001
1000
,
0100
0010
0001
1000
0001
0010
0100
1000
0001
0100
0010
1000
0001
0010
0100
1000
,
0010
0100
0001
1000
0010
1000
0001
0010
0100
1000
0100
0010
0001
1000
0010
0100
,
0001
1000
0100
1000
0001
0100
0010
1000
0001
0010
0100
1000
0001
0100
0010
1000
,
0100
0010
0001
1000
0100
1000
0001
0100
0010
1000
0001
0100
0001
1000
0100
1000
,
0001
0010
0100
0010
0001
1000
0010
0100
0001
1000
0100
0010
0001
1000
0010
0100
,
0001
0010
0100
1000
0010
0100
0001
1000
0001
0010
0100
1000
0010
0100
0001
1000
,
0001
0010
0100
0010
0001
1000
0001
0100
0010
1000
0001
0010
0001
0100
0010
1000
,
0100
0010
0001
1000
0010
1000
0001
0010
0001
1000
0100
0010
0001
1000
0100
1000
,
0010
0100
0001
1000
0100
1000
0001
0100
0001
1000
0010
0100
0010
1000
0001
0100
,
0001
0010
0100
1000
0001
0100
0001
1000
0100
1000
0001
0010
0001
1000
0100
1000
,
0010
0100
0010
1000
0001
0010
0001
1000
0010
0100
0001
1000
0100
1000
0010
0100
,
0001
1000
0001
0010
0100
1000
0001
0100
0001
1000
0100
0010
0001
0100
0010
0100
,
0001
1000
0001
0010
0100
1000
0001
0100
0001
1000
0100
0010
0001
0100
0010
0100
,
0001
1000
0100
1000
0001
0010
0001
1000
0010
1000
0001
0100
0010
1000
0100
1000
,
0001
0010
0100
1000
0001
0010
0001
0100
0010
1000
0010
0100
0001
0010
0100
1000
,
0010
0100
0001
1000
0100
1000
0001
0100
0001
1000
0010
0100
0001
1000
0010
1000
,
0100
0010
0001
1000
0010
1000
0001
0010
0001
1000
0100
0010
0100
1000
0001
0010
,
0001
0100
0010
1000
0001
0010
0001
1000
0010
1000
0001
0100
0001
1000
0010
1000
,
0100
0010
0100
1000
0001
0100
0001
1000
0100
0010
0001
1000
0010
1000
0100
0010
,
0001
1000
0001
0100
0010
1000
0001
0010
0001
1000
0010
0100
0001
0010
0100
0010
,
0001
1000
0001
0100
0010
1000
0001
0010
0001
1000
0010
0100
0001
0010
0100
0010
,
0001
1000
0010
1000
0001
0100
0001
1000
0100
1000
0001
0010
0100
1000
0010
1000
,
0001
0100
0010
1000
0001
0100
0001
0010
0100
1000
0100
0010
0001
0100
0010
1000
,
0001
0001
1000
0000
0001
0001
1000
0000
,
0001
0001
1000
0000
0010
0010
0100
0000
,
0001
0001
1000
0000
0001
0001
1000
0000
,
0001
0001
1000
0000
0100
0100
0010
0000
,
0001
0001
1000
0000
0001
0001
1000
0000
,
0001
0001
1000
0000
0010
0010
0100
0000
,
0001
0001
1000
0000
0001
0001
1000
0000
,
0001
0001
1000
1000
0001
0000
2002
3003
,
1000
0100
0010
0001
0100
0010
0100
0010
1000
0100
0010
0001
0100
0010
0100
0010
,
1000
0100
0010
0001
0100
0010
0100
0010
1000
0100
0010
0100
1000
0001
1000
0001
,
1000
0010
0100
0001
0010
0100
0010
0100
1000
0010
0100
0001
0010
0100
0010
0100
,
1000
0010
0100
0001
0010
0100
0010
0100
1000
0010
0100
0010
1000
0001
1000
0001
,
1000
0100
0010
0001
0100
0010
0100
0010
1000
0100
0010
0001
0100
0010
0100
0010
,
1000
0100
0010
0001
0100
0010
0100
0010
1000
0100
0010
0100
1000
0001
1000
0001
,
1000
0010
0100
0001
0010
0100
0010
0100
1000
0010
0100
0001
0010
0100
0010
0100
,
1000
0010
0100
0001
1000
0100
0010
0001
1000
0000
0000
0000
2002
0000
3003
0000
,
0001
0000
0010
0000
0100
0000
1000
0001
0100
0010
1000
0001
1000
0000
0100
0010
,
0001
0000
0100
0000
0010
0000
1000
0001
0010
0100
1000
0001
1000
0000
0010
0100
,
0001
0000
0010
0000
0100
0000
1000
0001
0100
0010
1000
0001
1000
0000
0100
0010
,
0001
0000
0100
0000
0010
0000
1000
0001
0010
0100
1000
0010
1000
0000
0100
0010
,
0001
0000
0100
0000
0010
0000
1000
0001
0010
0100
1000
0001
1000
0000
0010
0100
,
0001
0000
0010
0000
0100
0000
1000
0001
0100
0010
1000
0001
1000
0000
0100
0010
,
0001
0000
0100
0000
0010
0000
1000
0001
0010
0100
1000
0001
1000
0000
0010
0100
,
0001
0000
0010
0000
0100
0000
1000
0001
0100
0010
1000
0100
1000
0000
0010
0100
,
0001
0000
0010
0000
0100
0000
1000
0001
0100
0010
1000
0001
1000
0000
0100
0010
,
0001
0000
0100
0000
0010
0000
1000
0001
0010
0100
1000
0001
1000
0000
0010
0100
,
0001
0000
0010
0000
0100
0000
1000
0001
0100
0010
1000
0001
1000
0000
0100
0010
,
0001
0000
0100
0000
0010
0000
1000
0001
0010
0100
1000
0010
1000
0000
0100
0010
,
0001
0000
0100
0000
0010
0000
1000
0001
0010
0100
1000
0001
1000
0000
0010
0100
,
0001
0000
0010
0000
0100
0000
1000
0001
0100
0010
1000
0001
1000
0000
0100
0010
,
0001
0000
0100
0000
0010
0000
1000
0001
0010
0100
1000
0001
1000
0000
0010
0100
,
0001
0000
0010
0000
0100
0000
1000
0001
0100
0010
1000
0100
1000
0000
0010
0100
,
0001
0010
0100
0000
1000
0100
0010
0001
1000
0001
0100
0010
1000
0000
0100
0010
,
0001
0010
0100
0000
1000
0100
0010
0001
1000
0001
0100
0010
1000
0000
0100
0010
,
0001
0010
0100
0000
1000
0100
0010
0001
1000
0001
0100
0010
1000
0000
0100
0010
,
0001
0010
0100
0000
1000
0100
0010
0001
1000
0001
0100
0010
1000
0000
0100
0010
,
0001
0100
0010
0000
1000
0010
0100
0001
1000
0001
0010
0100
1000
0000
0010
0100
,
0001
0100
0010
0000
1000
0010
0100
0001
1000
0001
0010
0100
1000
0000
0010
0100
,
0001
0100
0010
0000
1000
0010
0100
0001
1000
0001
0010
0100
1000
0000
0010
0100
,
0001
0100
0010
0000
1000
0010
0100
0001
1000
0001
0010
0100
1000
0000
0010
0100
,
0001
0010
0100
0000
1000
0100
0010
0001
1000
0001
0100
0010
1000
0000
0100
0010
,
0001
0010
0100
0000
1000
0100
0010
0001
1000
0001
0100
0010
1000
0000
0100
0010
,
0001
1000
0100
0010
0100
1000
0001
0010
0001
1000
0010
0100
0001
1000
0010
1000
,
0001
0010
0001
1000
0100
0010
0001
1000
0010
1000
0001
0100
0001
1000
0010
0100
,
0001
1000
0100
0010
0100
1000
0100
0010
0001
1000
0010
0100
0010
1000
0001
0100
,
0001
1000
0100
1000
0001
0010
0001
1000
0010
0100
0010
1000
0001
0100
0010
1000
,
0001
0010
0001
1000
0100
0010
0100
1000
0001
0100
0010
1000
0001
0100
0001
1000
,
0100
0010
0100
1000
0001
0010
0100
1000
0001
0100
0010
0100
0001
1000
0010
1000
,
0001
0000
0000
0000
,
0004
0000
0000
0000
,
0013
0100
1000
0001
0100
0010
1000
0001
0010
0100
1000
0001
0010
0100
0010
0001
,
0100
0010
1000
0001
0010
0001
1000
0010
0100
0010
1000
0001
0100
0001
1000
0010
,
1000
0100
0010
0001
1000
0010
0100
0001
1000
0001
0010
0100
1000
0001
0010
0001
,
0100
0010
0100
0001
1000
0100
1000
0001
0100
0001
1000
0100
0010
0001
0100
0010
,
1000
0001
0010
0100
0010
0001
0100
0010
0100
0001
0010
0100
1000
0010
0100
0001
,
1000
0001
0010
0100
0010
0001
0100
0010
0100
0001
0010
0100
1000
0010
0100
0001
,
1000
0001
0010
0100
1000
0100
0010
0001
1000
0001
0100
0010
0100
0001
0010
0001
,
1000
0100
0010
0001
0010
0100
1000
0010
0100
0001
0100
0010
1000
0100
0010
0001
,
0100
0010
1000
0001
0010
0100
1000
0001
0100
0010
1000
0001
0100
0010
0100
0001
,
0010
0100
1000
0001
0100
0001
1000
0100
0010
0100
1000
0001
0010
0001
1000
0100
,
1000
0010
0100
0001
1000
0100
0010
0001
1000
0001
0100
0010
1000
0001
0100
0001
,
0010
0100
0010
0001
1000
0010
1000
0001
0010
0001
1000
0010
0100
0001
0010
0100
,
1000
0001
0100
0010
0100
0001
1000
0100
1000
0001
0100
0010
1000
0100
0010
0001
,
1000
0010
0100
0010
1000
0001
0010
0001
1000
0010
0100
0010
1000
0100
0010
0100
,
1000
0001
0100
0010
1000
0100
0010
0001
1000
0001
0100
0010
1000
0100
0010
0001
,
1000
0010
0100
0001
0100
0010
1000
0100
0010
0001
0010
0100
1000
0010
0100
0001
,
0010
0001
1000
0010
0100
0001
1000
0100
1000
0001
0010
0001
1000
0100
0010
0001
,
0100
0001
1000
0100
0010
0001
1000
0010
1000
0001
0100
0001
1000
0010
0100
0010
,
1000
0100
0010
0001
1000
0010
0100
0001
1000
0001
0010
0100
1000
0001
0010
0001
,
0100
0010
1000
0001
0010
0001
1000
0010
0100
0010
1000
0001
0010
0001
0100
0010
,
1000
0001
1000
0100
0010
0001
0100
0001
1000
0100
0010
0100
1000
0010
0100
0010
,
1000
0001
1000
0100
0010
0001
0100
0001
1000
0100
0010
0100
1000
0010
0100
0010
,
1000
0001
0010
0100
1000
0001
1000
0010
0100
0001
0100
0010
1000
0100
0010
0001
,
1000
0100
0010
0100
1000
0001
1000
0010
0100
0001
0100
0010
1000
0100
0010
0001
,
0100
0010
1000
0001
0010
0001
1000
0010
1000
0001
0100
0001
1000
0010
0100
0001
,
0010
0001
1000
0010
0100
0001
1000
0100
1000
0001
0010
0001
1000
0100
0010
0100
,
1000
0010
0100
0001
1000
0100
0010
0001
1000
0001
0100
0010
1000
0001
0100
0001
,
0010
0100
1000
0001
0100
0001
1000
0100
0010
0100
1000
0001
0100
0001
0010
0100
,
1000
0001
1000
0010
0100
0001
0010
0001
1000
0010
0100
0010
1000
0100
0010
0100
,
1000
0001
1000
0010
0100
0001
0010
0001
1000
0010
0100
0010
1000
0100
0010
0100
,
1000
0001
0100
0010
1000
0100
0010
0001
1000
0010
0100
0001
0010
0100
1000
0001
,
1000
0010
0100
0010
1000
0001
1000
0100
0010
0001
0010
0100
1000
0010
0100
0001
,
0010
0100
1000
0001
0100
0001
1000
0100
1000
0001
0010
0100
1000
0001
0010
0001
,
0100
0010
1000
0001
0010
0001
1000
0010
1000
0001
0100
0010
0100
0001
1000
0010
,
1000
0100
0010
0001
1000
0010
1000
0001
0010
0001
1000
0100
1000
0001
0010
0001
,
0100
0010
0100
0001
1000
0100
1000
0001
0100
0010
1000
0001
0010
0001
0100
0010
,
1000
0001
1000
0100
0010
0001
1000
0010
1000
0001
0010
0100
1000
0010
0100
0010
,
1000
0001
1000
0100
0010
0001
1000
0010
1000
0001
0010
0100
1000
0010
0100
0010
,
1000
0001
0010
0001
1000
0100
1000
0001
0100
0001
1000
0010
0100
0001
0010
0001
,
1000
0100
0010
0001
1000
0100
1000
0010
0100
0001
0100
0010
1000
0100
0010
0001
,
0100
0010
1000
0001
0010
0001
1000
0010
1000
0001
0100
0010
1000
0001
0100
0001
,
0010
0100
1000
0001
0100
0001
1000
0100
1000
0001
0010
0100
0010
0001
1000
0100
,
1000
0010
0100
0001
1000
0100
1000
0001
0100
0001
1000
0010
1000
0001
0100
0001
,
0010
0100
0010
0001
1000
0010
1000
0001
0010
0100
1000
0001
0100
0001
0010
0100
,
1000
0001
1000
0010
0100
0001
1000
0100
1000
0001
0100
0010
1000
0100
0010
0100
,
1000
0001
1000
0010
0100
0001
1000
0100
1000
0001
0100
0010
1000
0100
0010
0100
,
1000
0001
0100
0010
1000
0100
0010
0001
1000
0010
0100
0001
0010
0100
1000
0001
,
1000
0010
0100
0001
1000
0010
1000
0100
0010
0001
0010
0100
1000
0010
0100
0001
,
1000
1000
0001
0000
1000
1000
0001
0000
,
1000
1000
0001
0000
0100
0100
0010
0000
,
1000
1000
0001
0000
1000
1000
0001
0000
,
1000
1000
0001
0000
0010
0010
0100
0000
,
1000
1000
0001
0000
1000
1000
0001
0000
,
1000
1000
0001
0000
0100
0100
0010
0000
,
1000
1000
0001
0000
1000
1000
0001
0000
,
1000
1000
0001
0001
1000
0000
2002
3003
,
0001
0010
0100
1000
0010
0100
0010
0100
0001
0010
0100
1000
0010
0100
0010
0100
,
0001
0010
0100
1000
0010
0100
0010
0100
0001
0010
0100
0010
0001
1000
0001
1000
,
0001
0100
0010
1000
0100
0010
0100
0010
0001
0100
0010
1000
0100
0010
0100
0010
,
0001
0100
0010
1000
0100
0010
0100
0010
0001
0100
0010
0100
0001
1000
0001
1000
,
0001
0010
0100
1000
0010
0100
0010
0100
0001
0010
0100
1000
0010
0100
0010
0100
,
0001
0010
0100
1000
0010
0100
0010
0100
0001
0010
0100
0010
0001
1000
0001
1000
,
0001
0100
0010
1000
0100
0010
0100
0010
0001
0100
0010
1000
0100
0010
0100
0010
,
0001
0100
0010
1000
0001
0010
0100
1000
0001
0000
0000
0000
2002
0000
3003
0000
,
2002
0000
0000
0000
,
0000
0000
0000
0000
,
0000
0000
0000
0000
,
0000
0000
0000
0000
,
3003
0000
0000
0000
,
0MM0
0000
0000
0000
;
