#TITLE:[4-2] Pulsar;
#SUBTITLE:;
#ARTIST:Nexus;
#TITLETRANSLIT:;
#SUBTITLETRANSLIT:;
#ARTISTTRANSLIT:;
#CREDIT:Aoreo;
#BANNER:../Beast 4 - bn.png;
#BACKGROUND:../Beast 4 - bg.png;
#LYRICSPATH:;
#CDTITLE:;
#MUSIC:Pulsar.ogg;
#OFFSET:-0.042;
#SAMPLESTART:102.363;
#SAMPLELENGTH:20.420;
#SELECTABLE:YES;
#BPMS:0.000=190.000;
#STOPS:;
#BGCHANGES:;
// cache tags:
#FIRSTBEAT:16.000;
#LASTBEAT:1064.000;
#SONGFILENAME:Songs/Beast Aoreo BEAST! 4/Pulsar - [Aoreo]/Pulsar.sm;
#HASMUSIC:1;
#HASBANNER:1;
#MUSICLENGTH:336.315;
// end cache tags

//---------------dance-single - J. Nero ft. Zaia----------------
#NOTES:
     dance-single:
     J. Nero ft. Zaia:
     Challenge:
     17:
     1.000,1.000,0.036,0.027,1.000,3481.000,12.000,9.000,0.000,0.000:
0000
0000
0000
0000
,
0000
0000
0000
0000
,
0000
0000
0000
0000
,
0000
0000
0000
0000
,
0001
0000
1000
0000
0100
1000
0100
0000
1000
0000
0001
0000
0010
0000
0100
0000
,
1000
0000
0001
0000
0100
0001
0100
0000
0010
0000
1000
0000
0001
0000
0100
0000
,
0010
0000
0100
0000
0001
1000
0001
0000
0010
0000
0100
0000
1000
0000
0001
0000
,
0100
0000
0010
0000
1000
0001
0010
0000
0100
0000
1000
0000
0010
0100
0001
0000
,
0101
0000
0100
0000
0010
1000
0010
0000
1000
0000
0100
0000
0110
0000
0010
0000
,
0001
0000
0100
0000
0001
0010
0100
0000
1000
0000
0010
0000
0110
0000
0100
0000
,
0001
0000
1000
0000
0100
1000
0001
0000
0100
0000
0001
0000
0011
0000
0010
0000
,
0100
0000
1000
0000
0010
0100
0001
0000
1000
0000
0001
0000
0101
0000
0001
0000
,
1000
0000
0001
0000
0010
0100
1000
0000
0001
0000
1000
0000
1010
0000
0010
0000
,
0100
0000
0001
0000
1000
0100
0010
0000
0001
0000
1000
0000
1010
0000
0010
0000
,
0100
0000
0001
0000
0010
0100
1000
0000
0001
0000
0100
0000
0110
0000
0010
0000
,
1000
0000
0001
0000
0010
0100
1000
0000
0001
0000
0100
0000
0010
1000
0100
0000
,
1000
0001
0100
0001
1000
0010
0100
0001
0100
0010
1000
0001
1000
0010
0100
0010
,
1000
0001
0010
0100
1000
0001
0010
0100
0010
0001
1000
0100
0010
0001
1000
0100
,
0010
0001
1000
0001
0100
0001
1000
0010
0100
0010
1000
0001
0100
0010
1000
0001
,
1000
0100
0010
0100
1000
0001
0010
0100
1000
0001
1000
0100
1000
0001
0010
0001
,
1000
0001
0100
0010
0100
0001
1000
0010
0100
0010
1000
0001
0100
0010
1000
0001
,
0010
0100
1000
0001
1000
0100
0010
0001
1000
0100
0010
0100
1000
0001
0010
0100
,
1000
0001
1000
0010
0100
0001
0100
0010
1000
0001
0100
0010
0100
0001
1000
0001
,
0010
0100
1000
0001
0010
0100
1000
0001
1000
0100
0010
0100
1000
0001
0100
0010
,
1000
0001
1000
0010
0100
0001
0100
0010
1000
0100
0010
0001
1000
0100
1000
0001
,
0100
0010
0100
0001
1000
0010
0100
0001
1000
0001
0010
0100
1000
0001
0010
0100
,
1000
0010
0100
0001
1000
0010
0100
0001
1000
0100
0010
0001
1000
0100
1000
0001
,
1000
0010
0100
0010
1000
0001
1000
0010
1000
0001
0010
0100
1000
0001
1000
0100
,
1000
0010
0100
0001
0100
0010
1000
0001
0010
0100
1000
0001
1000
0100
0010
0001
,
1000
0010
0100
0010
1000
0001
0100
0010
0100
0001
1000
0100
0010
0001
1000
0001
,
1000
0010
0100
0010
1000
0001
0100
0010
1000
0001
0010
0100
1000
0001
1000
0100
,
1000
0001
0100
0010
1000
0001
0100
0001
1000
0100
0010
0100
1000
0001
0010
0100
,
2000
0000
0000
0000
,
3001
0010
0100
1000
0100
1000
0010
0100
0001
1000
0010
0100
0001
0100
0001
1000
,
0100
0010
0001
1000
0001
1000
0010
0100
0001
0010
0001
1000
0010
1000
0010
0100
,
0001
1000
0100
0010
0100
0010
0001
0100
0001
1000
0100
0010
0001
0010
0001
1000
,
0100
1000
0001
0100
0001
0100
0010
1000
0001
0010
0100
1000
0010
1000
0010
0100
,
0001
1000
0001
0010
0001
0010
0100
1000
0010
0100
0001
1000
0010
1000
0010
0100
,
0001
1000
0100
0010
0100
0010
0001
0100
0010
1000
0001
0100
0010
0100
0010
1000
,
0001
0010
0100
1000
0100
1000
0010
0100
0001
1000
0010
0100
0001
0100
0001
1000
,
0010
0100
0001
1000
0001
1000
0100
0010
0001
0100
0001
1000
0010
1000
0010
0100
,
0001
0100
0010
1000
0010
1000
0100
0010
0001
1000
0100
0010
0001
0010
0001
1000
,
0010
0100
0001
1000
0001
1000
0100
0010
0001
0100
0001
1000
0100
1000
0100
0010
,
0001
1000
0010
0100
0010
0100
0001
0010
0001
1000
0010
0100
0001
0100
0001
1000
,
0010
1000
0001
0010
0001
0010
0100
1000
0001
0100
0010
1000
0100
1000
0100
0010
,
0001
1000
0001
0100
0001
0100
0010
1000
0100
0010
0001
1000
0100
1000
0100
0010
,
0001
1000
0010
0100
0010
0100
0001
0010
0100
1000
0001
0010
0100
0010
0100
1000
,
0001
0100
0010
1000
0010
1000
0100
0010
0001
1000
0100
0010
0001
0010
0001
1000
,
0100
0010
0001
1000
0001
1000
0010
0100
0001
0010
0001
1000
0100
1000
0100
0010
,
0001
1000
0010
1000
0001
0100
0010
0100
0001
1000
0100
1000
0001
0010
0100
0010
,
0001
1000
0010
1000
0001
0100
0010
0100
0001
1000
0100
1000
0010
1000
0001
0100
,
0001
1000
0100
1000
0001
0010
0100
0010
0001
1000
0010
1000
0001
0100
0010
0100
,
0001
1000
0100
1000
0001
0010
0100
0010
0001
1000
0010
1000
0100
1000
0001
0010
,
0001
1000
0010
1000
0001
0100
0010
0100
0001
1000
0100
1000
0001
0010
0100
0010
,
0001
1000
0010
1000
0001
0100
0010
0100
0001
1000
0100
1000
0010
1000
0001
0100
,
0001
1000
0100
1000
0001
0010
0100
0010
0001
1000
0010
1000
0001
0100
0010
0100
,
0001
1000
0100
0010
0100
1000
0010
0100
0001
1000
0001
0100
0010
0100
0001
0010
,
0001
1000
0100
1000
0001
0010
0100
0010
0001
1000
0010
1000
0001
0100
0010
0100
,
0001
1000
0100
1000
0001
0010
0100
0010
0001
1000
0010
1000
0100
1000
0001
0010
,
0001
1000
0010
1000
0001
0100
0010
0100
0001
1000
0100
1000
0001
0010
0100
0010
,
0001
1000
0010
1000
0001
0100
0010
0100
0001
1000
0100
1000
0010
1000
0001
0100
,
0001
1000
0100
1000
0001
0010
0100
0010
0001
1000
0010
1000
0001
0100
0010
0100
,
0001
1000
0100
1000
0001
0010
0100
0010
0001
1000
0010
1000
0100
1000
0001
0010
,
0001
1000
0010
1000
0001
0100
0010
0100
0001
1000
0100
1000
0001
0010
0100
0010
,
0001
1000
0010
0100
0010
1000
0100
0010
0001
1000
0001
0010
0100
0010
0001
1000
,
0002
0000
0003
0000
1000
0000
0010
0100
,
0000
0000
0001
0001
,
0000
0000
0000
0000
0001
0000
0010
0100
,
0000
0000
1000
1000
,
0000
0000
0000
0000
1000
0000
0010
0100
,
0000
0000
0001
0001
,
0000
0000
0000
0000
0001
0000
0010
0100
,
0000
0000
1000
1000
,
1001
0001
0100
0010
1000
0001
0010
0010
,
0100
1000
0001
0100
0010
1000
0010
0100
,
0001
0010
0100
1000
0001
0010
0100
0100
,
1000
0001
0010
0100
1000
0010
1000
0100
,
0010
0001
0100
0001
1000
0010
0100
0100
,
0001
0010
0100
1000
0010
0100
0010
1000
,
0001
0010
0100
1000
0001
0100
0010
0010
,
1000
0100
0010
0001
1000
0100
1000
0001
,
1000
0100
1000
0001
0100
0010
1000
0100
0010
0001
1000
0100
0010
0001
0010
0001
,
1000
0010
1000
0001
0010
0001
0100
0001
1000
0010
0100
0010
1000
0001
0100
0001
,
1000
0010
1000
0001
0010
0100
1000
0010
0100
0001
1000
0010
0100
0001
0100
0001
,
1000
0100
1000
0001
0100
0001
0010
0001
1000
0100
0010
0100
1000
0001
0010
0001
,
1000
0100
1000
0001
0100
0010
1000
0100
0010
0001
1000
0100
0010
0001
0010
0001
,
1000
0010
1000
0001
0010
0001
0100
0001
1000
0010
0100
0010
1000
0001
0100
0001
,
1000
0010
1000
0001
0010
0100
1000
0010
0100
0001
1000
0010
0100
0001
0100
0001
,
1000
0100
1000
0001
0100
0001
0010
0001
1000
0100
0010
0100
1000
0001
0010
0001
,
0100
0010
1000
0001
0010
0100
0010
0001
0100
0010
1000
0001
0010
0100
0010
0001
,
1000
0100
1000
0001
0100
0010
0100
0001
0010
0100
1000
0001
0100
0010
0100
0001
,
1000
0010
1000
0001
0010
0100
0010
0001
0100
0010
1000
0001
0010
0100
0010
0001
,
1000
0100
1000
0001
0100
0001
1000
0001
1000
0100
1000
0001
0100
0001
1000
0001
,
1000
0010
1000
0001
0010
0100
0010
0001
0100
0010
1000
0001
0010
0100
0010
0001
,
1000
0100
1000
0001
0100
0010
0100
0001
0010
0100
1000
0001
0100
0010
0100
0001
,
1000
0010
1000
0001
0010
0100
1000
0001
0100
0010
0100
0001
0010
0100
0010
0001
,
1000
0100
1000
0001
0100
0010
1000
0001
0010
0100
0010
0001
0100
0010
0100
0001
,
1000
0000
0001
0000
0000
1000
0000
0000
0010
0000
0000
0100
0000
0000
0001
0000
,
0000
0000
1000
0000
0000
0100
0000
0000
1000
0000
0000
0001
0000
0000
0100
0000
,
0000
0000
0001
0000
0000
0010
0000
0000
0100
0000
0000
1000
0000
0000
0001
0000
,
0000
0000
1000
0000
0000
0100
0000
0000
1000
0000
0000
0010
0000
0000
0100
0000
,
0000
0000
0001
0000
0000
0100
0000
0000
0010
0000
0000
0100
0000
0000
0001
0000
,
1000
0100
1000
0100
0010
0000
0000
0001
,
0100
0001
0010
0100
1000
0000
0000
0001
,
0100
0001
1000
0100
0010
0000
0000
0000
,
1001
0001
1000
0100
0010
0100
1000
0001
,
0010
0100
1000
0001
1000
0010
0100
0001
,
1000
0010
0100
0001
0010
0100
1000
0001
,
1000
0010
0100
0001
0010
0100
1000
0010
,
1000
0001
0010
0100
1000
0001
1000
0100
,
0010
0100
1000
0001
0100
0001
1000
0100
,
0010
0001
1000
0010
0100
0010
1000
0001
,
0010
0100
1000
0010
0100
0001
1000
0100
,
1000
0010
1000
0001
0010
0100
1000
0010
0100
0001
1000
0010
0100
0001
0100
0001
,
1000
0100
1000
0001
0100
0001
0010
0001
1000
0100
0010
0100
1000
0001
0010
0001
,
1000
0100
1000
0001
0100
0010
1000
0100
0010
0001
1000
0100
0010
0001
0010
0001
,
1000
0010
1000
0001
0010
0001
0100
0001
1000
0010
0100
0010
1000
0001
0100
0001
,
1000
0010
1000
0001
0010
0100
1000
0010
0100
0001
1000
0010
0100
0001
0100
0001
,
1000
0100
1000
0001
0100
0001
0010
0001
1000
0100
0010
0100
1000
0001
0010
0001
,
1000
0100
1000
0001
0100
0010
1000
0100
0010
0001
1000
0100
0010
0001
0010
0001
,
1000
0010
1000
0001
0010
0001
0100
0001
1000
0010
0100
0010
1000
0001
0100
0001
,
1000
0100
1000
0001
0100
0010
1000
0001
0010
0100
1000
0001
0010
0100
0010
0100
,
1000
0010
1000
0001
0010
0001
1000
0001
0100
0010
1000
0010
0100
0001
1000
0001
,
0100
0010
1000
0001
0010
0100
1000
0001
0100
0010
1000
0001
0100
0010
0100
0010
,
1000
0100
1000
0001
0100
0001
1000
0001
0010
0100
1000
0100
0010
0001
1000
0001
,
1000
0100
1000
0001
0100
0010
1000
0001
0010
0100
1000
0001
0010
0100
0010
0100
,
1000
0010
1000
0001
0010
0001
1000
0001
0100
0010
1000
0010
0100
0001
1000
0001
,
0100
0010
1000
0001
0010
0100
1000
0001
0100
0010
1000
0001
0100
0010
0100
0010
,
1000
0100
1000
0001
0100
0001
1000
0001
0010
0100
1000
0100
0010
0001
1000
0001
,
0010
0000
0000
0100
0000
0000
1000
0000
0001
0000
0000
0010
0000
0000
0100
0000
,
1000
0000
0000
0001
0000
0000
0100
0000
0010
0000
0000
0100
0000
0000
0001
0000
,
0010
0000
0000
0100
0000
0000
1000
0000
0010
0000
0000
0100
0000
0000
0001
0000
,
0010
0000
0000
0100
0000
0000
1000
0000
0001
0000
0000
0100
0000
0000
0010
0000
,
1000
0000
0000
0100
0000
0000
1000
0000
0001
0000
0000
0010
0000
0000
0100
0000
,
1000
0000
0000
0001
0000
0000
0100
0000
0010
0000
0000
0100
0000
0000
0001
0000
,
0010
0000
0000
0100
0000
0000
1000
0000
0010
0000
0000
0100
0000
0000
0001
0000
,
0010
0000
0000
0100
0000
0000
1000
0000
0001
0000
0000
0100
0000
0000
0001
0000
,
1001
1000
0100
1000
0001
0100
0010
0100
,
0001
0010
0100
1000
0001
1000
0100
0010
,
0100
1000
0010
0100
0001
0100
0010
1000
,
0001
0010
0100
1000
0001
0100
0010
1000
,
0100
0010
0001
1000
0010
0100
0010
1000
,
0001
0010
0100
1000
0001
0100
0010
0100
,
0001
1000
0100
0010
0001
1000
0010
0100
,
0010
1000
0001
0010
0100
1000
0001
0010
,
0001
0100
0001
1000
0100
0010
0001
0100
0010
1000
0001
0100
0010
1000
0010
1000
,
0001
0010
0001
1000
0010
1000
0100
1000
0001
0010
0100
0010
0001
1000
0100
1000
,
0001
0010
0001
1000
0010
0100
0001
0010
0100
1000
0001
0010
0100
1000
0100
1000
,
0001
0100
0001
1000
0100
1000
0010
1000
0001
0100
0010
0100
0001
1000
0010
1000
,
0001
0100
0001
1000
0100
0010
0001
0100
0010
1000
0001
0100
0010
1000
0010
1000
,
0001
0010
0001
1000
0010
1000
0100
1000
0001
0010
0100
0010
0001
1000
0100
1000
,
0001
0010
0001
1000
0010
0100
0001
0010
0100
1000
0001
0010
0100
1000
0100
1000
,
0001
0100
0001
1000
0100
1000
0010
1000
0001
0100
0010
0100
0001
1000
0010
1000
,
0001
0010
0001
0100
0001
1000
0010
0100
0001
1000
0100
1000
0010
1000
0001
1000
,
0001
0010
0001
0100
0001
1000
0010
0100
0001
1000
0100
1000
0010
1000
0001
1000
,
0001
0010
0001
0100
0001
1000
0010
0100
0001
1000
0100
1000
0010
1000
0001
1000
,
0001
0010
0001
0100
0001
1000
0010
0100
0001
1000
0100
1000
0010
1000
0001
1000
,
0001
0100
0001
0010
0001
1000
0100
0010
0001
1000
0010
1000
0100
1000
0001
1000
,
0001
0100
0001
0010
0001
1000
0100
0010
0001
1000
0010
1000
0100
1000
0001
1000
,
0001
0100
0001
0010
0001
1000
0100
0010
0001
1000
0010
1000
0100
1000
0001
0100
,
0001
1000
0100
1000
0010
1000
0001
1000
0001
0010
0001
0100
0001
1000
0010
0100
,
0001
1000
0001
1000
0010
0100
0001
0010
0100
1000
0001
0010
0100
1000
0100
1000
,
0001
0100
0001
1000
0100
1000
0010
1000
0001
0100
0010
0100
0001
1000
0010
1000
,
0001
0100
0001
1000
0100
0010
0001
0100
0010
1000
0001
0100
0010
1000
0010
1000
,
0001
0010
0001
1000
0010
1000
0100
1000
0001
0010
0100
0010
0001
1000
0100
1000
,
0001
0010
0001
1000
0010
0100
0001
0010
0100
1000
0001
0010
0100
1000
0100
1000
,
0001
0100
0001
1000
0100
1000
0010
1000
0001
0100
0010
0100
0001
1000
0010
1000
,
0001
0100
0001
1000
0100
0010
0001
0100
0010
1000
0001
0100
0010
1000
0010
1000
,
0001
0010
0001
1000
0010
1000
0100
1000
0001
0010
0100
0010
0001
1000
0100
1000
,
0001
0100
0001
0010
0001
1000
0100
0010
0001
1000
0010
1000
0100
1000
0001
1000
,
0001
0100
0001
0010
0001
1000
0100
0010
0001
1000
0010
1000
0100
1000
0001
1000
,
0001
0100
0001
0010
0001
1000
0100
0010
0001
1000
0010
1000
0100
1000
0001
1000
,
0001
0100
0001
0010
0001
1000
0100
0010
0001
1000
0010
1000
0100
1000
0001
1000
,
0001
0010
0001
0100
0001
1000
0010
0100
0001
1000
0100
1000
0010
1000
0001
1000
,
0001
0010
0001
0100
0001
1000
0010
0100
0001
1000
0100
1000
0010
1000
0001
1000
,
0001
0010
0001
0100
0001
1000
0010
0100
0001
1000
0100
1000
0010
1000
0001
0010
,
0001
1000
0010
1000
0100
1000
0001
1000
0001
0100
0001
0010
0001
1000
0100
0010
,
0001
0000
1000
0000
0001
0000
1000
0100
0000
0000
1000
0000
0001
0000
0100
0001
,
0000
0000
0100
0000
0001
0000
1000
0001
0000
0000
0010
0000
0100
0000
1000
0020
,
0030
0000
0100
0000
0001
0000
0100
0010
0000
0000
1000
0000
0100
0000
1000
0001
,
0000
0000
0100
0000
0001
0000
0100
0001
0000
0000
0010
0000
0100
0000
1000
0200
,
0300
0000
1000
0000
0010
0000
1000
0001
0000
0000
0100
0000
0001
0000
0100
0010
,
0100
0001
0100
0001
1000
0000
0000
0000
,
0001
0100
0001
0010
0100
1000
0000
0000
,
0001
0100
0001
0100
0000
0000
0000
0000
,
1001
0000
0001
0000
1000
0000
0001
0100
0000
0000
0010
0000
0100
0000
0010
1000
,
0000
0000
0001
0000
0100
0000
0001
1000
0000
0000
0100
0000
1000
0000
0100
0020
,
0030
0000
0001
0000
0100
0000
0001
1000
0000
0000
0010
0000
0100
0000
0010
1000
,
0000
0000
0001
0000
1000
0000
0001
0010
0000
0000
0001
0000
1000
0000
0010
0200
,
0300
0000
0010
0000
1000
0000
0001
1000
0000
0000
0100
0000
0010
0000
0100
0010
,
0000
0000
0001
0000
1000
0000
0010
0100
0000
0000
0001
0000
0010
0000
0100
2000
,
3000
0000
0010
0000
1000
0000
0010
1000
0000
0000
0001
0000
0010
0000
0001
1000
,
0000
0000
0001
0000
0100
0000
0001
1000
0000
0000
0010
0000
1000
0000
0010
2000
,
3001
0010
0001
1000
0010
0100
0001
0010
0100
1000
0001
0010
0100
1000
0100
1000
,
0001
0100
0001
1000
0100
1000
0010
1000
0001
0100
0010
0100
0001
1000
0010
1000
,
0001
0100
0001
1000
0100
0010
0001
0100
0010
1000
0001
0100
0010
1000
0010
1000
,
0001
0010
0001
1000
0010
1000
0100
1000
0001
0010
0100
0010
0001
1000
0100
1000
,
0001
0010
0001
1000
0010
0100
0001
0010
0100
1000
0001
0010
0100
1000
0100
1000
,
0001
0100
0001
1000
0100
1000
0010
1000
0001
0100
0010
0100
0001
1000
0010
1000
,
0001
0100
0001
1000
0100
0010
0001
0100
0010
1000
0001
0100
0010
1000
0010
1000
,
0001
0010
0001
1000
0010
1000
0100
1000
0001
0010
0100
0010
0001
1000
0100
1000
,
0001
0100
0001
0100
0010
0100
0001
1000
0100
1000
0100
0010
0100
1000
0010
1000
,
0001
0100
0001
0100
0010
0100
0001
1000
0100
1000
0100
0010
0100
1000
0001
0010
,
0001
0100
0001
0100
0010
0100
0001
1000
0100
1000
0100
0010
0100
1000
0010
1000
,
0001
0100
0001
0100
0010
0100
0001
1000
0100
1000
0100
0010
0100
1000
0001
0010
,
0001
1000
0100
1000
0100
1000
0001
0100
0010
1000
0001
0100
0001
0100
0010
1000
,
0001
1000
0100
1000
0100
1000
0001
0100
0010
1000
0001
0100
0001
0100
0010
1000
,
0001
0100
0010
1000
0010
1000
0001
0010
0100
1000
0001
0010
0001
0010
0100
1000
,
0001
0100
0010
1000
0010
1000
0001
0010
0100
1000
0001
0010
0001
0010
0100
1000
,
0001
0100
0001
1000
0100
0010
0001
0100
0010
1000
0001
0100
0010
1000
0010
1000
,
0001
0010
0001
1000
0010
1000
0100
1000
0001
0010
0100
0010
0001
1000
0100
1000
,
0001
0010
0001
1000
0010
0100
0001
0010
0100
1000
0001
0010
0100
1000
0100
1000
,
0001
0100
0001
1000
0100
1000
0010
1000
0001
0100
0010
0100
0001
1000
0010
1000
,
0001
0100
0001
1000
0100
0010
0001
0100
0010
1000
0001
0100
0010
1000
0010
1000
,
0001
0010
0001
1000
0010
1000
0100
1000
0001
0010
0100
0010
0001
1000
0100
1000
,
0001
0010
0001
1000
0010
0100
0001
0010
0100
1000
0001
0010
0100
1000
0100
1000
,
0001
0100
0001
1000
0100
1000
0010
1000
0001
0100
0010
0100
0001
1000
0010
1000
,
0001
0010
0001
0010
0100
0010
0001
1000
0010
1000
0010
0100
0010
1000
0100
1000
,
0001
0010
0001
0010
0100
0010
0001
1000
0010
1000
0010
0100
0010
1000
0001
0100
,
0001
0010
0001
0010
0100
0010
0001
1000
0010
1000
0010
0100
0010
1000
0100
1000
,
0001
0010
0001
0010
0100
0010
0001
1000
0010
1000
0010
0100
0010
1000
0001
0100
,
0001
1000
0010
1000
0010
1000
0001
0010
0100
1000
0001
0010
0001
0010
0100
1000
,
0001
1000
0010
1000
0010
1000
0001
0010
0100
1000
0001
0010
0001
0010
0100
1000
,
0001
0010
0100
1000
0100
1000
0001
0100
0010
1000
0001
0100
0001
0100
0010
1000
,
0001
0010
0100
1000
0100
1000
0001
0100
0010
1000
0001
0100
0001
0100
0010
1000
,
0001
0010
0001
1000
0010
0100
0001
1000
0100
1000
0100
1000
0001
1000
0001
0100
,
0010
1000
0010
0100
0001
1000
0100
0010
0001
0010
0001
1000
0001
1000
0100
1000
,
0001
0010
0001
1000
0010
0100
0001
1000
0100
1000
0100
1000
0001
1000
0001
0100
,
0010
1000
0010
0100
0001
1000
0100
0010
0001
0010
0001
1000
0001
0100
0010
0100
,
0001
0010
0001
1000
0010
0100
0001
1000
0100
1000
0100
1000
0001
1000
0001
0100
,
0010
1000
0010
0100
0001
1000
0100
0010
0001
0010
0001
1000
0100
1000
0100
1000
,
0001
0010
0001
1000
0010
0100
0001
1000
0100
1000
0100
1000
0001
1000
0001
0100
,
0010
1000
0010
0100
0001
1000
0001
0010
0100
0010
0100
1000
0001
1000
0010
0100
,
0001
0100
0001
1000
0100
0010
0001
1000
0010
1000
0010
1000
0001
1000
0001
0010
,
0100
1000
0100
0010
0001
1000
0010
0100
0001
0100
0001
1000
0010
1000
0010
1000
,
0001
0100
0001
1000
0100
0010
0001
1000
0010
1000
0010
1000
0001
1000
0001
0010
,
0100
1000
0100
0010
0001
1000
0010
0100
0001
0100
0001
1000
0010
1000
0100
1000
,
0001
0100
0001
1000
0100
0010
0001
1000
0010
1000
0010
1000
0001
1000
0001
0010
,
0100
1000
0100
0010
0001
1000
0010
0100
0001
0100
0001
1000
0010
1000
0010
1000
,
0001
0100
0001
1000
0100
0010
0001
1000
0010
1000
0010
1000
0001
1000
0001
0010
,
0100
1000
0100
0010
0001
1000
0001
0100
0010
0100
0010
1000
0001
1000
0100
0010
,
0001
0100
0010
1000
0010
1000
0100
0010
0001
1000
0100
0010
0001
0010
0001
1000
,
0010
0100
0001
1000
0001
1000
0100
0010
0001
0100
0001
1000
0100
1000
0100
0010
,
0001
1000
0010
0100
0010
0100
0001
0010
0001
1000
0010
0100
0001
0100
0001
1000
,
0010
1000
0001
0010
0001
0010
0100
1000
0001
0100
0010
1000
0100
1000
0100
0010
,
0001
1000
0001
0100
0001
0100
0010
1000
0100
0010
0001
1000
0100
1000
0100
0010
,
0001
1000
0010
0100
0010
0100
0001
0010
0100
1000
0001
0010
0100
0010
0100
1000
,
0001
0100
0010
1000
0010
1000
0100
0010
0001
1000
0100
0010
0001
0010
0001
1000
,
0100
0010
0001
1000
0001
1000
0010
0100
0001
0010
0001
1000
0100
1000
0100
0010
,
0001
0010
0100
1000
0100
1000
0010
0100
0001
1000
0010
0100
0001
0100
0001
1000
,
0100
0010
0001
1000
0001
1000
0010
0100
0001
0010
0001
1000
0010
1000
0010
0100
,
0001
1000
0100
0010
0100
0010
0001
0100
0001
1000
0100
0010
0001
0010
0001
1000
,
0100
1000
0001
0100
0001
0100
0010
1000
0001
0010
0100
1000
0010
1000
0010
0100
,
0001
1000
0001
0010
0001
0010
0100
1000
0010
0100
0001
1000
0010
1000
0010
0100
,
0001
1000
0100
0010
0100
0010
0001
0100
0010
1000
0001
0100
0010
0100
0010
1000
,
0001
0010
0100
1000
0100
1000
0010
0100
0001
1000
0010
0100
0001
0100
0001
1000
,
0010
0100
0001
1000
0001
1000
0100
0010
0001
0100
0001
1000
0010
1000
0010
0100
,
0001
1000
0100
0010
0100
1000
0100
0010
0001
1000
0010
0100
0010
1000
0010
0100
,
0001
0010
0001
1000
0001
0010
0001
1000
0010
0100
0001
0100
0010
0100
0001
0100
,
0010
1000
0001
1000
0010
1000
0001
1000
0100
0010
0100
1000
0100
0010
0100
1000
,
0001
0100
0001
1000
0001
0100
0001
1000
0010
0100
0010
1000
0010
0100
0010
1000
,
0001
0010
0100
0010
0001
0010
0100
0010
0001
1000
0010
1000
0001
1000
0010
1000
,
0001
0010
0001
1000
0001
0010
0001
1000
0010
0100
0010
1000
0010
0100
0010
1000
,
0001
0010
0100
0010
0001
0010
0100
0010
0001
1000
0001
0100
0001
1000
0001
0100
,
0010
1000
0010
0100
0010
1000
0010
0100
0001
1000
0100
1000
0001
1000
0100
1000
,
0002
0000
0000
0000
,
0003
0000
0000
0000
;
