#TITLE:KICK THE CAN;
#SUBTITLE:;
#ARTIST:BUS★STOP;
#TITLETRANSLIT:;
#SUBTITLETRANSLIT:;
#ARTISTTRANSLIT:BUS STOP;
#CREDIT:;
#BANNER:KICK THE CAN.png;
#BACKGROUND:KICK THE CAN-bg.png;
#LYRICSPATH:;
#CDTITLE:;
#MUSIC:KICK THE CAN.ogg;
#OFFSET:-0.040;
#SAMPLESTART:63.320;
#SAMPLELENGTH:12.000;
#SELECTABLE:YES;
#DISPLAYBPM:144.000;
#BPMS:0.000=144.050;
#STOPS:;
#BGCHANGES:;
// cache tags:
#FIRSTBEAT:0.000;
#LASTBEAT:220.000;
#SONGFILENAME:Songs/Rodd's Revival/KICK THE CAN (Rodd Steps)/KICK THE CAN.sm;
#HASMUSIC:1;
#HASBANNER:1;
#MUSICLENGTH:92.879;
// end cache tags

//---------------dance-double - RODD Style!----------------
#NOTES:
     dance-double:
     RODD Style!:
     Challenge:
     9:
     1.000,1.000,1.000,0.129,0.092,324.000,265.000,12.000,82.000,87.000:

MMMM0000
0000M000
M0000000
0000M000
M0000000
0000M000
M00M0000
00M00000
M00M0000
0000M000
M0000000
0000M000
MMMM0000
00000000
0000M000
00000000
,
0000M000
0000M000
0000M000
0000MMMM
M00M0000
M00M0000
M00M0000
M00M0000
,
M00M0000
00000000
MMMM0000
00000000
00000000
000MMMM0
00000000
000M0000
00000000
000MMM00
00000000
000M0000
00000000
000MMMM0
00000000
00000000
,
0MM00MM0
000MM000
M000000M
00000000
M00MM00M
00000000
M0M00M0M
000MM000
0M0000M0
00000000
00M00M00
00000000
000MM000
000MM000
00000000
00000000
,
10101010
00000000
00100010
00000000
10000100
00000001
01001000
00000100
,
11001100
00000000
00110011
00000000
00010001
01000000
00101000
10000000
,
10101100
00000000
10011001
00000000
10001000
01000010
00100100
01000010
,
10001000
01000100
00100010
01000100
10001000
00010001
01000100
00100010
,
01100110
00000000
10100011
00000000
10000001
01000000
10000100
00010000
,
10010110
00000000
11000101
00000000
01000010
00001000
00100100
00000010
,
01100110
00000000
00111100
00000000
00010100
01000010
00100001
10000100
,
01000010
00100100
01000001
10001000
00010100
00000000
11111111
00000000
,
00100010
00000000
10000001
00000000
01000100
00100000
01000010
00100000
,
01100110
00000000
00111010
00000000
01011000
00000100
01100010
00000100
,
10100110
00000000
10000010
01000001
00100100
00000000
00010010
01001000
00100100
00000000
10000010
01000100
10000010
00000000
01000100
00000000
,
10001000
00010001
01000100
00100010
10001000
01000100
10001000
00010001
,
01010101
00000000
10100110
00000000
10001000
01000000
00100100
00010000
,
00110110
00000000
01011100
00000000
01001000
00000001
00100100
00000010
,
01100110
00000000
10101010
00000000
10001000
01000100
00010001
01000100
,
10001000
00010001
01000100
00100010
10001000
00000000
20022002
30033003
,
10000001
01000000
10000100
00010000
01000010
00001000
00100100
10000000
,
01000010
10000000
00010001
00000100
01000010
00001000
00100100
10000000
,
00011000
01000000
00010001
00000100
10000010
00001000
01000001
00000000
,
00100100
00010000
01000010
00100000
10001000
00000100
00010010
00000000
,
01000110
00100000
10000011
01000000
10000101
00010000
01000110
00000000
,
01100010
00001000
10100100
00000010
11000100
00001000
01100001
00100100
,
00010010
01001000
00100100
10000010
01000100
00101000
01000001
00000000
,
10000100
00010010
01001000
00100100
10000010
00000000
11000011
00000000
,
20000002
30200203
00322300
02033020
,
13000031
00100100
01000010
00011000
10000100
01000010
00100001
00000000
,
00110011
10010110
10101010
11001100
,
10001000
01000100
00010001
01000100
10001000
01000100
00010001
00000000
,
01010101
01100110
00110011
01010101
,
01100110
00100010
10001000
10001000
01000100
01000100
00100010
00010100
,
00110110
00000000
00000000
00010010
01010011
00000000
00000000
01000001
,
01100101
00000000
00000000
00100100
10100110
00000000
00000000
10000010
,
11001010
01001000
01101100
00100100
00110110
00010010
01010011
01000001
,
01100101
00100001
10101001
10000001
11000101
10000001
10011001
00011000
,
01000100
00000000
00100010
00000000
10000001
00000100
01000010
00001000
,
01101100
00000000
00110011
00000000
00010001
01000000
00101000
10000000
,
10101010
00000000
11001100
00000000
10000100
00000010
00010001
00000010
,
01000100
00101000
10000100
01000001
00010100
01001000
10000001
00010100
,
01010101
00000000
01100110
00000000
00100100
10000000
01000001
00100000
,
01100011
00000000
00111100
00000000
00011000
00000001
01001000
00000100
,
01011100
00000000
10100110
00000000
10000010
01000000
10000001
01000000
,
00100100
00000010
00010100
00000010
10001000
00000000
11001010
00000000
,
01101100
00000000
00111010
00000000
00011000
01000010
00100100
10000001
,
11000101
00000000
00111010
00000000
00010010
01000000
00100100
01000000
,
01100110
00000000
10101010
00000000
10000000
01000000
00100000
00010000
,
00101000
00000100
01000010
00000001
10000010
00000100
00011000
01000100
,
01101100
00000000
10100110
00000000
10000010
01000001
00100010
01000001
,
01100011
00000000
00110101
00000000
00010100
01000010
00010100
01000010
,
01010110
00000000
01101010
00000000
00101000
10000010
00101000
10000010
,
10111010
00001100
01110110
00000011
,
11010101
00000110
10111010
01101100
,
11111111
00000000
00000000
00000000
;
