#TITLE:Out of the Ashes;
#SUBTITLE:The Divine Wings of Tragedy (1997);
#ARTIST:Symphony X;
#TITLETRANSLIT:;
#SUBTITLETRANSLIT:;
#ARTISTTRANSLIT:;
#CREDIT:SulferDragon;
#BANNER:Out of the Ashes-banner.png;
#BACKGROUND:Out of the Ashes-bg.png;
#LYRICSPATH:;
#CDTITLE:!SulferDragon.png;
#MUSIC:Out of the Ashes.mp3;
#OFFSET:1.068;
#SAMPLESTART:69.792;
#SAMPLELENGTH:17.200;
#SELECTABLE:YES;
#BPMS:0.000=137.200;
#STOPS:;
#BGCHANGES:;
// cache tags:
#FIRSTBEAT:4.000;
#LASTBEAT:497.250;
#SONGFILENAME:Songs/Astronomic Metal Collection/Out of the Ashes (SulferDragon)/Out of the Ashes.sm;
#HASMUSIC:1;
#HASBANNER:1;
#MUSICLENGTH:220.348;
// end cache tags

//---------------dance-single - ----------------
#NOTES:
     dance-single:
     :
     Hard:
     13:
     1.000,1.000,1.000,0.917,1.000,1694.000,361.000,202.000,0.000,25.000:
0000
0000
0000
0000
,
2001
3000
0011
0000
0011
0000
0011
0000
0011
0000
0011
0000
0011
0000
0011
0000
,
0011
0000
0011
0000
0011
0000
0011
0000
0011
0000
0011
0000
0011
0000
0011
1000
,
2001
3000
0011
0000
0011
0000
0011
0000
0011
0000
0011
0000
0011
0000
0011
0000
,
0011
0000
0011
0000
0011
0010
0010
0010
0022
0000
0000
0033
0202
0000
0000
0303
,
0220
0000
0000
0330
2020
0000
0000
3030
2200
0000
0000
3300
0202
0000
0000
0303
,
0012
0000
0100
0100
0103
0001
0010
0100
1001
0010
1000
0100
0010
1000
0100
1000
,
0010
0100
0010
0100
0001
0010
0100
0010
0001
1000
0100
0010
0001
0100
0001
0010
,
0001
0100
1000
0010
1001
0100
1000
0010
0001
0010
0100
0010
0100
1000
0001
0010
,
0100
0001
1000
0000
0100
0000
0010
0000
0100
0000
0010
0000
0001
0000
0100
0000
0010
0000
1000
0000
0100
0000
0010
0000
0001
0000
0010
0000
0100
0000
0100
0000
,
1001
0010
1000
0100
0010
1000
0100
1000
0010
0100
0010
0100
0001
0010
0100
0010
,
0001
1000
0100
0010
0001
0100
0001
0010
0001
0100
1000
0010
1001
0100
1000
0010
,
0001
0000
0010
0000
0100
0000
0010
0000
0100
0000
1000
0000
0001
0000
0010
0000
0100
0001
1000
0000
0100
0000
0010
0000
0100
0000
0010
0000
0001
0000
0100
0000
,
0010
1000
0100
0010
0001
0010
0100
1000
0011
0100
1000
0001
0110
1000
0010
0001
,
1100
0000
0000
0010
0000
0000
1000
0000
0000
0100
0000
0000
1010
0000
0001
0000
1000
0000
0010
0000
0010
0000
0010
0000
1001
0000
0000
0100
0000
0000
0001
0000
0000
0010
0000
0000
0101
0000
0000
1000
0000
0000
0100
0000
0000
0001
0000
0000
,
1010
0100
0010
1000
0110
0001
0100
0010
1001
0100
1000
0010
1100
0001
0100
0001
,
1010
0001
0100
0010
1000
0001
1100
0010
0101
1000
0001
0100
1010
0100
1000
0100
,
1001
0010
0100
0010
1100
0001
0010
0100
1001
0010
0100
0010
0101
1000
0010
0100
,
0011
1000
0010
0010
0010
1000
0100
0010
1001
0100
0010
1000
0100
0010
0100
0010
,
0001
0100
0010
0100
0001
1000
0100
0010
0001
0100
0010
1000
0100
0010
0100
0010
,
0001
0100
1000
0010
0001
0100
0010
1000
0001
0010
0100
0010
1000
0001
0010
0100
,
0001
0010
0100
0010
1000
0100
0001
0010
0100
0001
1010
0100
0011
0100
1001
0010
,
2200
0000
0000
0000
0000
0000
0000
0000
0000
3300
0000
0000
0202
0000
0000
0000
0000
0000
0000
0000
0000
0303
0000
0000
2020
0000
0000
0000
0000
0000
0000
0000
0000
3030
0000
0000
2001
0000
0000
0000
0010
0000
0001
0000
0100
3000
0010
0000
,
1000
0101
0000
0011
0000
0101
0000
0110
,
2010
0000
0100
0010
,
3101
0010
0100
0001
1000
0100
0010
0100
0010
0001
1100
0010
1000
0101
1000
0100
,
1002
0003
0020
0030
1000
0000
0012
0003
0200
0300
0001
0000
0020
0030
0200
0300
1000
0000
0010
0000
1000
0000
0001
0000
0100
0000
0010
0000
0100
0000
0010
0000
,
0002
0003
2000
3000
0101
0000
0010
0000
1100
0000
0001
0000
1010
0000
0110
0000
0001
0000
0010
0000
1100
0000
0010
0000
0101
0000
1000
0000
0110
0000
1010
0000
,
0002
0003
0020
0030
1100
0000
0002
0003
0210
0300
1000
0000
0021
0030
0200
0300
1010
0000
1100
0000
0010
0000
0101
0000
0010
0000
0000
0000
0010
0000
0010
0000
,
1001
0010
0100
0001
1000
0100
0010
0100
0010
0001
1100
0010
1000
0101
1000
0100
,
1002
0003
0020
0030
1000
0000
0012
0003
0200
0300
0001
0000
0020
0030
0200
0300
1000
0000
0010
0000
1000
0000
0001
0000
0100
0000
0010
0000
0100
0000
0010
0000
,
0002
0003
2000
3000
0101
0000
0010
0000
1100
0000
0001
0000
1010
0000
0110
0000
0001
0000
0010
0000
1100
0000
0010
0000
0101
0000
1000
0000
0110
0000
1000
0000
,
0102
0003
0020
0030
1100
0000
0002
0003
0210
0300
1000
0000
0021
0030
0200
0300
1001
0000
0011
0000
0100
0000
1010
0000
0001
0000
0010
0000
1000
0000
0100
0000
,
1001
0000
0000
0000
1010
0100
0000
0100
0000
0010
0100
0010
0101
0000
0000
0000
,
0100
0010
0000
0100
1010
0100
0010
0100
0001
1000
0101
1000
0010
0000
0000
0000
,
1010
0100
0000
0100
0000
0010
0100
0010
0101
0000
0000
0000
0100
0010
0000
0100
,
1010
0100
0010
0100
0001
1000
0101
1000
0010
0000
0000
0000
1010
0100
0000
0100
,
0000
0010
0100
0010
0101
0000
0000
0000
0100
0010
0000
0100
1010
0100
0010
0100
,
0001
1000
0100
1000
0210
0000
1000
0000
0000
0000
1000
0000
0321
0000
0000
0000
,
0000
1000
0231
1000
0000
1000
0312
0000
,
0000
0000
0103
0100
2100
0000
0000
0000
3200
0000
0000
0000
2300
0000
0000
0000
,
3020
0000
0000
0000
0000
0000
0000
0000
0230
0000
0000
0000
0000
0000
0000
0000
0312
0000
0000
0000
0010
0000
0010
0000
1203
0300
0001
0000
0010
0000
1000
0000
,
0101
0000
1000
0000
0100
0000
0001
0000
0210
0300
1000
0000
0010
0000
0001
0000
1100
0000
0010
0000
0100
0000
0010
0000
0102
0003
1000
0000
0001
0000
0010
0000
,
1001
0000
0100
0000
0010
0000
0100
0000
1020
0030
0001
0000
0100
0000
0001
0000
0110
0000
1000
0000
0100
0000
0010
0000
0201
0300
1000
0000
0010
0000
0100
0000
,
0011
0000
1000
0000
0100
0000
2000
3000
0210
0300
0001
0000
0010
0000
0100
0000
0010
0000
0001
0000
1100
0000
0020
0030
0201
0300
1000
0000
0001
0000
0100
0000
,
2000
0000
0001
0000
3200
0000
0001
0000
0320
0000
0100
0100
1032
0000
0100
0000
,
0113
0000
1000
0000
0100
0000
0001
0000
1020
0030
0100
0000
0010
0000
0100
0000
1001
0000
0010
0000
0001
0000
0100
0000
0021
0030
0100
0000
1000
0000
0001
0000
,
1010
0000
0100
0000
0001
0000
2000
3000
0210
0300
0001
0000
0100
0000
1000
0000
0101
0000
0010
0000
1000
0000
0020
0030
2001
3000
0100
0000
0010
0000
0001
0000
,
1010
0000
0100
0000
0010
0000
1000
0000
0201
0300
1000
0000
0010
0000
0001
0000
0110
0000
0001
0000
0010
0000
0100
0000
0011
0000
0100
0000
1000
0000
0010
0000
,
0001
0010
1000
0100
0010
0100
0010
0001
0100
0010
0001
1000
0101
0000
1000
0110
,
0000
0000
0000
1000
0000
0000
0102
0000
0000
0000
0000
0000
0000
0000
0000
0000
0000
0000
0100
0000
0000
0000
0000
0000
0000
0000
0000
0000
0000
0000
0103
0000
0000
0100
0000
0000
1001
0000
0000
0000
0000
0000
0010
0000
0001
0000
0010
0000
,
0100
1000
0000
1000
0001
0100
0010
0100
1000
0100
0010
0100
0001
0100
0010
0100
,
1000
0010
0100
0002
0000
0000
0000
0000
0000
0000
1003
0100
0020
0000
0000
0000
,
0031
0000
0000
0000
0000
0000
0100
0000
0000
0000
0000
0000
0010
0000
0000
0000
0000
0000
0000
0000
0000
1000
0000
0000
0000
0000
0000
0000
0000
0000
0000
0000
0001
0000
0000
0000
0000
0000
0000
0000
0000
0000
0000
0000
0000
0000
0000
0000
0200
0000
0000
0000
0000
0000
0000
0000
0000
0000
0000
0000
0000
0000
0000
0000
0000
0000
0000
0000
0000
0000
0000
0000
0000
0000
0000
0000
0000
0000
0000
0000
0000
0000
0000
0000
0000
0000
0000
0000
0000
0000
0000
0000
0000
0000
0000
0000
0000
0000
0000
0000
0000
0000
0000
0000
0000
0000
0000
0000
0000
0000
0000
0000
0000
0000
0000
0000
0000
0000
0000
0000
0000
0000
0000
0000
0000
0000
0000
0000
0300
0000
0000
0000
0000
0000
0000
0000
0000
0000
0000
0000
0000
0000
0000
0000
0101
0000
0000
0000
0000
0000
0000
0000
0010
0000
0000
0000
0000
0000
0000
0000
0100
0000
0000
0000
0000
1000
0000
0000
0000
0000
0000
0000
0000
0000
0000
0000
0000
0100
0000
0000
0000
0000
0000
0000
0010
0000
0000
0000
0000
0000
0000
0000
,
0100
0000
0000
0000
0000
0000
0000
0000
0000
0000
0000
0000
0010
0000
0000
0000
0000
0000
0000
0000
0000
0001
0000
0000
0000
0000
0000
0100
0000
0000
0000
0000
0010
0000
0000
0000
0001
0000
0000
1000
0000
0000
0000
0000
0000
0000
0000
0000
0110
0000
0000
0000
0000
0000
1000
0000
0000
0000
0000
0000
0000
0000
0000
0001
0000
0000
0000
0000
0000
0000
0000
0000
0010
0000
0000
0000
0000
0000
0000
0000
0100
0000
0000
0000
0000
0000
0000
0000
0000
0000
0000
0000
0010
0000
0000
0000
0000
0000
0000
0000
0000
0000
0000
0000
0000
1000
0000
0000
0000
0000
0000
0000
0000
0000
0000
0000
0000
0000
0000
0000
0010
0000
0000
0000
0000
0000
0000
0000
0000
0000
0000
0000
0000
0000
0000
0000
0000
0000
0000
0000
0000
0000
0000
0000
1100
0000
0000
0000
0000
0000
0000
0000
0000
0000
0000
0000
0001
0000
0000
0000
0000
0000
0000
0000
0000
0000
0000
0000
0010
0000
0000
0000
0000
0000
0000
0000
0000
0000
0000
0000
0101
0000
0000
0000
0000
0000
0000
0000
0000
0000
0000
0000
,
1000
0000
0100
0000
1010
0000
0100
0000
0011
0000
1000
0000
0010
0000
0001
0000
0010
0000
0100
0000
1010
0000
0100
0000
1002
0003
0020
0030
1000
0000
0012
0003
,
0200
0300
1000
0000
0021
0030
0200
0300
1010
0000
0001
0000
0100
0000
1000
0000
0001
0000
0010
0000
0001
0000
0100
0000
0002
0003
2000
3000
0110
0000
0001
0000
,
1010
0000
0100
0000
1001
0000
0010
0000
0101
0000
1000
0000
0011
0000
0110
0000
0001
0000
0100
0000
0011
0000
0100
0000
1002
0003
0120
0030
1000
0000
0012
0003
,
0200
0300
0001
0000
0020
0030
0200
0300
1010
0000
0101
0000
1000
0000
0011
0000
0100
0000
0001
0000
0010
0000
0100
0000
1010
0000
0000
0000
0000
0000
1010
0000
,
0000
0000
1010
0000
0001
0001
1010
0000
0000
1010
0000
0000
1010
0000
0001
0001
,
1010
0000
0000
0000
0000
0000
1010
0000
0000
0000
0000
0000
1010
0000
0000
0000
0001
0000
0001
0000
0001
0000
0001
0000
0200
0300
0020
0030
1100
0000
0001
0000
,
0110
0000
0011
0000
0100
0000
1001
0000
0100
0000
0010
0000
1100
0000
0001
0000
0110
0000
0001
0000
1010
0000
0100
0000
1002
0003
0020
0030
1100
0000
0002
0003
,
0210
0300
1000
0000
0021
0030
0200
0300
1001
0000
0010
0000
0101
0000
0010
0000
1001
0000
0010
0000
0101
0000
0010
0000
1001
0000
0000
0000
0000
0000
0000
0000
,
1010
0100
0000
0100
0000
0010
0100
0010
0101
0000
0000
0000
0100
0010
0000
0100
,
1010
0100
0010
0100
0001
1000
0101
1000
0010
0000
0000
0000
1010
0100
0000
0100
,
0000
0010
0100
0010
0101
0000
0000
0000
0100
0010
0000
0100
1010
0100
0010
0100
,
0001
1000
0101
1000
0010
0000
0000
0000
1010
0100
0000
0100
0000
0010
0100
0010
,
0101
0000
0000
0000
0100
0010
0000
0100
1010
0100
0010
0100
0001
1000
0100
1000
,
0210
1000
0000
1000
0321
0000
0000
1000
,
0231
0000
1000
0000
0000
0000
1000
0000
0312
0000
0000
0000
0000
0000
0103
0100
,
2100
3200
2300
3020
,
0230
0000
0000
0000
0000
0000
0000
0000
0000
0000
0000
0000
0000
0000
0000
0000
0000
0000
0000
0000
0000
0000
0000
0000
0001
0000
0000
0000
0000
0000
0000
0000
0010
0000
0000
0000
0000
0000
0000
0000
1000
0000
0000
0000
0000
0000
0000
0000
0302
0000
0000
0000
0000
0000
0000
0000
0000
0000
0000
0000
0100
0000
0000
0000
0000
0000
0000
0000
0000
0000
0000
0000
1000
0000
0000
0000
0000
0000
0000
0000
0000
0000
0000
0000
0010
0000
0000
0000
0000
0000
0000
0000
0000
0000
0000
0000
1203
0000
0000
0000
0000
0000
0300
0000
0000
0000
0000
0000
0001
0000
0000
0000
0000
0000
0000
0000
0000
0000
0000
0000
0010
0000
0000
0000
0000
0000
0000
0000
0000
0000
0000
0000
1000
0000
0000
0000
0000
0000
0000
0000
0000
0000
0000
0000
0101
0000
0000
0000
0000
0000
0000
0000
0000
0000
0000
0000
1000
0000
0000
0000
0000
0000
0000
0000
0000
0000
0000
0000
0100
0000
0000
0000
0000
0000
0000
0000
0000
0000
0000
0000
0001
0000
0000
0000
0000
0000
0000
0000
0000
0000
0000
0000
,
0210
0300
1000
0000
0010
0000
0001
0000
1100
0000
0010
0000
0100
0000
0010
0000
0102
0003
1000
0000
0001
0000
0010
0000
1001
0000
0100
0000
0010
0000
0100
0000
,
1020
0030
0001
0000
0100
0000
0001
0000
0110
0000
1000
0000
0100
0000
0010
0000
0201
0300
1000
0000
0010
0000
0100
0000
0011
0000
1000
0000
0100
0000
2000
3000
,
0210
0300
0001
0000
0010
0000
0100
0000
0010
0000
0001
0000
1100
0000
0020
0030
0201
0300
1000
0000
0001
0000
0100
0000
2000
0000
0000
0000
0001
0000
0000
0000
,
3200
0000
0001
0000
0320
0000
0100
0100
1032
0000
0100
0000
0113
1000
0100
0001
,
1020
0030
0100
0000
0010
0000
0100
0000
1001
0000
0010
0000
0001
0000
0100
0000
0021
0030
0100
0000
1000
0000
0001
0000
1010
0000
0100
0000
0001
0000
2000
3000
,
0210
0300
0001
0000
0100
0000
1000
0000
0101
0000
0010
0000
1000
0000
0020
0030
2001
3000
0100
0000
0010
0000
0001
0000
1010
0000
0100
0000
0010
0000
1000
0000
,
0201
0300
1000
0000
0010
0000
0001
0000
0110
0000
0001
0000
0010
0000
0100
0000
0011
0000
0100
0000
1000
0000
0010
0000
0001
0000
0010
0000
1000
0000
0100
0000
,
0010
0100
0010
0001
0100
0010
0001
1000
0101
0000
1000
0110
0000
1000
0102
0000
,
0000
0000
0000
0100
0000
0000
0010
0000
0000
0013
0000
0000
1001
0000
0000
0000
0000
0000
1010
0100
0010
0001
1000
0100
,
0011
0100
1000
0011
1000
0100
0010
0001
0100
1010
0100
0001
1010
0001
0100
0010
1000
0100
0011
0100
0010
0001
1000
0100
,
0010
0000
0000
0000
0000
0000
0000
0000
0000
0000
0000
0000
0010
0000
0000
0000
0000
0000
0000
0000
0000
0000
0000
0000
0010
0000
0000
0000
0000
0000
0000
0000
0000
0000
0000
0000
0010
0000
0000
0000
0000
0000
0000
0000
0000
0000
0000
0000
0010
0000
0000
0000
0000
0000
0000
0000
0000
0000
0000
0000
0010
0000
0000
0000
0000
0000
0000
0000
0000
0000
0000
0000
0010
0000
0000
0000
0000
0000
0000
0000
0000
0000
0000
0000
0010
0000
0000
0000
0000
0000
0000
0000
0000
0000
0000
0000
1001
0000
0000
0000
0000
0000
0000
0000
0000
0000
0000
0000
0000
0000
0000
0000
0001
0000
0000
0000
0000
0000
0000
0000
0000
0000
0000
0000
0000
0000
0000
0000
0001
0000
0000
0000
0000
0000
0000
0000
0000
0000
0000
0000
0000
0000
0000
0000
0001
0000
0000
0000
0000
0000
0000
0000
0000
0000
0000
0000
0010
0000
0000
0000
0000
0000
0000
0000
1000
0000
0000
0000
0000
0000
0000
0000
0100
0000
0000
0000
0000
0000
0000
0000
0000
0000
0000
0010
0000
0000
0000
0000
0000
0000
0000
0000
,
0002
0000
0000
0000
0000
0000
0000
0000
0000
0000
0000
0000
0000
0000
0000
0000
0000
0000
0000
0000
0000
0000
0000
0000
0000
0000
0000
0000
0000
0000
0000
0000
0000
0000
0000
0000
0000
0000
0000
0000
0000
0000
0000
0000
0000
0000
0000
0000
0003
0000
0000
0000
0000
0000
0000
0000
0000
0000
0000
0000
1000
0000
0000
0000
0000
0000
0000
0000
0000
0000
0000
0000
0100
0000
0000
0000
0000
0000
0000
0000
0010
0000
0000
0000
0000
0000
0000
0000
0100
0000
0000
0000
0000
0010
0000
0000
0000
0000
0000
0000
0000
0000
0001
0000
0000
0000
0000
0000
0100
0000
0000
0000
0000
0000
0010
0000
0000
0000
0000
0000
0001
0000
0000
0000
0000
0000
0000
0000
1000
0000
0000
0000
0000
0000
0000
0100
0000
0000
0000
0000
0000
0000
0000
0000
0010
0000
0000
0000
0000
0000
0100
0000
0000
0000
0000
0000
0010
0000
0000
0000
0000
0000
0001
0000
0000
0000
0000
0000
0100
0000
0000
0000
0000
0000
0010
0000
0000
0000
0000
0000
1000
0000
0000
0000
0000
0000
0000
0000
0100
0000
0000
0000
,
0000
0000
0000
0000
0000
0000
0010
0000
0000
0000
0000
0000
0000
0000
0000
0000
0001
0000
0000
0000
0000
0000
0000
0000
1000
0000
0000
0000
0000
0000
0000
0000
0000
0000
0000
0000
0100
0000
0000
0000
0000
0000
0000
0000
0000
0000
0000
0000
0020
0000
0000
0000
0000
0000
0000
0000
0000
0000
0000
0000
0000
0000
0000
0000
0000
0000
0000
0000
0000
0000
0000
0000
0000
0000
0000
0000
0000
0000
0000
0000
0000
0000
0000
0000
0000
0000
0000
0000
0000
0000
0000
0000
0000
0000
0000
0000
0000
0000
0000
0000
0000
0000
0000
0000
0000
0000
0000
0000
0000
0000
0000
0000
0000
0000
0000
0000
0000
0000
0000
0000
1030
0000
0000
0000
0000
0000
0000
0000
0000
0000
0000
0000
0100
0000
0000
0000
0000
0000
0000
0000
0000
0000
0000
0000
0010
0000
0000
0000
0000
0000
0000
0000
0000
0000
0000
0000
1000
0000
0000
0000
0000
0000
0000
0000
0000
0000
0000
0000
0100
0000
0000
0000
0000
0000
0000
0000
0000
0000
0000
0000
0010
0000
0000
0000
0000
0000
0000
0000
0000
0000
0000
0000
,
0100
0000
0000
0000
0000
0000
0000
0000
0010
0000
0000
0000
0000
0000
0000
0000
0001
0000
0000
0000
0000
0000
0000
0000
0100
0000
0000
0000
0000
0000
0000
0000
0000
0010
0000
0000
0000
0000
0000
0000
1000
0000
0000
0000
0000
0000
0000
0000
0100
0000
0000
0000
0000
0000
0000
0000
0000
0000
0000
0000
0001
0000
0000
0000
0000
0000
0000
0000
0000
0000
0000
0000
0100
0000
0000
0000
0000
0000
0000
0000
0000
0000
0000
0000
0010
0000
0000
0000
0000
0000
0000
0000
0000
0000
0000
0000
0001
0000
0000
0000
0000
0000
0000
0000
0000
0000
0000
0000
0100
0000
0000
0000
0000
0000
0000
0000
0000
0000
0000
0000
0010
0000
0000
0000
0000
0000
0000
0000
0000
0000
0000
0000
0001
0000
0000
0000
0000
0000
0000
0000
0000
0000
0000
0000
1000
0000
0000
0000
0000
0000
0000
0000
0000
0000
0000
0000
0010
0000
0000
0000
0000
0000
0000
0000
0000
0000
0000
0000
0001
0000
0000
0000
0000
0000
0000
0000
0000
0000
0000
0000
0100
0000
0000
0000
0000
0000
0000
0000
0000
0000
0000
0000
,
0010
0000
0000
0000
0000
0000
0000
0000
0001
0000
0000
0000
0000
0000
0000
0000
0010
0000
0000
0000
0000
0000
0000
0000
0001
0000
0000
0000
0000
0000
0100
0000
0000
0000
0000
0000
0010
0000
0000
0000
0000
0000
0000
0000
0000
1000
0000
0000
0000
0000
0000
0100
0000
0000
0000
0000
0000
0000
0000
0000
0010
0000
0000
0000
0000
0000
0100
0000
0000
0000
0000
0000
1000
0000
0000
0000
0000
0000
0000
0000
0000
0000
0000
0000
0000
0000
0000
0000
0000
0000
0000
0000
0000
0000
0000
0000
0010
0000
0000
0000
0000
0000
0000
0000
0000
0000
0000
0000
0000
0000
0000
0000
0000
0000
0000
0000
0000
0000
0000
0000
1000
0000
0000
0000
0000
0000
0000
0000
0001
0000
0000
0000
0000
0000
0000
0000
0100
0000
0000
0000
0000
0000
0000
0000
0010
0000
0000
0000
0000
0000
0000
0000
0100
0000
0000
0000
0000
0000
0000
0000
1000
0000
0000
0000
0000
0000
0000
0000
0010
0000
0000
0000
0000
0000
0000
0000
0000
0000
0000
0000
0000
0000
0000
0000
0000
0000
0000
0000
0000
0000
0000
0000
,
1000
0000
0000
0000
0000
0000
0000
0000
0001
0000
0000
0000
0000
0000
0000
0000
0100
0000
0000
0000
0000
0000
0000
0000
0010
0000
0000
0000
0000
0000
1000
0000
0000
0000
0000
0000
0100
0000
0000
0000
0000
0000
0010
0000
0000
0000
0000
0000
0100
0000
0000
0000
0000
0000
0010
0000
0000
0000
0000
0000
0000
0000
0000
0001
0000
0000
0000
0000
0000
0010
0000
0000
0000
0000
0000
0100
0000
0000
0000
0000
0000
0000
0000
0000
1000
0000
0000
0000
0000
0000
0000
0000
0000
0000
0000
0000
0010
0000
0000
0000
0000
0000
0000
0000
0000
0000
0000
0000
0100
0000
0000
0000
0000
0000
0000
0000
0000
0000
0000
0000
0001
0000
0000
0000
0000
0000
1000
0000
0000
0000
0000
0000
0100
0000
0000
0000
0000
0000
0010
0000
0000
0000
0000
0000
0100
0000
0000
0000
0000
0000
0010
0000
0000
0000
0000
0000
0000
0000
0000
0001
0000
0000
0000
0000
0000
0010
0000
0000
0000
0000
0000
0100
0000
0000
0000
0000
0000
0000
0000
0000
1000
0000
0000
0000
0000
0000
0000
0000
0000
0000
0000
0000
,
0001
1000
0010
0100
0010
0100
0001
0010
0100
1000
0100
1000
0001
0000
0000
0010
0100
1000
0010
0000
0000
0100
0000
0000
,
0001
0000
0000
0000
0000
0000
0100
0000
0010
0000
1000
0000
0200
0000
0000
0000
0000
0000
0000
0000
0000
0000
0000
0000
0311
0000
0100
0000
0001
0000
0010
0000
0000
1000
0000
0000
0110
0000
0001
0000
0010
0000
1000
0000
0000
0001
0000
0000
,
1100
0000
0000
0000
0000
0000
0000
0000
0010
0000
0000
0000
0000
0000
0000
0000
0100
0000
0000
0000
0000
0000
0000
0000
0001
0000
0000
0000
0000
0000
0000
0000
0000
0000
0000
0000
0010
0000
0000
0000
0000
0000
0000
0000
0000
0000
0000
0000
1001
0000
0000
0000
0000
0000
0000
0000
0100
0000
0000
0000
0000
0000
0000
0000
1000
0000
0000
0000
0000
0000
0000
0000
0010
0000
0000
0000
0000
0000
0000
0000
0000
0000
0000
0000
0100
0000
0000
0000
0000
0000
0000
0000
0000
0000
0000
0000
0011
0000
0000
0000
0000
0000
0000
0000
0000
0000
0000
0000
0000
0000
0000
0000
0000
0000
0000
0000
0000
0010
0000
0000
0000
0000
0000
0100
0000
0000
0000
0000
0001
0000
0000
0000
1000
0000
0000
0000
0000
0000
0000
0000
0000
0000
0000
0000
0010
0000
0000
0000
0000
0000
0000
0000
0000
0000
0000
0000
0000
0000
0000
0000
0000
0000
0000
0000
0000
0100
0000
0000
0000
0000
0000
0010
0000
0000
0000
0000
0001
0000
0000
0000
1000
0000
0000
0000
0000
0000
0000
0000
0000
0000
0000
0000
,
0100
0000
0000
0000
0000
0000
0000
0000
0000
0000
0000
0000
0010
0000
0000
0000
0000
0000
0001
0000
0000
0000
0000
0000
0100
0000
0000
0000
0000
0000
0000
0000
0010
0000
0000
0000
0000
0000
0000
0000
1000
0000
0000
0000
0000
0000
0000
0000
0101
0000
0000
0000
0000
0000
0000
0000
0000
0000
0000
0000
0101
0000
0000
0000
0000
0000
0000
0000
0000
0000
0000
0000
0010
0000
0000
0000
0000
0000
0000
0000
0000
0000
0000
0000
0010
0000
0000
0000
0000
0000
0000
0000
0000
0000
0000
0000
1100
0000
0000
0000
0000
0000
0000
0000
0001
0000
0000
0000
0000
0000
0000
0000
0100
0000
0000
0000
0000
0000
0000
0000
0010
0000
0000
0000
0000
0000
0000
0000
0100
0000
0000
0000
0000
0000
0000
0000
0010
0000
0000
0000
0000
0000
0000
0000
1000
0000
0000
0000
0000
0000
0000
0000
0001
0000
0000
0000
0000
0000
0000
0000
0100
0000
0000
0000
0000
0000
0000
0000
0010
0000
0000
0000
0000
0000
0000
0000
0100
0000
0000
0000
0000
0000
0000
0000
0010
0000
0000
0000
0000
0000
0000
0000
,
1000
0001
0100
0010
0100
0010
1000
0001
0100
0010
0100
0010
1000
0001
0010
0100
0010
0001
0100
0010
0100
1000
0100
0010
,
0001
0000
0100
0000
0010
0000
0102
0000
0000
0000
0000
0000
0000
0000
0000
0000
0000
0000
1013
0000
0100
0000
1000
0000
0020
0000
0000
0000
0000
0000
0000
0000
0000
0230
0000
0000
0000
0000
0000
0320
0000
0000
0032
0000
0000
0000
0000
0000
,
0000
0000
0000
0023
0000
0000
0000
0000
0000
0000
0000
0000
0230
0000
0000
0000
0000
0000
1300
0000
0100
0000
0010
0000
0001
0000
0000
0010
0000
0000
0100
0000
0000
0010
0000
0000
0100
0000
0000
1000
0000
0000
0010
0000
0000
0100
0000
0000
,
0011
0011
0011
0011
0100
0100
0100
0100
1020
0000
0130
1000
0010
0100
0002
0000
,
2003
0000
0000
0000
0000
0000
0000
0000
3200
0000
0000
0000
0320
0000
0000
0000
0000
0000
0000
0000
0000
0000
0000
0000
0230
0000
0000
0000
0000
0000
0000
0301
1000
0000
0000
0000
0010
0000
0000
0000
0100
0000
0000
0000
0001
0000
0000
0000
0010
0000
0000
0000
1000
0000
0000
0000
0001
0000
0000
0000
0010
0000
0000
0000
,
0100
0000
0000
0000
0010
0001
0000
0000
1100
0000
0000
0000
0010
0000
0000
0000
0001
0000
0000
0000
0100
0000
0000
0000
1010
0000
0000
0000
0100
0000
1000
0000
0010
0000
0000
0000
0100
0000
0000
0000
0001
0000
0000
0000
0010
0000
0000
0000
0100
0000
0000
0000
1000
0000
0000
0000
0010
0000
0000
0000
0100
0000
0000
0000
,
0010
0100
1000
0100
0010
0001
0010
0100
1000
0100
0010
1000
0001
0010
0100
0010
,
1000
0100
0010
0002
0000
0000
0203
0000
0311
1000
0100
0010
1001
0100
0010
1000
,
0101
0000
0000
1000
0010
0000
0000
0000
0001
0000
0000
0000
0100
0000
0000
0000
1010
0001
0000
0000
0100
0000
0000
0000
1010
0000
0000
0000
0100
0000
0000
0000
1001
0000
0000
0000
0010
0000
0000
0000
0100
0000
0000
0000
0010
0000
0000
0000
0101
0000
0000
0000
1000
0000
0000
0000
0010
0000
0000
0000
0100
0000
0000
0000
,
0011
1000
0010
0100
1001
0010
1001
0010
0101
1000
0001
0100
1001
0010
0100
0010
,
1100
0001
0100
0010
1100
0001
1100
0001
0120
0000
0000
0000
0132
0000
1000
0010
,
1203
0300
0001
0000
0010
0000
1000
0000
0101
0000
1000
0000
0100
0000
0001
0000
0210
0300
1000
0000
0010
0000
0001
0000
1100
0000
0010
0000
0100
0000
0010
0000
,
0102
0003
1000
0000
0001
0000
0010
0000
1001
0000
0100
0000
0010
0000
0100
0000
1020
0030
0001
0000
0100
0000
0001
0000
0110
0000
1000
0000
0100
0000
0010
0000
,
0201
0300
1000
0000
0010
0000
0100
0000
0011
0000
1000
0000
0100
0000
2000
3000
0210
0300
0001
0000
0010
0000
0100
0000
0010
0000
0001
0000
1100
0000
0020
0030
,
0201
0300
1000
0000
0001
0000
0100
0000
2000
0000
0000
0000
0001
0000
0000
0000
3200
0000
0000
0000
0001
0000
0000
0000
0320
0000
0001
0000
0100
0000
1000
0000
,
0132
0000
0000
0000
1000
0000
0000
0000
0113
0000
1000
0000
0100
0000
0001
0000
1020
0030
0100
0000
0010
0000
0100
0000
1001
0000
0010
0000
0001
0000
0100
0000
,
0021
0030
0100
0000
1000
0000
0001
0000
1010
0000
0100
0000
0001
0000
2000
3000
0210
0300
0001
0000
0100
0000
1000
0000
0101
0000
0010
0000
1000
0000
0020
0030
,
2001
3000
0100
0000
0010
0000
0001
0000
1010
0000
0100
0000
0010
0000
1000
0000
0201
0300
1000
0000
0010
0000
0001
0000
0110
0000
0001
0000
0010
0000
0100
0000
,
0011
0100
1000
0010
0001
0010
1000
0100
0010
0100
0010
0001
0100
0010
0001
1000
,
0101
0000
1000
0110
0000
0110
0000
0000
0101
0000
1000
0110
0000
0001
0100
0010
,
1200
0300
0001
0000
0100
0000
1000
0000
0101
0000
0010
0000
0100
0000
0001
0000
0210
0300
0001
0000
0100
0000
0001
0000
1100
0000
0010
0000
0101
0000
1000
0000
,
0002
0003
0100
0000
0011
0000
0100
0000
0010
0000
1000
0000
0010
0000
0001
0000
0120
0030
0001
0000
0010
0000
1100
0000
0010
0000
0100
0000
1001
0000
0010
0000
,
0200
0300
1000
0000
0001
0000
0010
0000
0101
0000
1000
0000
0001
0000
2000
3000
0210
0300
0001
0000
0010
0000
1000
0000
0100
0000
0010
0000
1100
0000
0020
0030
,
0201
0300
1000
0000
0100
0000
0010
0000
2000
0000
0000
0000
0001
0000
0000
0000
3200
0000
0000
0000
0001
0000
0000
0000
0320
0000
0001
0000
0100
0000
1000
0000
,
0132
0000
0000
0000
0010
0000
0000
0000
1103
0000
0010
0000
0100
0000
0001
0000
0120
0030
1000
0000
0100
0000
0010
0000
0100
0000
0010
0000
1001
0000
0100
0000
,
0021
0030
1000
0000
0010
0000
1000
0000
0101
0000
0010
0000
0100
0000
2000
3000
0210
0300
0001
0000
0010
0000
0100
0000
0010
0000
1000
0000
0110
0000
0020
0030
,
2001
3000
0100
0000
0001
0000
1000
0000
0011
0000
0100
0000
0010
0000
0001
0000
0200
0300
0001
0000
1010
0000
0100
0000
1000
0000
0110
0000
0001
0000
0010
0000
,
0101
1000
0100
0010
0100
0001
0010
0100
0010
0100
1000
0010
0100
0001
0100
1000
,
0101
0000
1000
0110
0000
1000
0102
0000
0000
0000
0100
0000
0000
0000
0103
0000
,
0101
0010
0100
0010
1100
0001
0010
0100
1001
0010
0001
0100
0011
0100
0010
1000
,
0110
0001
0010
0100
1010
0100
1000
0010
0201
0000
0000
0000
0000
0000
0000
0000
,
1320
0000
0000
0000
0000
0000
0000
0000
0000
0000
0000
0000
0132
0000
0000
0000
0000
0000
0000
0000
0000
1000
0100
0010
,
1000
0000
0000
0000
0000
0003
0000
0000
0000
0000
0000
0000
0000
0000
0000
0000
;
