#TITLE:Deep Breath;
#SUBTITLE:;
#ARTIST:Frequent Time;
#TITLETRANSLIT:;
#SUBTITLETRANSLIT:;
#ARTISTTRANSLIT:;
#CREDIT:Shortysnmn2010;
#BANNER:Deep Breath-bn.jpg;
#BACKGROUND:Deep Breath-bg.jpg;
#LYRICSPATH:;
#CDTITLE:CDTitle.png;
#MUSIC:Deep Breath.mp3;
#OFFSET:-0.460;
#SAMPLESTART:99.918;
#SAMPLELENGTH:11.960;
#SELECTABLE:YES;
#BPMS:0.000=139.960,104.000=69.980,152.000=139.960;
#STOPS:;
#BGCHANGES:;
// cache tags:
#FIRSTBEAT:16.000;
#LASTBEAT:348.000;
#SONGFILENAME:Songs/new encore/Deep Breath/Deep Breath.sm;
#HASMUSIC:1;
#HASBANNER:1;
#MUSICLENGTH:173.461;
// end cache tags

//---------------dance-single - ----------------
#NOTES:
     dance-single:
     :
     Easy:
     3:
     0.157,0.201,0.092,0.104,0.000,157.000,16.000,18.000,0.000,0.000:
0000
0000
0000
0000
,
0000
0000
0000
0000
,
0000
0000
0000
0000
,
0000
0000
0000
0000
,
1000
0000
0000
1000
,
0001
0000
0010
0000
,
0110
0000
0000
0100
,
0010
0000
0100
0000
,
1000
0000
0000
1000
,
0001
0000
0100
0100
,
0100
0000
0000
0000
,
0110
0000
0000
0000
,
0010
0000
0000
0000
,
1001
0000
0000
0000
,
0200
0000
0000
0300
,
0020
0000
0000
0030
,
0100
0000
0010
0000
,
0100
0000
0100
0000
,
1001
0000
0000
1000
,
0001
0000
0000
0001
,
1000
0000
0000
0100
,
0010
0000
0000
0010
,
0100
0000
0000
1000
,
0010
0000
0000
0100
,
0001
0000
0000
0010
,
0001
0000
1000
0000
,
0100
0000
0000
0010
,
0001
0000
0000
1000
,
1001
0000
0001
0010
,
0002
0000
0003
1000
,
1000
0000
0100
1000
,
0100
0000
0010
0100
,
0100
0000
1000
0000
,
1001
0000
0010
0000
,
0001
0000
1000
0000
,
0200
0000
0310
0000
,
0010
0000
0001
0000
,
2000
0000
3001
0000
,
1000
1000
1000
0000
,
0010
0000
0100
0000
,
0001
0001
0001
0000
,
1000
0000
0100
1000
,
0100
0000
0000
0010
,
0100
0000
0010
0000
,
0110
0000
0000
0100
,
1000
0000
1000
0000
,
0001
0000
0000
0001
,
0010
0000
0001
0010
,
0010
0000
0001
0000
,
0100
0000
0010
0010
,
1000
0000
0000
0001
,
0100
0000
0110
0000
,
0010
0000
0000
0000
,
1000
0000
0100
0000
,
1000
0000
0000
0000
,
0001
0000
0000
0000
,
1000
0000
0000
0000
,
1001
0000
0110
0000
,
0110
0000
0000
0000
,
0200
0000
0001
0301
,
0100
0000
0001
0000
,
1000
0010
1000
0000
,
0002
0000
0000
0003
,
2000
0000
0000
3000
,
0020
0000
0000
0030
,
2000
0000
0000
3000
,
0001
0000
0000
0000
,
1000
0000
0000
0000
,
0100
0000
0000
0000
,
0010
0000
0000
0000
,
1001
0000
0000
0000
,
1000
0000
0010
0000
,
1000
0000
0020
0000
,
0130
0000
0010
0000
,
1001
0000
0000
0000
,
0010
0000
0001
0000
,
0010
0000
0100
0000
,
2000
0000
3010
0000
,
1000
0000
2002
3003
,
0001
0000
0100
0000
,
0100
0000
0010
0000
,
2000
0000
3001
0000
,
1000
0000
0100
0000
,
0010
0000
0100
0000
,
2000
0000
3001
0000
,
1000
0000
0010
0000
,
0100
0000
0220
0330
,
0110
0000
0000
0000
;

//---------------dance-single - ----------------
#NOTES:
     dance-single:
     :
     Medium:
     5:
     0.284,0.376,0.271,0.121,0.000,277.000,47.000,21.000,0.000,0.000:
0000
0000
0000
0000
,
0000
0000
0000
0000
,
0000
0000
0000
0000
,
0000
0000
0000
0000
,
1000
1000
1000
0010
,
1000
1000
1002
0003
,
0010
0010
0010
0001
,
0010
0010
0210
0300
,
1000
1000
0100
0010
,
0100
0100
2100
3000
,
0001
0000
1000
0000
,
0001
0000
0010
0000
,
0100
0000
1000
0000
,
0010
0010
1001
0100
,
0010
0000
0000
0000
,
1001
0000
0000
0000
,
1100
0000
0000
0000
,
0011
0000
0000
0000
,
0100
1000
0001
0010
,
0002
0010
0103
0001
,
1000
0100
0010
0100
,
1000
0020
1000
0130
,
0110
0100
0001
1000
,
0100
0010
0100
1000
,
0001
0000
0010
0000
,
0001
1000
1020
0100
,
0130
0000
0000
0100
,
0002
1000
1003
0000
0000
0000
1000
0100
,
2000
3000
1000
0001
,
2000
0010
3010
0000
0000
1000
0001
1000
,
0100
0000
0010
0100
,
1000
0000
0000
0000
0010
0100
0010
0010
,
0100
0000
0110
0100
,
0001
1000
1000
0000
0001
0000
0010
0000
,
1100
0000
0010
0001
,
0101
0000
0001
1000
,
0110
0000
1000
0100
,
0011
0000
0100
0100
,
0010
0001
0100
0010
,
1000
0000
0100
0000
2000
0000
3000
0100
,
0010
0001
0100
0001
,
1000
0010
1010
0101
,
1001
0000
1000
0100
1000
0000
0000
0100
,
0010
0000
0000
0001
0100
0000
0000
0000
,
1000
0001
0001
0010
,
0110
0000
0010
0000
0001
0010
0001
0000
,
1000
0000
0010
1000
,
0001
0000
0100
0000
0002
0000
0003
0100
,
0001
0010
0100
1000
,
0010
0100
1010
0101
,
0020
0000
1000
0000
1030
0000
0000
1000
,
0100
0000
0000
0010
0001
0000
1000
0000
,
1002
0100
1000
0103
,
0101
0000
1000
0000
0100
1000
0100
0000
,
0010
0001
0011
0001
,
0010
0100
0010
0001
,
0100
0001
1001
1000
,
0100
1000
0002
1000
,
1003
0000
0000
0000
0000
0000
0000
0001
,
1000
0000
0000
1000
0001
0000
0110
0000
,
1002
1000
1003
1001
,
2001
0001
3001
1000
,
1001
0000
0000
0000
,
0110
0000
0000
0000
,
1001
0000
0000
0000
,
1100
0000
0000
0000
,
0011
0000
0000
0000
,
0110
0000
0000
0000
,
1100
0000
0000
0000
,
1001
0000
0000
0000
0000
0000
0000
0010
,
0001
0000
0000
0000
,
1000
0000
0010
0000
0000
0100
0000
0001
,
0100
0000
0100
0000
0000
0010
0000
1000
,
0100
0000
0100
0000
0000
0010
0000
0001
,
1000
0000
0001
0000
0000
0100
0000
0001
,
1000
0000
0100
0000
0000
0010
0000
0001
,
0010
0000
0100
0000
0000
1000
0000
0010
,
0100
0000
0001
0000
0000
1000
0000
0100
,
1000
0001
2002
3003
,
1001
1000
0000
0000
0000
0100
0000
0100
,
0001
0000
1100
0000
0000
1100
0000
1000
,
0100
0000
0010
0000
0000
0011
0000
0001
,
0100
0000
0110
0000
0000
1010
0000
0010
,
0100
0000
0001
0000
0000
2100
0000
3001
,
1000
0000
0101
0000
0000
0010
0000
1000
,
0001
0000
0010
0000
0000
0100
0000
1000
,
0010
0100
0220
0330
,
0110
0000
0000
0000
;

//---------------dance-single - ----------------
#NOTES:
     dance-single:
     :
     Hard:
     8:
     0.398,0.451,0.225,0.242,0.176,402.000,39.000,42.000,0.000,0.000:
0000
0000
0000
0000
,
0000
0000
0000
0000
,
0000
0000
0000
0000
,
0000
0000
0000
0000
,
1000
0000
0000
0000
1000
0000
0000
0010
0000
0000
0000
0000
1000
0000
0001
0000
,
0100
0000
0000
0000
0100
0000
0000
0001
0000
0000
0000
0000
1010
0000
0000
0000
,
1000
0000
0000
0000
0100
0000
0000
0010
0000
0010
0001
0000
1000
0000
0001
0000
,
0100
0000
0000
0000
0010
0000
0000
0100
0000
0100
0001
0000
1000
0000
0000
0000
,
0100
0000
0000
0000
0010
0000
0000
0100
0000
0100
1000
0000
0001
0000
1000
0000
,
0100
0000
0000
0000
0010
0000
0000
0001
0000
0010
0001
0000
0010
0000
0000
0000
,
0100
0000
0000
0000
0100
0000
0000
1000
0000
1000
0001
0000
0100
0000
0000
0000
,
0010
0000
0000
0000
1000
0000
0000
0001
0000
0100
0001
0000
1000
0000
0000
0000
,
0100
0000
0000
0000
0010
0000
0000
0001
0000
0100
0001
0000
1000
0000
0000
0000
,
0100
0000
0000
0000
1000
0000
0000
0010
0000
0100
0001
0000
1000
0000
0000
0000
,
0002
0000
0003
1000
0002
0000
0003
0100
,
0020
0000
0030
1000
0200
0000
0300
1000
,
0002
0000
0003
0010
0200
0000
0300
1000
,
0020
0000
0030
0100
0020
0000
0030
1000
,
0001
0102
1003
1001
,
2100
0000
3001
0000
1000
0001
1000
0000
,
0012
1003
0001
1000
,
2010
0000
3001
0000
1000
0001
0100
0000
,
0120
0000
0100
0000
0130
0000
0010
0100
,
0002
0013
0011
0000
,
0200
0000
1000
0000
1300
0000
0100
0010
,
0001
0100
0001
0000
2001
0000
0100
0000
,
0002
0000
0000
0000
0000
0000
0000
0000
3003
0000
0000
0001
0100
0000
0000
0010
,
0100
0100
0001
0000
0000
0000
1100
1000
,
0002
0000
0000
0000
0003
0000
0000
0010
0001
0000
0000
1000
0100
0000
0000
1000
,
0001
0000
0001
0000
1000
0000
0000
0000
0000
0000
0100
0000
1000
0100
0010
0000
,
0002
1000
1003
0001
1001
0000
0100
0001
,
2000
0100
3100
1000
0100
0000
0010
0010
,
0010
0000
0000
0000
0000
0000
0000
0001
0010
0000
0000
0100
0010
0000
0000
0001
,
1000
0000
0010
0000
1010
0000
0000
0000
1000
0000
0001
0000
0100
0001
0100
0000
,
0001
0000
0000
0000
0000
0000
0001
1000
0001
0000
0000
0000
0000
0000
1000
0100
,
1000
0000
0000
0000
0000
0000
0010
0100
0010
0000
0000
0000
0000
0000
1000
0001
,
0100
0000
0000
0000
0000
0000
0001
0010
0001
0000
0000
0000
0000
0000
1000
0100
,
0010
0000
0000
0000
0000
0000
0100
1000
0010
0000
0000
0000
0000
0000
0100
0001
,
2000
0000
0010
0000
3100
0000
1000
0100
,
0010
0000
0000
0000
0001
0010
0000
0000
0001
0000
0000
0100
0000
0000
0001
0000
,
2000
0000
3001
0000
1002
0000
0103
0001
,
1000
0100
0120
0031
,
0011
0000
0001
1000
0100
0000
0010
0200
,
1000
0000
0000
0000
0310
0000
0100
0000
1000
0000
0000
0010
0000
0000
0100
0000
,
0010
0100
0100
1001
,
0010
0000
0100
0000
0010
0100
1001
0000
,
0010
0000
0001
0000
0010
0000
0001
0100
,
0010
0000
0000
0000
1000
0010
0000
0000
0100
0000
0000
0001
0000
0000
2000
0000
,
0100
3001
0012
1003
,
0001
0001
2100
3010
,
1000
0000
1000
0100
0010
0000
0001
0100
,
0010
0000
0000
0000
0000
0000
0010
0000
1000
0000
0000
0100
0000
0000
0010
0000
,
0002
0010
0023
0100
,
0031
0000
0011
0000
0001
1000
0100
0000
,
1000
0000
1000
0010
1000
0000
1002
0000
,
0103
0000
0000
0000
0001
0010
0000
0000
0001
0000
0000
0010
0000
0000
0001
0000
,
0100
0101
1001
1100
,
1000
0100
0010
0010
,
0100
0000
0100
1000
0100
0000
0010
0001
,
0100
0000
0000
0000
0000
0000
0100
0000
0010
0000
0000
1000
0000
0000
0001
0000
,
0020
0000
0031
0010
0001
0000
1001
0000
,
0200
0000
1300
0000
0100
0010
0100
0000
,
2000
0000
0000
3010
,
1000
0000
0000
0001
,
0010
0000
0000
0100
,
0010
0000
0000
0100
,
1000
0000
0000
1000
,
0001
0000
0000
0100
,
0001
0000
0000
1000
,
0010
0000
0000
0000
0000
0000
1000
0001
,
1001
0000
0000
0000
,
1000
0000
0000
0000
0010
0000
0000
1000
0000
0000
0010
0000
0000
0000
0100
0000
,
0001
0000
0000
0000
0010
0000
0000
0100
0000
0000
0010
0000
0000
0000
0001
0000
,
0100
0000
0000
0000
0010
0000
0000
1000
0000
0000
0001
0000
0000
0000
0010
0000
,
0001
0000
0000
0000
1000
0000
0000
0100
0000
0000
1000
0000
0000
0000
1000
0000
,
0001
0000
0000
0000
0100
0000
0000
0010
0000
0000
0100
0000
0000
0000
0001
0000
,
1000
0000
0000
0000
0100
0000
0000
0010
0000
0000
0010
0000
0000
0000
0100
0000
,
1000
0000
0000
0000
0010
0000
0000
0100
0000
0000
0100
0000
0000
0000
0001
0000
,
1000
0000
0000
0000
0100
0000
0000
0020
0002
0000
0000
0000
0033
0000
0000
0000
,
0012
0000
0000
0000
1003
0000
0000
0001
0000
0000
0011
0000
0000
0000
0100
0000
,
2000
0000
0000
0000
3010
0000
0000
1010
0000
0000
1000
0000
0000
0000
0001
0000
,
0200
0000
0000
0000
0310
0000
0000
0110
0000
0000
0010
0000
0000
0000
1000
0000
,
0002
0000
0000
0000
0013
0000
0000
0011
0000
0000
0001
0000
0000
0000
1000
0000
,
0100
0000
0000
0000
1001
0000
0000
0011
0000
0000
0100
0000
0000
0000
1000
0000
,
0010
0000
0000
0000
0101
0000
0000
1001
0000
0000
0010
0000
0000
0000
1000
0000
,
0001
0000
0000
0000
0011
0000
0000
0101
0000
0000
0001
0000
0000
0000
1000
0000
,
0100
0000
0000
0000
0110
0000
0000
0200
2000
0000
0000
0000
3300
0000
0000
0000
,
1001
0000
0000
0000
;

//---------------dance-single - ----------------
#NOTES:
     dance-single:
     :
     Challenge:
     11:
     0.721,0.853,0.415,0.369,0.741,740.000,72.000,64.000,0.000,0.000:
0000
0000
0000
0000
,
0000
0000
0000
0000
,
0000
0000
0000
0000
,
0000
0000
0000
0000
,
2100
0000
0000
0000
3001
0000
0000
1001
0000
1001
0000
0000
0100
0000
0001
0000
,
2000
0000
0000
0000
3010
0000
0000
1010
0000
0010
1000
0000
1001
0000
0000
0000
,
0021
0000
0000
0000
0130
0000
0000
0010
0000
0010
0100
0000
1000
0000
0010
0000
,
1020
0000
0000
0000
0130
0000
0000
0010
0000
0010
0100
0000
0001
0000
0000
0000
,
2100
0000
0000
0000
3001
0000
0000
1000
0000
1000
0010
0000
0100
0000
0001
0000
,
0021
0000
0000
0000
0130
0000
0000
0010
0000
0100
1000
0000
0001
0000
0000
0000
,
0102
0000
0000
0000
0100
0000
0000
0103
0000
0101
0000
0000
0001
0000
1000
0000
,
2100
0000
0000
0000
0100
0000
0000
3100
0000
0100
1000
0000
1001
0000
0000
0000
,
0012
0000
0000
0000
0010
0000
0000
0013
0000
0011
0000
0000
0100
0000
1000
0000
,
2100
0000
0000
0000
0100
0000
0000
3100
0000
0100
1000
0000
1001
0000
0000
0000
,
0110
0000
0000
0000
0100
0000
0001
1000
0100
0010
0100
0000
1000
0000
0010
0100
,
0001
0100
0010
0000
1000
0000
0001
0010
0100
1000
0001
0000
0010
0000
0001
0100
,
0001
1000
0001
0000
0010
0000
0100
1000
0001
1000
0100
0000
0010
0000
0001
0100
,
0010
1000
0010
0000
0100
0000
0001
0010
0100
1000
0100
0000
0010
0000
0001
0010
,
0011
0000
0001
0000
0010
0000
0100
0010
0001
0010
0100
0000
1000
0000
0000
0000
,
1010
0000
1000
0000
0010
0000
0100
0001
1000
0010
0100
0000
0001
0000
0000
0000
,
1100
0000
1000
0000
0001
0000
0010
0100
1000
0100
0010
0000
0001
0000
0000
0000
,
0101
0000
0100
0000
0010
0000
1000
0001
0010
0100
1000
0000
0020
0000
0100
0000
,
0130
0000
0001
0000
1000
0000
0100
0010
0001
1000
0100
0000
0010
0000
0000
0000
,
0002
0000
0100
0000
0103
0000
0001
0010
0100
1000
0010
0000
1000
0000
0000
0000
,
0200
0000
1000
0000
1300
0000
0100
0010
0001
1000
0001
0000
0100
0000
0000
0000
,
0020
0000
1000
0000
1030
0000
0010
0100
0001
0010
0001
0000
1000
0000
0100
0000
,
0020
0000
0000
0000
0001
0000
0000
0000
0031
0000
0000
0000
0011
0000
0000
0000
1001
0000
0000
0000
0000
0000
0100
0000
1000
0000
0000
0001
0000
0000
0010
0000
,
0002
0100
0100
2003
0100
0000
0010
0010
,
3100
0000
0000
0000
2100
0000
0000
0000
0001
0000
0000
0000
3000
0000
0010
0000
1000
0000
0000
0000
0000
0000
1000
0000
0001
0000
0000
0100
0000
0000
0010
0000
,
1002
0000
0010
0000
0010
0000
2003
0000
0000
0000
0010
3000
0010
1000
0100
0000
,
0110
0000
0000
0000
0010
0000
0000
0001
0000
0010
0000
0000
0001
0000
0100
0000
0001
0000
0000
0000
1000
0100
0000
0000
0010
0000
0000
0001
0000
0000
0100
0000
,
0010
0000
0000
0000
1000
0000
0000
0010
0000
0100
0000
0000
0001
0000
1000
0000
0001
0000
0000
0000
0010
0000
0000
0100
1000
0000
0000
0000
1001
0000
0000
0000
,
0101
0000
0000
0000
0010
0000
0000
1000
0000
1000
0000
0000
0100
0000
0010
0000
0002
0000
0000
0000
0003
0000
0100
0000
0001
0000
0000
1000
0000
0000
0100
0000
,
1000
0000
0000
0000
0001
0000
0000
1000
0000
0100
0000
0000
0010
0000
0100
0000
2000
0000
0000
0000
0010
0000
3000
0000
0010
0000
0100
0000
0001
0000
0000
0000
,
2001
0000
0000
0000
0001
0000
0000
0001
0000
3001
0000
0000
1000
0000
0001
0000
1002
0000
0000
0000
1000
0000
0000
1000
0000
1003
0000
0000
0001
0000
0010
0000
,
0021
0000
0000
0000
0001
0000
0000
0001
0000
0031
0000
0000
0010
0000
0100
0000
1200
0000
0000
0000
1000
0000
0000
1000
0000
1300
0000
0000
0100
0000
0010
0000
,
0210
0000
0000
0000
1000
0000
0000
0010
0000
1300
0000
0000
0100
0000
0010
0000
0012
0000
0000
0000
1000
0000
0000
0010
0000
1003
0000
0000
0001
0000
0010
0000
,
0120
0000
0000
0000
0001
0000
0000
0100
0000
0031
0000
0000
0010
0000
0001
0000
2001
0000
0000
0000
0010
0000
0000
0001
0000
3010
0000
0000
1000
0000
0010
0000
,
0100
0000
0001
0000
1001
0000
1000
0100
0010
0000
0100
0000
1000
0000
0010
0000
,
0100
0000
0001
0000
0100
0010
0000
0010
1000
0000
1000
0001
0000
0001
0100
0000
,
0110
0000
0010
0000
0100
0000
0001
0010
0001
0000
0100
0000
0020
0000
1000
0000
,
1030
0010
1000
0100
1100
0000
1001
0000
,
0011
0000
0010
0000
0001
0000
0100
0000
0010
0100
0010
0000
1000
0000
0200
0000
,
2000
0000
0300
0000
3100
0000
1000
0000
0002
0000
0000
0100
0000
0000
1003
0000
,
1001
0000
0001
0000
0010
0000
0001
0010
0100
0000
1000
0000
0100
0000
0000
0000
,
1000
0000
0010
0000
1000
0020
0000
0000
0130
0000
0010
0000
1000
0000
0000
0000
,
0001
0000
0010
0000
0011
0000
0010
0001
0000
0001
1000
0000
0100
0000
0010
0000
,
0001
0000
0100
0000
0001
1000
0000
0100
1000
0000
0010
0100
0000
0001
0100
0000
,
0110
0000
0010
0000
0100
0000
0001
0010
0001
0000
0010
0000
0011
0000
0001
0000
,
1000
0000
0100
0000
1000
0000
0001
0100
0020
0000
0000
0000
0001
0000
0000
0000
,
0130
0000
0010
0000
1000
0000
0001
0100
0000
0010
0000
1000
0001
0000
0020
0000
,
0002
0000
0030
0000
0013
0000
0001
0000
2000
0000
0000
0100
0000
0000
3001
0000
,
1001
0000
0000
0000
0100
0000
0001
1000
0000
1000
0100
0000
0010
0000
0100
0000
,
2100
0000
0010
0000
3010
1000
0100
0000
,
0011
0000
0010
0000
0011
0000
0001
0000
1001
0000
1000
0100
0010
0000
0200
0000
,
1000
0000
0000
0300
1000
0100
0000
0000
0012
0000
0000
2003
0000
0000
3100
0000
,
1100
0000
1000
0000
1100
0000
0100
0000
0110
0000
0010
0001
1000
0000
0002
0000
,
0100
0000
0000
0000
1003
0000
0001
0000
0010
0100
0000
0100
1000
0000
0010
0000
,
1000
0000
1010
2000
0001
0000
3100
1000
,
0200
0000
0000
0000
0310
0000
0100
0000
2000
0000
0000
0010
0000
0000
3002
0000
,
1000
0000
0000
0000
1003
0000
0000
0000
1001
0000
0100
0001
1000
0000
0010
0000
,
1000
0000
1100
0000
0010
0001
1000
0000
,
1001
0000
0000
0000
0001
0000
0000
0010
0001
0010
0000
0100
0000
0100
0000
1000
,
0100
0000
0000
0000
0120
0000
0000
0001
0000
0031
0000
0010
0000
0100
0000
1000
,
0100
0000
1000
0000
0010
0000
0000
0100
0000
0001
0000
0100
0000
0010
0000
2000
,
0100
0000
0000
0000
3001
0000
0000
1000
0000
0100
0000
1100
0000
1000
0000
0001
,
0010
0000
0001
0000
0101
0000
0000
0000
2001
0000
0000
3100
0000
1000
0000
0010
,
0000
0100
0002
0000
1000
0000
1003
0000
0001
0000
0000
0010
0000
0100
0000
0010
,
0000
0001
0010
0000
0100
0000
1000
0000
0010
0000
0000
0100
0000
0001
0000
1000
,
0000
0100
1000
0000
1001
0000
0001
0000
0010
0000
0000
0001
0000
0001
0020
0000
,
0200
0000
0000
0330
,
0100
1000
0000
0001
0100
0001
0000
1000
0010
1000
0001
0000
0010
0100
1000
0100
,
0010
0001
1000
0001
0010
0100
2000
0100
0000
0000
3100
0000
1000
0000
1001
0000
,
0001
0010
0000
0100
1000
0001
0000
0010
0100
1000
0100
0000
0010
0001
1000
0001
,
0100
0010
1000
0001
0010
0100
2000
0010
0000
0000
3001
0000
1000
0000
1010
0000
,
1000
0100
0000
0010
0001
0100
0000
0001
0100
0010
1000
0000
0100
1000
0001
0010
,
0100
1000
0010
1000
0001
0100
0020
1000
0000
0000
0130
0000
0010
0000
1010
0000
,
1000
0001
0000
1000
0100
1000
0000
0001
1000
0001
0010
0000
0100
0010
0001
0010
,
0100
1000
0100
0010
0001
1000
0001
0202
0000
0000
0000
0000
0000
0000
0303
0000
,
0001
0100
0000
0010
1000
0010
0000
0100
0001
1000
0001
0000
0010
0100
1000
0001
,
0100
0001
1000
0010
1000
0001
0020
0100
0000
0000
0130
0000
0010
0000
0011
0000
,
0001
0100
0000
0010
1000
0100
0000
1000
0100
0010
0001
0000
1000
0010
1000
0001
,
1000
0100
0010
0001
1000
0001
0200
0010
0000
0000
0310
0000
0100
0000
0101
0000
,
0001
1000
0000
0100
0001
0100
0000
0010
0100
1000
0100
0000
0010
0001
0100
0010
,
1000
0100
1000
0001
0100
0010
2000
0001
0000
0000
3100
0000
1000
0000
1001
0000
,
0001
0010
0000
0010
0100
1000
0000
1000
0100
0010
0001
0000
0001
0100
0010
1000
,
0001
0010
0100
1000
0010
0100
0001
0022
0000
0000
0000
0000
0003
0000
0000
0000
,
0130
0000
0000
0000
;
