#TITLE:F.E.A.R.;
#SUBTITLE:(U.N.K.L.E. Mix);
#ARTIST:Ian Brown;
#TITLETRANSLIT:;
#SUBTITLETRANSLIT:;
#ARTISTTRANSLIT:;
#CREDIT:;
#BANNER:F.E.A.R. (U.N.K.L.E. Mix)-bn.png;
#BACKGROUND:F.E.A.R. (U.N.K.L.E. Mix)-bg.jpg;
#LYRICSPATH:;
#CDTITLE:Oni.png;
#MUSIC:F.E.A.R. (U.N.K.L.E. Mix).mp3;
#OFFSET:0.000;
#SAMPLESTART:45.435;
#SAMPLELENGTH:12.000;
#SELECTABLE:YES;
#BPMS:0.000=66.000,16.000=132.000,112.000=66.000,128.000=132.000;
#STOPS:;
#BGCHANGES:;
// cache tags:
#FIRSTBEAT:0.000;
#LASTBEAT:240.000;
#SONGFILENAME:Songs/juju step2/F.E.A.R. (U.N.K.L.E. Mix)/F.E.A.R. (U.N.K.L.E. Mix).sm;
#HASMUSIC:1;
#HASBANNER:1;
#MUSICLENGTH:125.518;
// end cache tags

//---------------dance-single - ----------------
#NOTES:
     dance-single:
     :
     Hard:
     7:
     0.503,0.598,0.295,0.223,0.127,377.000,37.000,28.000,0.000,0.000:  // measure 1
1000
0100
0010
0001
1000
0010
0100
0001
,  // measure 2
0010
0001
0100
0001
0010
1000
0010
1000
,  // measure 3
0100
0010
0100
0010
0100
0001
0100
0001
,  // measure 4
0010
0000
0001
0000
0010
0000
0001
0000
1000
0000
0010
0000
1000
0100
0010
0100
,  // measure 5
0001
0000
1000
0000
0100
0000
0000
0010
0100
0000
0001
0000
0010
0000
0000
0000
,  // measure 6
0100
0000
0001
0000
1000
0000
0000
1000
0010
0000
0100
0000
0010
0000
0000
0000
,  // measure 7
0001
0000
0010
0000
0001
0000
0000
0100
0010
0000
1000
0000
0100
0000
0010
0000
,  // measure 8
0001
0000
0100
0000
0001
0000
0000
0010
0100
0000
1000
0000
0100
0000
0000
0000
,  // measure 9
1000
0000
0000
0000
0110
0000
0000
0010
0100
0000
0000
0000
0101
0000
0000
0000
,  // measure 10
0010
0000
0000
0000
1010
0000
0000
1000
0001
0000
0000
0000
1001
0000
0000
0000
,  // measure 11
1000
0000
0000
0000
1100
0000
0000
0010
0001
0000
0000
0000
0011
0000
0000
0000
,  // measure 12
0100
0000
0000
0000
1100
0000
0000
0100
0010
0000
0001
0000
0011
0000
0010
0000
,  // measure 13
0001
0100
0001
0000
0010
1000
0010
0000
,  // measure 14
0100
0010
0100
0000
0001
0010
0001
0000
,  // measure 15
0100
0001
0100
0000
0010
1000
0010
0000
,  // measure 16
1000
0000
0100
0000
0010
0000
0000
0100
0010
0100
0010
0000
0100
0000
0000
0000
,  // measure 17
2000
3020
0230
0302
,  // measure 18
0023
0032
2003
3200
,  // measure 19
2300
3020
0230
0302
,  // measure 20
0023
2030
3002
0203
,  // measure 21
0310
0100
0110
0000
0010
0001
0011
0000
,  // measure 22
0001
0100
0101
0000
1000
0010
1010
0000
,  // measure 23
0001
1000
1001
0000
0100
1000
1100
0000
,  // measure 24
1000
1000
1001
0000
0001
0001
1001
0000
,  // measure 25
1000
1000
1000
0000
0100
0100
0100
0000
,  // measure 26
0001
0001
0001
0000
0010
0010
0010
0000
,  // measure 27
0001
0010
0001
0010
0100
0010
0100
0010
,  // measure 28
1000
0100
1000
0100
1000
0001
1001
0000
,  // measure 29
1000
0100
1000
0100
2000
0000
3000
0000
0010
0100
0010
0100
0020
0000
0030
0000
,  // measure 30
0001
0100
0001
0100
0002
0000
0003
0000
0010
0001
0010
0001
0020
0000
0030
0000
,  // measure 31
1000
0100
1000
0010
0100
0001
0020
0002
0000
0000
0000
0000
0000
0000
0033
0000
,  // measure 32
0100
0010
1000
0100
0001
0010
0200
0020
0000
0000
0000
0000
0000
0000
0330
0000
,  // measure 33
1001
1100
0110
0011
,  // measure 34
1001
0011
0110
1001
,  // measure 35
1100
1010
1100
1010
,  // measure 36
0101
0011
0011
1001
,  // measure 37
0100
0010
0100
0000
0010
0100
0010
0000
,  // measure 38
0001
0010
0001
0100
0010
1000
0001
0100
,  // measure 39
0010
0001
0100
0001
1000
0010
1000
0100
,  // measure 40
0100
0100
0010
0100
0010
0100
0101
0000
,  // measure 41
1000
0000
0100
0000
1000
0000
0000
0010
0100
0000
0001
0000
0010
0000
0001
0000
,  // measure 42
0100
0000
0010
0000
1000
0000
0000
0010
0100
0000
0001
0000
0010
0000
0100
0000
,  // measure 43
0010
0000
0100
0000
1000
0000
0000
0010
1000
0000
0100
0000
0010
0000
1000
0000
,  // measure 44
1000
0000
1000
0000
0001
0000
0000
0100
0010
0000
0100
0000
0001
0000
0010
0000
,  // measure 45
2100
0010
0100
0000
0001
0010
0001
0000
,  // measure 46
0100
0100
0100
0000
0010
0010
3010
0000
,  // measure 47
0201
0001
0001
0000
0010
0010
0010
0000
,  // measure 48
0001
0010
0001
0000
0010
0001
0310
0100
,  // measure 49
0100
0010
0100
0010
0100
0001
0010
0001
,  // measure 50
0100
0010
1000
0001
0100
0010
0001
0100
,  // measure 51
0010
0001
0010
0001
0100
0010
0100
0010
,  // measure 52
1000
0100
1000
0100
0010
0100
0001
0100
,  // measure 53
1000
0100
1000
0100
0010
0001
0010
0100
,  // measure 54
0010
1000
0100
1000
0010
0100
0001
0010
,  // measure 55
0001
0100
0001
0010
0001
0100
0010
0100
,  // measure 56
0010
0100
1000
0001
,  // measure 57
2002
0000
0000
0000
,  // measure 58
0000
0000
0000
0000
,  // measure 59
0000
0000
0000
0000
,  // measure 60
0000
0000
0000
0000
,  // measure 61
3003
0000
0000
0000
;

//---------------dance-single - ----------------
#NOTES:
     dance-single:
     :
     Medium:
     5:
     0.360,0.406,0.183,0.191,0.000,269.000,23.000,24.000,0.000,0.000:  // measure 1
1000
0000
0100
0001
0010
0000
0001
0000
,  // measure 2
0010
0000
0010
0100
0010
0000
0100
0000
,  // measure 3
1000
0000
0001
0010
0001
0000
0100
0000
,  // measure 4
0010
0000
1000
0100
1000
0000
1001
0000
,  // measure 5
0100
0010
0001
0100
,  // measure 6
0010
0000
0001
0000
0100
0001
0010
0000
,  // measure 7
1000
0010
0100
0010
,  // measure 8
0001
0000
1000
0000
0010
1000
0100
1000
,  // measure 9
0010
0100
0001
1000
,  // measure 10
0001
0000
0100
0000
0010
0010
0010
0000
,  // measure 11
0100
0001
1000
0010
,  // measure 12
0100
0100
0100
0000
1000
1000
1000
0000
,  // measure 13
1001
0010
1000
0010
,  // measure 14
0100
0010
0001
0000
0010
0001
1000
0000
,  // measure 15
0001
1000
0100
0000
1000
0100
0010
0000
,  // measure 16
0010
0100
0010
0000
1000
0100
1000
0000
,  // measure 17
0001
0010
0001
0000
0010
1000
0010
0000
,  // measure 18
1000
0100
1000
0000
0010
0100
0010
0000
,  // measure 19
0001
0010
0001
0000
0100
1000
0100
0000
,  // measure 20
0010
1000
0010
0100
0010
1000
0010
0000
,  // measure 21
1000
0100
1000
0010
1000
0000
0100
0000
,  // measure 22
0001
0010
0001
0100
0001
0000
0010
0000
,  // measure 23
0100
1000
0010
0100
0001
0000
1000
0000
,  // measure 24
1000
0010
0100
0001
1000
0000
0010
0000
,  // measure 25
2001
0100
0010
0001
,  // measure 26
0010
0010
0100
3100
,  // measure 27
0020
0100
1000
0001
,  // measure 28
0100
0100
1000
1030
,  // measure 29
2001
0001
0001
3001
,  // measure 30
1002
1000
1000
1003
,  // measure 31
0120
0100
0100
0130
,  // measure 32
0210
0000
0010
0000
0010
0010
0010
0310
,  // measure 33
0100
0010
0100
0000
0010
0001
0010
0000
,  // measure 34
0100
1000
0100
0000
1000
0100
0010
0000
,  // measure 35
0010
0100
1000
0000
0010
0100
0010
0000
,  // measure 36
0100
0010
0100
0000
0001
1000
0001
1000
,  // measure 37
0010
0000
0100
0010
0100
0010
0100
0010
,  // measure 38
0100
0010
1000
0100
,  // measure 39
0010
0000
1000
0100
1000
0100
1000
0100
,  // measure 40
1000
0010
0100
0001
,  // measure 41
1100
0000
0010
1000
0100
1000
0010
0000
,  // measure 42
0101
0000
0001
0010
0001
0100
0010
0000
,  // measure 43
1010
0000
0100
0001
0010
0001
0100
0000
,  // measure 44
0011
0000
0100
0001
0100
0001
0010
0000
,  // measure 45
1010
0000
1000
0100
1000
0010
0100
0000
,  // measure 46
0101
0000
0010
0001
0100
1000
0010
0000
,  // measure 47
0101
0000
0010
0001
0100
0010
1000
0000
,  // measure 48
0011
0110
1100
1001
,  // measure 49
2020
0000
0030
0002
,  // measure 50
0000
0000
3003
0000
,  // measure 51
0220
0000
0300
2000
,  // measure 52
0000
0000
3030
0000
,  // measure 53
0202
0300
2000
3000
,  // measure 54
0020
0030
0200
0303
,  // measure 55
2020
0030
0200
0300
,  // measure 56
0002
0003
0020
3030
,  // measure 57
2002
0000
0000
0000
,  // measure 58
0000
0000
0000
0000
,  // measure 59
0000
0000
0000
0000
,  // measure 60
0000
0000
0000
0000
,  // measure 61
3003
0000
0000
0000
;

//---------------dance-single - ----------------
#NOTES:
     dance-single:
     :
     Easy:
     2:
     0.146,0.191,0.056,0.064,0.000,113.000,7.000,8.000,0.000,0.000:  // measure 1
0000
0000
0000
0000
,  // measure 2
0000
0000
0000
0000
,  // measure 3
0000
0000
0000
0000
,  // measure 4
0000
0000
0000
0000
,  // measure 5
0100
0000
0010
0000
,  // measure 6
1000
1000
1000
0000
,  // measure 7
0010
0000
0001
0000
,  // measure 8
0100
0100
0100
0000
,  // measure 9
0001
0000
0001
0000
,  // measure 10
0010
0000
0010
0000
,  // measure 11
0100
0000
0100
0000
,  // measure 12
1000
0001
1000
0001
,  // measure 13
1000
0000
0000
0000
,  // measure 14
0100
0000
0000
0000
,  // measure 15
0010
0000
0000
0000
,  // measure 16
0001
0000
1000
0000
,  // measure 17
0010
0000
0100
0000
,  // measure 18
0001
0000
0010
0000
,  // measure 19
0001
0000
0100
0000
,  // measure 20
0010
1000
0010
1000
,  // measure 21
0010
0000
0100
0000
,  // measure 22
0001
0000
0100
0000
,  // measure 23
1000
0000
0010
0000
,  // measure 24
0100
0100
0010
0010
,  // measure 25
0000
0010
0000
0100
,  // measure 26
0000
1000
0000
0001
,  // measure 27
0000
0010
0000
0100
,  // measure 28
0000
0010
0000
0001
,  // measure 29
2002
0000
0000
0000
,  // measure 30
0000
0000
0000
3003
,  // measure 31
0220
0000
0000
0000
,  // measure 32
0000
0000
0000
0330
,  // measure 33
1000
0000
1000
0000
,  // measure 34
0010
0000
0010
0000
,  // measure 35
0100
0000
0100
0000
,  // measure 36
0001
0000
0001
0000
,  // measure 37
0001
0001
0000
0010
,  // measure 38
0020
0000
0030
0000
,  // measure 39
0100
0100
0000
1000
,  // measure 40
2000
0000
3000
0000
,  // measure 41
1001
0000
0100
0000
,  // measure 42
0001
0000
1000
0000
,  // measure 43
0110
0000
0100
0000
,  // measure 44
0001
0000
0100
0000
,  // measure 45
0011
0000
1000
0000
,  // measure 46
0010
0000
1000
0000
,  // measure 47
1010
0000
1000
0000
,  // measure 48
0010
0010
0010
0000
,  // measure 49
0100
0000
0001
0000
,  // measure 50
0010
0010
0100
0100
,  // measure 51
0010
0000
1000
0000
,  // measure 52
0001
0001
1000
1000
,  // measure 53
0001
0000
0010
0000
,  // measure 54
1000
1000
0010
0010
,  // measure 55
1000
0000
0100
0000
,  // measure 56
0001
1000
0001
1000
,  // measure 57
2002
0000
0000
0000
,  // measure 58
0000
0000
0000
0000
,  // measure 59
0000
0000
0000
0000
,  // measure 60
0000
0000
0000
0000
,  // measure 61
3003
0000
0000
0000
;

//---------------dance-single - ----------------
#NOTES:
     dance-single:
     :
     Challenge:
     8:
     0.568,0.765,0.183,0.120,0.283,461.000,23.000,15.000,0.000,0.000:  // measure 1
1000
0010
1000
0010
0100
0001
0100
0001
0010
0001
0010
0001
0020
0000
0030
0000
,  // measure 2
0100
0010
0100
0010
0100
0001
0100
0001
0010
0001
0010
0001
0200
0000
0300
0000
,  // measure 3
0010
1000
0010
1000
0100
0010
0100
0010
0001
0100
0001
0100
0020
0000
0030
0000
,  // measure 4
0001
0100
0001
0100
0010
1000
0010
1000
0100
0010
0100
0010
0220
0000
0330
0000
,  // measure 5
0110
1000
0100
0010
0100
0010
0100
0000
,  // measure 6
0001
0010
0001
0010
0100
0010
0100
0000
,  // measure 7
1000
0100
0010
0001
0100
0010
0100
0001
,  // measure 8
0010
0001
1000
0100
1000
0010
0110
0000
,  // measure 9
0100
0010
0100
0001
0010
0001
1000
0010
,  // measure 10
1000
0100
1000
0010
0001
0100
0010
0001
,  // measure 11
0100
0010
0100
0000
0001
0010
0001
0000
,  // measure 12
1000
0010
0100
0000
0001
0010
0100
0001
,  // measure 13
0100
0000
0010
0000
0100
0010
0000
0010
0100
0000
0000
0000
1010
0000
0000
0000
,  // measure 14
0010
0000
1000
0000
0100
0001
0000
0001
0100
0000
0000
0000
1010
0000
0000
0000
,  // measure 15
0100
0000
0001
0000
0010
0001
0000
0001
0010
0000
0000
0000
1001
0000
0000
0000
,  // measure 16
0100
0000
0010
0000
0001
1000
0000
0001
1000
0000
0000
0000
0110
0000
0000
0000
,  // measure 17
1000
0000
0010
0000
0100
0001
0000
0001
0100
0000
0010
0000
1000
0010
0000
0010
,  // measure 18
1000
0000
0100
0000
0010
0100
0000
0100
0010
0000
0001
0000
0010
0000
0001
0000
,  // measure 19
0100
0000
0001
0000
0010
0001
0000
0001
0100
0000
0010
0000
1000
0010
0000
1000
,  // measure 20
0100
0000
0010
0000
0100
0010
0000
0010
0100
0000
0010
0000
0220
0000
0330
0000
,  // measure 21
1000
0000
0010
0000
0100
0000
0000
0000
0001
0100
0001
0000
0101
0000
0000
0000
,  // measure 22
0010
0000
0100
0000
0001
0000
0000
0000
0010
1000
0010
0000
1010
0000
0000
0000
,  // measure 23
1000
0000
0100
0000
0001
0000
0000
0000
0010
0001
0010
0000
0011
0000
0000
0000
,  // measure 24
0100
0000
0010
0000
0100
0000
0000
0000
0001
1000
0001
0000
1001
0000
0000
0000
,  // measure 25
1000
1000
0100
0100
0010
0010
0100
0100
,  // measure 26
0001
0001
1000
1000
0010
0010
0100
0100
,  // measure 27
0001
0001
0010
0010
0001
0001
0010
0010
,  // measure 28
0100
0100
0010
0010
2020
0000
3030
0000
,  // measure 29
1020
1000
1000
1000
1030
0000
0000
0000
2100
0100
0100
0100
3100
0000
0000
0000
,  // measure 30
0201
0001
0001
0001
0301
0000
0000
0000
0012
0010
0010
0010
0013
0000
0000
0000
,  // measure 31
1000
0000
0001
1000
0000
1000
0001
0000
0010
0001
0000
0001
0100
0000
0010
1000
,  // measure 32
0000
1000
0010
0000
0100
0001
0000
0010
0001
0000
0100
0001
0000
0001
1000
0001
,  // measure 33
0100
0000
0010
0000
0100
0000
0000
1000
0001
0000
1000
0000
0001
0000
0000
0000
,  // measure 34
0010
0000
0001
0000
0010
0000
0000
0100
0010
0000
1000
0000
0010
0000
0000
0000
,  // measure 35
0001
0000
0010
0000
0100
0000
0000
1000
0010
0000
0100
0000
0010
0000
0000
0000
,  // measure 36
1000
0100
0010
0100
0010
0100
0001
0000
,  // measure 37
0010
0100
0001
0100
0010
0100
0001
0100
,  // measure 38
0010
1000
0100
1000
0001
1000
0010
1000
,  // measure 39
0100
0001
0100
0001
0010
0001
0100
0001
,  // measure 40
1000
0001
0100
0010
0100
0010
1001
0000
,  // measure 41
1000
0100
1000
0010
0100
0010
0001
0010
,  // measure 42
0001
0100
0010
0100
0001
0010
0001
1000
,  // measure 43
0100
0010
0100
0010
0010
0001
0100
0010
,  // measure 44
0100
0000
0010
0000
1000
0000
0010
0000
1000
0010
1000
0000
1010
0000
0000
0000
,  // measure 45
0101
0100
0010
1000
1000
0100
0010
0001
,  // measure 46
0100
0010
0001
0010
0001
0001
0010
0100
,  // measure 47
1000
0010
1000
0010
1000
0010
0100
0001
,  // measure 48
0010
0001
0100
0010
0100
1000
0100
0010
,  // measure 49
0100
0001
0010
0001
0010
0001
0100
0001
,  // measure 50
0100
0010
0001
0010
0100
1000
0100
1000
,  // measure 51
0010
0100
0001
0010
0001
0100
0001
0010
,  // measure 52
0100
0010
1000
0100
0010
1000
1010
0000
,  // measure 53
0011
0010
0010
0001
0010
0001
0100
0001
,  // measure 54
0100
0010
1000
0001
0010
0100
0001
0010
,  // measure 55
0100
0001
0001
0100
0010
0100
0100
0010
,  // measure 56
0100
0010
0100
1000
0001
1000
0001
1000
,  // measure 57
2002
0000
0000
0000
,  // measure 58
0000
0000
0000
0000
,  // measure 59
0000
0000
0000
0000
,  // measure 60
0000
0000
0000
0000
,  // measure 61
3003
0000
0000
0000
;
