#TITLE:I Was Born For Burning;
#SUBTITLE:v2;
#ARTIST:Neo;
#TITLETRANSLIT:;
#SUBTITLETRANSLIT:;
#ARTISTTRANSLIT:;
#CREDIT:;
#BANNER:I Was Born For Burning- bn.png;
#BACKGROUND:I Was Born For Burning- bg.png;
#LYRICSPATH:;
#CDTITLE:!dcTitle.png;
#MUSIC:I Was Born For Burning (cut).mp3;
#OFFSET:-1.060;
#SAMPLESTART:62.970;
#SAMPLELENGTH:12.000;
#SELECTABLE:YES;
#BPMS:0.000=155.000;
#STOPS:;
#BGCHANGES:;
// cache tags:
#FIRSTBEAT:0.000;
#LASTBEAT:262.500;
#SONGFILENAME:Songs/new cc/(DigitalCyber) I Was Born For Burning v2/I Was Born For Burning.sm;
#HASMUSIC:1;
#HASBANNER:1;
#MUSICLENGTH:106.950;
// end cache tags

//---------------dance-single - ----------------
#NOTES:
     dance-single:
     :
     Hard:
     11:
     1.000,1.000,1.000,0.365,1.000,676.000,203.000,39.000,0.000,0.000:
1001
0000
0000
0100
0000
0000
1001
0000
1000
0010
0100
0010
0000
1000
0100
1000
,
0010
0100
0001
0010
0100
1000
0001
0100
0001
0010
1000
0010
0001
1000
0100
1000
,
0101
0000
0000
1000
0000
0000
0101
0000
0010
1000
0001
0100
0000
0010
2002
0000
,
3003
0010
1100
0001
1010
0100
0011
1000
,
0110
0000
0000
0100
0000
0000
0110
0000
1000
0001
0100
0001
0000
1000
0010
1000
,
0100
0010
0001
0100
0010
1000
0001
0010
0100
0010
0001
1000
0100
1000
0010
0100
,
1001
0000
0000
0100
0000
0000
0011
0000
0010
0001
1000
0001
0000
1000
0001
1000
,
0100
0010
0100
1000
0001
0100
0010
1000
0001
0010
1000
0010
0001
0100
0020
0000
,
0030
1001
0000
0002
0003
1001
0000
2000
,
3000
1010
0000
0020
0030
1010
1001
0000
,
0101
0000
0000
0011
0000
0000
0000
0110
,
0000
0000
0000
0000
0000
0000
1100
0010
0001
0100
1001
0010
1000
0001
0100
0001
,
1010
0100
0010
0100
0010
0100
0010
0100
0010
0100
0010
0100
1010
0000
0100
0000
,
0022
0000
0000
0000
0033
0000
1000
0010
0100
0001
0100
0001
1000
0010
0202
0000
,
0303
1000
0010
2200
3300
0100
0010
1001
,
0000
0000
0000
0000
0000
0000
1010
0000
0000
0100
0000
0000
0001
0000
0000
1000
0000
0000
0110
0000
0000
0000
0000
0000
0000
0000
0000
0000
0000
0000
1100
0000
0010
0000
0001
0000
1000
0000
0100
0000
1000
0000
0001
0000
0100
0000
0010
0000
,
1001
0000
0010
1100
0000
0010
0001
1000
0010
0001
0010
1000
0001
0100
0001
1000
,
0110
0000
1000
0001
0000
0010
0001
0000
1000
0100
0000
0100
0010
0000
0001
0100
,
0010
0100
0001
0010
0100
1000
0100
0001
0100
1000
0010
0100
0001
1000
0100
1000
,
0101
0000
0010
0110
0000
0000
1001
0000
1001
0000
1000
0100
0011
1000
0001
0010
,
1100
0000
0010
0101
0000
0001
1000
0100
0010
0001
1000
0010
0001
0010
1000
0001
,
1010
0000
0100
0001
0000
1000
0100
0000
0010
0100
0000
0010
0001
0000
0100
0001
,
1000
0100
1000
0001
0100
0010
1000
0100
0001
0100
1000
0001
0100
0001
1000
0010
,
1001
0000
0010
0110
0000
0000
0101
0000
1010
0100
0001
0010
1001
0000
0010
0000
,
1100
0011
0100
1001
0110
1000
0101
0100
,
1010
0000
1100
0001
0100
0010
1000
0001
0010
1000
0010
0100
1000
0001
1000
0010
,
0101
1010
0001
1100
1001
0010
0110
1000
,
0011
0000
0101
0000
0001
0000
1010
0000
1001
0100
0001
1000
0100
0010
0001
1000
,
0101
0110
1000
0011
1100
0001
1100
0001
,
1010
0000
1001
0100
0010
1000
0001
0010
0100
1000
0001
1000
0001
0010
0100
0010
,
1100
1010
0010
0101
0011
1000
0110
0010
,
1001
0000
0011
0000
0100
0000
1010
0100
0001
1000
0010
0100
1001
0000
0100
0000
,
0110
0101
0011
1001
1100
0110
1010
0101
,
0010
1001
1100
0011
0110
0101
1010
0001
,
1100
0011
0101
0110
1010
1001
1100
0110
,
1000
0000
0101
0000
1001
0000
1010
0100
0001
0010
0001
1000
0100
0001
0100
1000
,
0011
2200
3300
0220
0330
0202
0303
2020
,
3030
2002
3003
0202
0303
0220
0330
1100
,
1010
1000
0001
1100
0010
1001
0100
0010
,
0110
0000
0000
1100
0000
0000
0101
0000
0000
0011
0000
0000
0100
0000
0000
1001
0000
0000
1000
0010
0100
0001
0010
0100
,
1010
1000
0011
1000
0101
0010
1001
1100
,
0001
0110
0011
0022
0033
1010
1001
0101
,
0110
0001
1100
1010
0101
0011
0100
1001
,
1000
0100
0010
0001
1000
0100
0001
0100
1000
0001
0100
0001
1000
0010
0001
0010
,
1100
0010
0101
1000
0011
0100
1010
1001
,
0010
0000
0110
1000
0100
1000
0022
0000
0000
0000
0033
0000
1100
0000
0011
0000
,
1010
0000
0101
0000
0110
0000
1001
0000
0100
0000
0011
0000
1000
0000
1010
0100
,
0010
1000
0001
0100
0010
0001
0010
1000
0100
0010
0001
1000
0100
1000
0010
0100
,
1001
0010
0101
1000
1100
0001
1010
0110
,
1000
0011
1001
2002
3003
0101
1100
0110
,
1010
0001
0110
1100
1001
0011
0100
1010
,
0001
1000
0010
0001
0010
1000
0001
0010
0100
0010
0001
0100
0010
1000
0001
0010
,
0101
1000
0110
0001
1100
0010
1001
0011
,
1000
0000
1001
0100
0001
1000
0202
0000
0000
0000
0303
0000
1100
0000
0110
0000
,
1001
0000
1010
0000
0011
0000
0101
0000
1000
0000
0110
0000
0001
0000
1010
1000
,
0001
0010
0001
1000
0100
0010
0001
0010
0001
1000
0010
0100
1001
0010
0001
0100
,
1001
0000
0010
1100
0000
0001
1000
0010
0100
0001
1000
0001
0010
0100
0001
0100
,
1010
0000
1000
0001
0000
0010
0001
0000
1000
0010
0000
0100
0001
0000
1000
0001
,
0100
0010
1000
0001
0010
0001
1000
0100
0010
0100
0010
0001
1000
0100
1000
0010
,
1001
0000
0000
1100
0000
0000
0101
0000
1001
0000
0010
1000
0110
0001
1000
0100
,
0011
0000
0100
1010
0000
0100
0001
1000
0100
0010
1000
0010
0100
1000
0001
0100
,
1001
0000
0010
0100
0000
0001
0010
0000
1000
0001
0000
0100
0010
0000
1000
0001
,
0100
0010
1000
0001
1000
0100
0001
0100
1000
0001
0010
0100
1000
0010
1000
0001
,
0110
0000
0000
1001
0000
0000
1010
0000
0101
0010
0100
1000
0011
0000
2002
0000
,
0000
3003
0000
2000
0000
3000
0000
2000
,
0000
3000
0000
2000
0000
3000
0000
0000
;
