#TITLE:The Sun and the Star;
#SUBTITLE:(jacking edition);
#ARTIST:The Flashbulb;
#TITLETRANSLIT:;
#SUBTITLETRANSLIT:;
#ARTISTTRANSLIT:;
#CREDIT:;
#BANNER:bn.png;
#BACKGROUND:bg.png;
#LYRICSPATH:;
#CDTITLE:cdtitle.png;
#MUSIC:09 The Sun and the Star.mp3;
#OFFSET:-0.005;
#SAMPLESTART:11.140;
#SAMPLELENGTH:11.140;
#SELECTABLE:YES;
#BPMS:0.000=172.000;
#STOPS:;
#BGCHANGES:;
// cache tags:
#FIRSTBEAT:16.000;
#LASTBEAT:368.000;
#SONGFILENAME:Songs/Hard Songs Megapack Volume 9/The Sun And The Star (jacking edition)/The Sun and the Star.sm;
#HASMUSIC:1;
#HASBANNER:1;
#MUSICLENGTH:142.321;
// end cache tags

//---------------dance-single - ----------------
#NOTES:
     dance-single:
     :
     Medium:
     15:
     1.000,1.000,1.000,0.204,1.000,1039.000,589.000,29.000,0.000,14.000:
0000
0000
0000
0000
,
0000
0000
0000
0000
,
0000
0000
0000
0000
,
0000
0000
0000
0000
,
1200
0000
1000
0000
0001
0000
0000
0000
0010
0001
1000
0000
0001
0000
0000
0000
,
1302
0000
1000
0000
0010
0000
0000
0000
0100
0010
1000
0000
0010
0000
0000
0000
,
2103
0000
0100
0000
0001
0000
0000
0000
0010
0001
0100
0000
0001
0000
0000
0000
,
3210
0000
0002
0003
0010
0000
0001
0000
0010
0001
1000
0000
0001
0000
0000
0000
,
1310
0000
1010
1010
1001
0000
1000
0000
0001
0100
1001
1001
1010
1000
1000
1000
,
0110
0000
0110
0110
1010
0000
0010
0000
0100
0001
1010
1010
0110
0010
0010
0000
,
1001
0000
1001
1001
0101
0000
0001
0000
0100
0010
0101
0101
1001
0000
0001
0001
,
1100
0000
0120
0130
0101
0000
0110
0000
0010
0101
1100
0000
0011
0000
0001
0000
,
1010
0000
1010
1010
1001
0000
1000
0000
0001
0010
1100
1100
0011
0000
1000
1000
,
0110
0000
0110
0110
0101
0000
0100
0000
0011
1000
0101
0101
1100
0100
0010
0000
,
0101
0000
0101
0101
1001
0000
0010
0000
0100
0010
1001
1001
0110
0000
0001
0001
,
1100
0000
0120
0130
0101
0000
1010
0000
0001
0110
1100
0000
0011
0000
0010
0000
,
0101
0000
0101
0101
0011
0000
1000
0000
0010
0100
1001
1001
0110
0000
0001
0001
,
0110
0000
0110
0110
1001
0000
0001
0000
1100
0010
0101
0101
1100
0100
0001
0000
,
0110
0000
0110
0110
0011
0000
0001
0000
0100
1000
0011
0011
1100
0000
0010
0010
,
1100
0000
1002
1003
1010
0000
0011
0000
0110
0001
1100
0000
0011
0000
0010
0000
,
1001
0000
1100
1100
0110
0000
0001
0000
0100
0010
1100
1100
0011
0000
0100
0100
,
0011
0000
1010
1010
1100
0000
0001
0000
0110
0001
1100
1100
1001
1000
1000
0000
,
0101
0000
0110
0110
0011
0000
0100
0000
0100
0001
0110
0110
1001
0000
0010
0010
,
1100
0000
0201
0301
0011
0000
1010
0000
0101
0010
1100
0000
0101
0000
0010
0000
,
1010
0000
1010
1010
0110
0010
0010
0000
0001
0100
1010
1010
0101
0000
0100
0100
,
1010
0000
1010
1010
1001
1000
1000
0000
0010
0001
1100
1100
0011
0000
0010
0010
,
0101
0000
0101
0101
0110
0100
0100
0000
0101
0110
1001
0001
1100
1000
0010
0000
,
0110
0010
2010
3010
0101
0000
0011
0001
0101
0011
1100
0000
0011
0010
0100
0000
,
1001
0000
1001
1001
0101
0001
0001
0000
0100
0010
0101
0101
1010
0000
0100
0100
,
1001
0000
1001
1001
1100
1000
1000
0000
0001
0010
1100
1100
0011
0000
0010
0010
,
1100
0000
1100
1100
0110
0100
0001
0000
1010
1001
0110
0100
0011
0001
1000
0000
,
0110
0010
0012
0013
1100
0000
0011
0010
1010
0011
1100
0000
0110
0010
0001
0000
,
1001
0000
1001
1001
0101
0001
0001
0000
0100
0010
1001
1001
0110
0000
0010
0010
,
0101
0000
0101
0101
0110
0100
1000
0000
0010
0001
1010
1010
0101
0000
0100
0100
,
0011
0000
0011
0011
1010
0010
0010
0000
1010
0011
1100
1000
0011
0001
1000
0000
,
0110
0100
0102
0103
1010
0000
1001
1000
1100
1010
0101
0000
0011
0010
1000
0000
,
0110
0000
0110
0110
1100
0100
0100
0000
0001
1000
0110
0110
1001
0000
0010
0010
,
1100
0000
1100
1100
1010
1000
1000
0000
0001
0100
1010
1010
0101
0000
0001
0001
,
1100
0000
1100
1100
0101
0100
0010
0000
1001
1010
0101
0100
1010
0010
0100
0000
,
1001
0001
0021
0031
1100
0000
0011
0010
0110
0011
1100
0000
0101
0100
0010
0000
,
1001
0000
1001
1001
1100
0000
0001
0000
0010
0001
0110
0110
0101
0100
0100
0100
,
1010
0000
1010
1010
1001
0000
0100
0000
0001
1000
0110
0110
1010
0010
0010
0000
,
0101
0000
0101
0101
1100
0000
0010
0000
0100
0010
1100
1100
0011
0000
0100
0100
,
1001
0000
0210
0310
0011
0000
1001
0000
0100
1010
0110
0000
1001
0000
0100
0100
,
0011
0000
1001
1001
1100
0000
0001
0000
0100
0010
1100
1100
0011
0000
0010
0010
,
1100
0000
1100
1100
0110
0000
0001
0000
1010
0100
0011
0011
1001
0001
0010
0000
,
0101
0000
1001
1001
1100
0000
0010
0000
0100
1000
0101
0101
1010
0000
0001
0001
,
1010
0000
0210
0310
0011
0000
0110
0000
0001
1010
0011
0000
0110
0000
1000
0000
,
0101
0000
0101
0101
1001
0000
0100
0000
0001
0100
0011
0011
1100
0000
0100
0100
,
1001
0000
1001
1001
0011
0000
1000
0000
0110
1000
0101
0101
1001
0001
0010
0000
,
1100
0000
1100
1100
1001
0000
0100
0000
0010
0001
1100
1100
0011
0000
0100
0000
,
1010
0100
0012
0003
0100
0000
1001
0000
0100
1010
1100
0000
0011
0000
0100
0000
,
1001
0000
1001
1001
0101
0000
0010
0000
0100
1000
0011
0011
1100
0000
0010
0010
,
0101
0000
1001
1001
1010
0000
0100
0000
0110
1000
0011
0011
1001
0001
0100
0000
,
0011
0010
1001
1001
0110
0100
0010
0010
1001
0011
1100
1100
0011
0010
0001
0001
,
1100
0100
0012
0013
1100
1000
0011
0001
1010
0101
1010
0100
0001
0000
1000
0000
,
0110
0000
0010
0010
0111
0000
0010
0000
0100
0000
0010
0010
1101
0000
0001
0001
,
1010
0000
1000
1000
1011
1000
1000
0000
0010
0000
1000
1000
0111
0000
0010
0010
,
1100
0000
0100
0100
1101
0100
0100
0000
0110
0100
1000
0000
0111
0100
0001
0000
,
0110
0010
1000
0000
0110
1100
0001
0010
1000
1001
0110
0000
1010
0010
0101
1000
,
0011
0000
0011
0011
1001
0001
0001
0000
0100
0010
0101
0101
1010
0000
0100
0100
,
1010
0000
1010
1010
1001
1000
1000
0000
0010
0100
1001
1001
0110
0000
0010
0010
,
1100
0000
1100
1100
0110
0100
0001
0000
0110
0101
1010
1000
0101
0001
0010
0000
,
0101
0100
0120
0130
1001
0000
0011
0010
1010
0110
1001
0000
1100
1000
0101
0000
,
0101
0000
0101
0101
1001
0001
0001
0000
0100
0010
1001
1001
0110
0000
0010
0010
,
0101
0000
0101
0101
1100
0100
0010
0000
0010
0001
0110
0110
1001
0000
1000
1000
,
0110
0000
0110
0110
0011
0010
0100
0000
1001
0011
1100
1000
0011
0010
1000
0000
,
0101
0100
0120
0130
1010
0000
1001
0001
0101
0011
1100
0000
0011
0010
1100
0000
,
0110
0000
0110
0110
1100
0100
0100
0000
0010
0001
1010
1010
0101
0000
0010
0010
,
1100
0000
1100
1100
0110
0100
0100
0000
0001
0100
1010
1010
0101
0000
0001
0001
,
1010
0000
1010
1010
0110
0010
0001
0000
1100
1001
0110
0100
1001
0011
0100
0000
,
1001
0001
0201
0301
1010
0000
1100
0100
0101
1100
0011
0000
1001
1000
0110
0000
,
0101
0000
0101
0101
0110
0000
0100
0000
0001
0010
1100
1100
0110
0100
0100
0100
,
0011
0000
0011
0011
0110
0000
0110
0000
1000
0100
1010
1010
0110
0010
0010
0000
,
1100
0000
1100
1100
1010
0000
1000
0000
0001
0010
1100
1100
0011
0000
1000
1000
,
0011
0000
0201
0301
1001
0000
1001
0000
0100
1001
0101
0000
1010
0000
1100
0000
,
0011
0000
0011
0011
1010
0000
0010
0000
0100
1000
0110
0110
1001
0000
1000
1000
,
0110
0000
0110
0110
0101
0000
1100
0000
0011
1000
0101
0101
1100
0100
0010
0000
,
1001
0000
1001
1001
1100
0000
0001
0000
0010
0100
1001
1001
0110
0000
1000
1000
,
0101
0000
0021
0031
0101
0000
0110
0000
0001
1010
0101
0000
0011
0000
1001
0000
,
0101
0000
0101
0101
0011
0000
0100
0000
0001
1000
0101
0101
1010
0000
0100
0100
,
1001
0000
1001
1001
1100
0000
0011
0000
1100
0010
0101
0101
1001
0001
1000
0000
,
0110
0000
0110
0110
1010
0000
0001
0000
0010
0001
1100
1100
0011
0000
1000
1000
,
0101
0000
2001
3001
0101
0000
0011
0000
0110
0001
1100
0000
0011
0000
1010
0000
,
0011
0000
0110
0110
1100
0000
0001
0000
0100
0010
1001
1001
0110
0000
1000
1000
,
0011
0000
0110
0110
1100
0100
1010
0000
0101
0010
1100
1100
1001
1000
0010
0000
,
1001
0000
1100
1100
0110
0000
0001
0000
0010
0100
1001
1001
0110
0000
0100
0100
,
1001
0000
0210
0310
1010
0000
1002
0000
0213
0001
2310
0000
3201
0000
1320
0000
,
0001
1000
0001
1000
0001
1000
0001
1000
,
0001
0100
0001
0100
0001
0100
0001
0100
,
1000
0100
1000
0100
1000
0100
1000
0100
,
1000
0001
1000
0001
1000
0001
1000
0001
,
1030
0000
0000
0000
;

//---------------dance-single - ----------------
#NOTES:
     dance-single:
     :
     Easy:
     13:
     1.000,1.000,1.000,0.063,1.000,939.000,452.000,9.000,0.000,14.000:
0000
0000
0000
0000
,
0000
0000
0000
0000
,
0000
0000
0000
0000
,
0000
0000
0000
0000
,
1200
1000
0001
0000
0000
1000
0001
0000
,
1302
1000
0010
0000
0000
1000
0010
0000
,
2103
0100
0001
0000
0000
0100
0001
0000
,
3210
0000
0000
0000
0010
0000
0001
0000
0010
0001
1000
0000
0001
0000
0000
0000
,
1310
0000
1010
1000
1001
0000
1000
0000
0000
0000
1001
1000
1010
1000
1000
1000
,
0110
0000
0110
0010
1010
0000
0010
0000
0000
0000
1010
0010
0110
0010
0010
0000
,
1001
0000
1001
0001
0101
0000
0001
0000
0000
0000
0101
0001
1001
0000
0001
0001
,
1100
0000
0100
0100
0101
0000
0110
0000
0010
0101
1100
0000
0011
0000
0001
0000
,
1010
0000
1010
1000
1001
0000
1000
0000
0000
0000
1100
1000
0011
0000
1000
1000
,
0110
0000
0110
0100
0101
0000
0100
0000
0010
0000
0101
0100
1100
0100
0010
0000
,
0101
0000
0101
0001
1001
0000
0010
0000
0000
0000
1001
0001
0110
0000
0001
0001
,
1100
0000
0100
0100
0101
0000
1010
0000
0001
0110
1100
0000
0011
0000
0010
0000
,
0101
0000
0101
0001
0011
0000
1000
0000
0000
0000
1001
0001
0110
0000
0001
0001
,
0110
0000
0110
0100
1001
0000
0001
0000
1000
0000
0101
0100
1100
0100
0001
0000
,
0110
0000
0110
0010
0011
0000
0001
0000
0000
0000
0011
0010
1100
0000
0010
0010
,
1100
0000
1000
1000
1010
0000
0011
0000
0110
0001
1100
0000
0011
0000
0010
0000
,
1001
0000
1100
0100
0110
0000
0001
0000
0000
0000
1100
0100
0011
0000
1000
1000
,
0011
0000
1010
1000
1100
0000
0001
0000
0010
0000
1100
1000
1001
1000
1000
0000
,
0101
0000
0110
0010
0011
0000
0100
0000
0000
0000
0110
0100
1001
0000
0010
0010
,
1100
0000
0001
0001
0011
0000
1010
0000
0101
0010
1100
0000
0101
0000
0010
0000
,
1010
0000
1010
0010
0110
0010
0010
0000
0000
0000
1010
0010
0101
0000
0100
0100
,
1010
0000
1010
1000
1001
1000
1000
0000
0000
0000
1100
1000
0011
0000
0010
0010
,
0101
0000
0101
0100
0110
0100
0100
0000
0100
0100
1001
0000
1100
1000
0010
0000
,
0110
0010
0010
0010
0101
0000
0011
0001
0101
0011
1100
0000
0011
0010
0100
0000
,
1001
0000
1001
0001
0101
0001
0001
0000
0000
0000
0101
0001
1010
0000
0100
0100
,
1001
0000
1001
1000
1100
1000
1000
0000
0000
0000
1100
1000
0011
0000
0010
0010
,
1100
0000
1100
0100
0110
0100
0001
0000
1000
1000
0110
0000
0011
0001
1000
0000
,
0110
0010
0010
0010
1100
0000
0011
0010
1010
0011
1100
0000
0110
0010
0001
0000
,
1001
0000
1001
0001
0101
0001
0001
0000
0000
0000
1001
0001
0110
0000
0010
0010
,
0101
0000
0101
0100
0110
0100
1000
0000
0000
0000
1010
0010
0101
0000
0100
0100
,
0011
0000
0011
0010
1010
0010
0010
0000
0010
0010
1100
0000
0011
0001
1000
0000
,
0110
0100
0100
0100
1010
0000
1001
1000
1100
1010
0101
0000
0011
0010
1000
0000
,
0110
0000
0110
0100
1100
0100
0100
0000
0000
0000
0110
0100
1001
0000
0010
0010
,
1100
0000
1100
1000
1010
1000
1000
0000
0000
0000
1010
1000
0101
0000
0001
0001
,
1100
0000
1100
0100
0101
0100
0010
0000
1000
1000
0101
0000
1010
0010
0100
0000
,
1001
0001
0001
0001
1100
0000
0011
0010
0110
0011
1100
0000
0101
0100
0010
0000
,
1001
0000
1001
1000
1100
0000
0001
0000
0000
0000
0110
0100
0101
0100
0100
0100
,
1010
0000
1010
1000
1001
0000
0100
0000
0000
0000
0110
0010
1010
0010
0010
0000
,
0101
0000
0101
0100
1100
0000
0010
0000
0000
0000
1100
0100
0011
0000
0100
0100
,
1001
0000
0010
0010
0011
0000
1001
0000
0100
1010
0110
0000
1001
0000
0100
0100
,
0011
0000
1001
1000
1100
0000
0001
0000
0000
0000
1100
1000
0011
0000
0010
0010
,
1100
0000
1100
0100
0110
0000
0001
0000
0100
0000
0011
0001
1001
0001
0010
0000
,
0101
0000
1001
1000
1100
0000
0010
0000
0000
0000
0101
0100
1010
0000
0001
0001
,
1010
0000
0010
0010
0011
0000
0110
0000
0001
1010
0011
0000
0110
0000
1000
0000
,
0101
0000
0101
0001
1001
0000
0100
0000
0000
0000
0011
0001
1100
0000
0100
0100
,
1001
0000
1001
0001
0011
0000
1000
0000
0100
0000
0101
0001
1001
0001
0010
0000
,
1100
0000
1100
1000
1001
0000
0100
0000
0000
0000
1100
0100
0011
0000
0100
0000
,
1010
0100
0010
0000
0100
0000
1001
0000
0100
1010
1100
0000
0011
0000
0100
0000
,
1001
0000
1001
0001
0101
0000
0010
0000
0000
0000
0011
0010
1100
0000
0010
0010
,
0101
0000
1001
1000
1010
0000
0100
0000
1000
0000
0011
0001
1001
0001
0100
0000
,
0011
0010
1001
1000
0110
0100
0010
0010
0001
0001
1100
0100
0011
0010
0001
0001
,
1100
0100
0010
0010
1100
1000
0011
0001
1010
0101
1010
0100
0001
0000
1000
0000
,
0110
0000
0010
0010
0111
0000
0010
0000
0100
0000
0010
0010
1101
0000
0001
0001
,
1010
0000
1000
1000
1011
1000
1000
0000
0010
0000
1000
1000
0111
0000
0010
0010
,
1100
0000
0100
0100
1101
0100
0100
0000
0110
0100
1000
0000
0111
0100
0001
0000
,
0110
0010
1000
0000
0110
1100
0001
0010
1000
1001
0110
0000
1010
0010
0101
1000
,
0011
0000
0011
0011
1001
0001
0001
0000
0000
0000
0101
0101
1010
0000
0100
0100
,
1010
0000
1010
1010
1001
1000
1000
0000
0000
0000
1001
1001
0110
0000
0010
0010
,
1100
0000
1100
1100
0110
0100
0001
0000
0100
0100
1010
1000
0101
0001
0010
0000
,
0101
0100
0100
0100
1001
0000
0011
0010
1010
0110
1001
0000
1100
1000
0101
0000
,
0101
0000
0101
0101
1001
0001
0001
0000
0000
0000
1001
1001
0110
0000
0010
0010
,
0101
0000
0101
0101
1100
0100
0010
0000
0000
0000
0110
0110
1001
0000
1000
1000
,
0110
0000
0110
0110
0011
0010
0100
0000
0001
0001
1100
1000
0011
0010
1000
0000
,
0101
0100
0100
0100
1010
0000
1001
0001
0101
0011
1100
0000
0011
0010
1100
0000
,
0110
0000
0110
0110
1100
0100
0100
0000
0000
0000
1010
1010
0101
0000
0010
0010
,
1100
0000
1100
1100
0110
0100
0100
0000
0000
0000
1010
1010
0101
0000
0001
0001
,
1010
0000
1010
1010
0110
0010
0001
0000
1000
1000
0110
0100
1001
0001
0100
0000
,
1001
0001
0001
0001
1010
0000
1100
0100
0101
1100
0011
0000
1001
1000
0110
0000
,
0101
0000
0101
0100
0110
0000
0100
0000
0000
0000
1100
0100
0110
0100
0100
0100
,
0011
0000
0011
0010
0110
0000
0110
0000
0000
0000
1010
0010
0110
0010
0010
0000
,
1100
0000
1100
1000
1010
0000
1000
0000
0000
0000
1100
1000
0011
0000
1000
1000
,
0011
0000
0001
0001
1001
0000
1001
0000
0100
1001
0101
0000
1010
0000
1100
0000
,
0011
0000
0011
0010
1010
0000
0010
0000
0000
0000
0110
0010
1001
0000
1000
1000
,
0110
0000
0110
0100
0101
0000
1100
0000
0010
0000
0101
0100
1100
0100
0010
0000
,
1001
0000
1001
1000
1100
0000
0001
0000
0000
0000
1001
0001
0110
0000
1000
1000
,
0101
0000
0001
0001
0101
0000
0110
0000
0001
1010
0101
0000
0011
0000
1001
0000
,
0101
0000
0101
0001
0011
0000
0100
0000
0000
0000
0101
0001
1010
0000
0100
0100
,
1001
0000
1001
1000
1100
0000
0011
0000
1000
0000
0101
0001
1001
0001
1000
0000
,
0110
0000
0110
0010
1010
0000
0001
0000
0000
0000
1100
0100
0011
0000
1000
1000
,
0101
0000
0001
0001
0101
0000
0011
0000
0110
0001
1100
0000
0011
0000
1010
0000
,
0011
0000
0110
0100
1100
0000
0001
0000
0000
0000
1001
0001
0110
0000
1000
1000
,
0011
0000
0110
0100
1100
0100
1010
0000
0001
0000
1100
1000
1001
1000
0010
0000
,
1001
0000
1100
0100
0110
0000
0001
0000
0000
0000
1001
1000
0110
0000
0100
0100
,
1001
0000
0010
0010
1010
0000
1002
0000
0213
0001
2310
0000
3201
0000
1320
0000
,
0001
1000
0001
1000
0001
1000
0001
1000
,
0001
0100
0001
0100
0001
0100
0001
0100
,
1000
0100
1000
0100
1000
0100
1000
0100
,
1000
0001
1000
0001
1000
0001
1000
0001
,
1030
0000
0000
0000
;
