#TITLE:Detonation;
#SUBTITLE:;
#ARTIST:Trivium;
#TITLETRANSLIT:;
#SUBTITLETRANSLIT:;
#ARTISTTRANSLIT:;
#CREDIT:MURDER.V01DKeng07;
#BANNER:Detonation-bn.png;
#BACKGROUND:Detonation-bg.png;
#LYRICSPATH:;
#CDTITLE:Murder-cd-title.png;
#MUSIC:Detonation.ogg;
#OFFSET:-0.653;
#SAMPLESTART:148.000;
#SAMPLELENGTH:11.860;
#SELECTABLE:YES;
#BPMS:0.000=140.000,190.000=155.000,206.000=210.000;
#STOPS:31.000=5.143
,366.000=6.286
;
#BGCHANGES:0.000=Detonation-bg.png=1.000=0=0=1,
99999=-nosongbg-=1.000=0=0=0 // don't automatically add -songbackground-
;
// cache tags:
#FIRSTBEAT:2.000;
#LASTBEAT:772.000;
#SONGFILENAME:Songs/SSSC Pack 2/Detonation - [VO1D]/Detonation.sm;
#HASMUSIC:1;
#HASBANNER:1;
#MUSICLENGTH:268.930;
// end cache tags

//---------------dance-single - V01DKeng07----------------
#NOTES:
     dance-single:
     V01DKeng07:
     Challenge:
     15:
     1.000,1.000,0.513,0.309,1.000,1844.000,138.000,83.000,40.000,0.000:

0000
0000
0000
0000
0000
0000
0011
0001
1000
0020
0000
0000
,
0100
0000
0000
1030
0001
0010
0002
0000
0000
1003
0010
0100
,
0102
0000
0000
0013
0100
1000
0200
0000
0000
0010
0000
0000
,
1300
0000
0001
0100
0001
0000
1000
0000
0100
0000
0010
0000
0001
0000
1000
0010
1000
0000
0001
0000
0010
0000
0100
0000
,
1000
0010
0100
0002
0000
0000
0010
0000
0000
0103
0001
1000
,
0020
0000
0000
0130
0001
1000
1200
0000
0000
0310
0001
0100
,
0020
0000
0000
0000
0000
0000
1000
0000
0000
0000
0000
0000
0130
0000
0001
1000
0001
0000
0010
0000
0100
0000
1000
0000
,
0001
0000
0100
0010
0100
0000
0001
0000
1000
0000
0100
0000
0010
0000
0011
0000
1001
0000
1010
0000
0000
0000
0000
0000
,
2001
0000
3000
0012
0000
0003
2010
0000
3000
0102
0000
0003
,
1010
1000
0001
0010
0000
0000
0011
0000
0000
0001
1000
0100
,
1000
0000
0000
1010
0000
0000
0010
0000
0100
0001
1000
0100
,
0011
0001
1000
1010
0010
0100
0101
0000
0000
1001
0000
0000
,
1100
0000
0000
0000
0000
0000
0100
0000
0010
0000
0001
0000
2000
0000
0000
0000
3010
1000
0002
0000
0000
0000
0013
0000
,
0002
0000
0000
0103
0010
1000
0020
0000
0000
0000
0130
0000
0001
0000
1000
0000
1000
0000
0001
0000
0100
0000
0100
0000
,
0001
1000
1000
0100
0010
0001
1001
1000
0001
0001
1000
0010
,
0010
1000
0010
1000
0001
1000
1001
0001
0010
0110
0100
1000
,
1001
0010
1000
1000
0010
0100
0100
0001
0010
0001
1000
0001
,
1001
0000
0000
1000
0001
1000
0020
0000
0000
0030
0100
0000
0002
0000
0000
1003
0100
0010
0002
0000
0000
0000
1003
0000
,
0010
0100
0001
1000
0100
0010
0001
0010
0100
1000
0010
0100
,
0001
0100
1000
0100
0010
0100
0001
1000
0010
0100
0001
1000
,
0100
0010
0100
0001
0100
1000
0010
0100
0001
1001
1000
0100
,
0010
0001
0010
1100
1000
0001
0101
0100
0010
1000
0001
1000
,
1100
0000
0100
1000
0001
0000
0100
0000
0010
0000
1000
0000
0001
0000
0010
0000
0001
0000
2000
0000
0000
0000
0000
0000
,
3010
0000
0100
0001
0100
0000
0010
0000
1000
0000
0001
0000
0011
0000
0010
0000
0001
0000
2000
0000
0000
0000
0000
0000
,
3100
0100
1000
0002
0000
0013
0001
1000
0010
0200
0000
0000
,
0310
0000
1000
0001
1000
0000
0100
0000
0100
0000
0010
0000
0011
0000
0001
0000
1000
0000
0100
0000
1000
0000
0010
0000
,
0110
0100
0001
0100
0010
1000
1010
0010
0100
0002
0000
0000
,
0103
0000
0010
1000
0010
0000
0100
0000
0001
0000
1000
0000
0100
0000
0010
0000
0001
0000
0020
0000
0000
0000
0000
0000
,
0130
0100
1000
0002
0000
0103
0010
1000
0100
0020
0000
0000
,
0130
0000
1000
0100
1000
0000
0001
0000
0100
0000
0010
0000
1010
0000
1000
0000
0001
0000
0010
0000
0001
0000
1000
0000
,
0100
1000
0010
0100
0001
0100
1001
0010
0010
1000
0001
0001
,
0010
0100
0100
1000
0001
0100
0010
1000
1000
0001
0010
0010
,
0001
0100
0100
0010
1000
0001
0021
0032
2003
3020
0230
0302
,
1003
0100
0100
0010
0001
0001
1000
0010
0010
0100
0001
0100
,
0110
0000
0000
0010
1000
0001
1000
0000
0000
0000
0001
0000
0010
0000
0000
0100
1000
0001
0100
0000
0000
0000
0010
0000
,
1010
1000
0001
0010
0001
0100
0010
1000
0001
1000
0100
0010
,
0001
0010
0100
1000
0001
0100
0010
1000
0001
0011
0001
1000
,
0010
0100
0001
0100
0010
1000
0001
1000
0010
1000
0001
0100
0010
0000
1000
0000
0001
0000
0010
0000
0100
0000
1000
0000
,
0100
0000
0010
0000
0001
0000
1000
0000
0010
0000
0100
0000
0110
0000
0000
0010
1000
0001
1000
0000
0000
0000
0001
0000
,
0010
0000
0000
0100
1000
0100
0010
0000
0000
0000
0001
0000
1000
0000
0010
0000
0100
0000
0002
0000
0000
0000
0000
0000
,
0013
0000
0001
1000
0001
0000
0100
0000
0100
0000
0010
0000
1000
0000
0001
0000
0010
0000
0200
0000
0000
0000
0000
0000
,
1300
0001
0100
0020
0000
1030
0001
0010
0001
0200
0000
0000
,
0310
0000
1000
0100
1000
0000
0010
0000
0010
0000
0100
0000
0001
0000
1000
0000
0100
0000
0010
0000
0100
0000
1000
0000
,
0001
0000
0100
0010
0100
0000
0001
0000
1000
0000
0100
0000
0110
0000
0010
0000
0001
0000
2000
0000
0000
0000
0000
0000
,
3010
0000
0100
0001
0100
0000
0010
0000
0010
0000
1000
0000
0001
0000
1000
0000
0100
0000
0020
0000
0000
0000
0000
0000
,
0031
0001
1000
0020
0000
0130
0001
0100
0010
2000
0000
0000
,
3100
0000
0010
0001
0010
0000
0100
0000
0100
0000
1000
0000
0001
0000
0100
0000
0010
0000
1000
0000
0001
0000
0010
0000
,
0001
0000
0100
0010
1000
0000
0001
0000
0010
0000
0001
0000
0101
0000
0100
0000
0010
0000
1000
0000
0000
0000
0000
0000
,
0010
1000
0001
0011
0000
0000
0001
0010
0100
1000
0000
0000
,
0010
1000
0010
0110
0000
0000
1000
0001
0010
0011
0000
0000
,
1000
0100
0010
0011
0000
0000
1000
0001
1000
1001
0000
0000
,
0010
0000
0000
0000
1000
0000
0000
0000
0001
0000
0000
0000
0110
0000
0000
0000
0000
0000
0000
0000
0000
0000
0000
0000
1010
0000
0000
0000
0000
0000
1000
0000
0000
0000
0000
0000
0001
0000
0000
0010
0000
0000
0001
0000
0000
0010
0000
0000
,
0001
0000
1000
0000
0010
0100
0010
0100
0010
0000
1000
0000
0001
1000
0001
1000
,
0001
0000
0010
0000
0100
1000
0100
1000
0100
0000
1000
0000
0001
1000
0001
1000
,
0001
0000
0100
0000
0010
1000
0010
1000
0010
0000
0100
0000
0001
0100
0001
0100
,
0001
0000
1000
0000
0100
1000
0100
1000
0100
0000
0010
0000
0001
0010
0001
0010
,
0001
0000
1000
0000
0001
1000
0001
1000
0001
0000
0100
0000
0010
1000
0010
1000
,
0010
0000
0100
0000
0001
1000
0001
1000
0100
0010
0001
1000
0100
0010
0001
1000
,
0001
0100
0010
1000
0010
0100
0001
0100
0010
1000
0001
1000
0100
0010
0001
1000
,
0010
0100
0010
0100
0001
1000
0001
1000
0002
0000
0013
0000
0001
1000
0001
0100
,
0002
0000
2003
0000
3100
1000
0001
1000
0020
0000
0130
0000
0001
1000
0001
1000
,
0200
0000
0320
0000
0031
0010
0100
1000
0002
0000
0103
0000
0010
1000
0010
0100
,
0002
0000
0203
0000
0310
1000
0001
1000
0200
0000
0310
0000
0001
0010
0100
0010
,
0002
0000
2003
0000
3010
0100
0001
0100
0020
0000
1030
0000
0100
1000
0100
0010
,
0002
0000
2003
0000
3010
0100
0001
1000
0200
0000
0310
0000
0001
0010
0001
1000
,
0020
0000
0230
0000
0301
1000
0010
0100
0010
1000
0001
1000
0001
0010
0001
0010
,
0100
1000
0100
1000
0001
1000
0001
1000
0010
1000
0010
0100
0001
0100
0001
0100
,
0010
1000
0001
1000
0001
0010
0001
1000
0010
0100
0010
0100
0001
1000
0001
1000
,
0100
1000
0100
1000
0001
1000
0001
0100
0010
1000
0010
1000
0001
0100
0001
0100
,
0010
1000
0010
1000
0001
1000
0100
1000
0100
0010
0001
0010
0001
1000
0001
1000
,
0010
0100
0001
0100
0010
1000
0001
1000
0100
1000
0100
1000
0001
0100
0001
0100
,
0010
1000
0010
1000
0001
1000
0001
1000
0100
0010
0001
1000
0100
0010
0001
1000
,
0001
0100
0010
1000
0010
0100
0001
1000
0010
0100
0001
1000
0001
1000
0001
1000
,
0010
1000
0010
1000
0001
0100
0001
0100
0010
1000
0001
1000
0001
1000
0100
1000
,
0100
0010
0100
0010
0100
1000
0100
1000
0001
1000
0001
1000
0010
0100
0010
0100
,
0001
1000
0001
1000
0100
1000
0100
1000
0001
0100
0010
1000
0001
0100
0010
1000
,
0001
0010
0100
1000
0001
0010
0100
1000
0100
0010
0001
1000
0100
1000
0001
0100
,
0010
1000
0010
0100
0001
1000
0100
1000
0100
0010
0001
0010
0001
1000
0001
1000
,
0010
0100
0001
0100
0010
1000
0010
1000
0001
1000
0001
1000
0001
0010
0001
0010
,
0001
0010
0100
1000
0100
1000
0100
1000
0001
1000
0010
0100
0001
1000
0100
0010
,
0001
1000
0001
1000
0010
0100
0001
0100
0010
1000
0010
1000
0001
1000
0001
1000
,
0001
0010
0001
0010
0100
1000
0100
1000
0001
0100
0010
1000
0001
0010
0001
1000
,
0100
1000
0010
0100
0001
0100
0010
1000
0001
0000
0000
0000
1001
0000
0000
0000
,
1100
0000
0000
0000
0101
0000
0000
0000
0110
0000
0100
0000
0001
1000
0001
1000
,
0001
0000
1000
0000
0100
1000
0100
1000
0100
0000
0010
0000
0001
0010
0001
0010
,
0001
0000
1000
0000
0010
1000
0010
1000
0010
0000
0100
0000
0010
0100
0010
0100
,
0010
0000
1000
0000
0001
1000
0001
1000
0001
0000
0010
0000
0100
1000
0100
1000
,
0100
0000
1000
0000
0010
1000
0010
1000
0010
0000
0100
0000
0001
0100
0001
0100
,
0001
0000
0010
0000
0100
0010
0100
0010
0100
0000
1000
0000
0001
1000
0001
1000
,
0001
0000
0100
0000
0010
1000
0001
1000
0001
0010
0100
1000
0100
0010
0001
1000
,
0010
0100
0001
0100
0010
1000
0001
0010
0001
1000
0100
1000
0010
0100
0001
1000
,
0100
0010
0001
1000
0100
1000
0001
0100
0010
0000
MMMM
0000
0000
0000
MMMM
0000
,
1001
0000
1000
0001
0010
0000
0100
0000
0000
0000
1100
0000
1000
0000
0001
0100
,
0010
0000
1000
0000
0001
0000
0010
0100
1000
0000
0001
0000
0100
0000
0001
0000
,
2001
0000
3010
0000
0110
0100
0001
1000
,
0000
0100
0100
0010
0010
0001
0001
1000
,
1020
0000
0130
0001
0000
1001
0000
1100
,
0100
1000
1000
0001
0001
0100
0100
0010
,
1001
0100
0010
1000
0000
0011
0000
0101
,
0000
0100
0010
0010
1000
1000
0001
0001
,
0011
0010
0001
1000
1100
1000
0010
0100
,
0101
0001
1000
0010
0110
0100
0001
1000
,
1001
0001
0010
0001
0000
0100
0010
1000
,
0000
0001
0001
0010
0010
0001
0001
1000
,
0120
0000
1030
0001
0010
0001
0100
0010
,
0000
1000
1000
0001
0001
0010
0010
0001
,
1001
1000
0010
0100
0001
1000
0100
0010
,
0000
0001
0001
0010
0010
0001
0001
1000
,
1010
0010
0100
0001
0101
1000
0100
0010
,
0110
0100
1000
0001
0101
1000
0010
0100
,
0001
0100
0010
1000
0001
0010
0001
1000
,
0010
0100
1000
0100
0010
1000
0001
0010
,
1000
0010
0001
0010
2000
0000
0000
0000
,
3010
0000
0001
0000
1000
0000
0020
0000
0000
0130
0000
0002
,
0000
0000
1003
0200
0000
1300
0001
0100
,
0020
0000
0000
0000
0230
0000
0301
1000
,
0001
0010
0100
1000
0100
0010
0001
0010
0100
1000
0001
0100
0010
1000
0010
0100
,
0001
1000
0010
0100
0010
1000
0001
0010
0100
1000
0100
0010
0001
1000
0010
0100
,
0020
0000
2030
3002
,
0000
0000
0013
0001
1000
0010
0100
0100
,
0001
0001
1000
2000
0000
3100
0100
1000
,
1000
0001
0100
0010
1000
0001
0010
0100
,
1000
0100
0010
0001
0010
0100
1000
0001
0100
0010
1000
0001
,
0010
0100
1000
0100
0010
0001
1000
0010
0100
0001
1000
0100
0010
0100
1000
0100
,
0010
0001
1000
0001
0100
0010
1000
0001
0100
0001
0100
0010
1000
0001
1000
0001
,
0010
0001
0000
1000
1010
0000
0011
0000
,
1M01
0000
101M
0000
,
M011
0001
M101
1000
,
110M
0000
M011
0000
,
M110
1000
01M1
0010
,
1M01
0000
011M
0000
,
11M0
0001
1M10
0001
,
110M
0000
M101
0000
,
10M1
1000
011M
1000
,
1M01
0000
0M11
0000
,
101M
0001
11M0
0010
,
1M01
0000
M110
0000
,
0M11
1000
01M1
1000
,
M011
0000
1M01
0000
,
1M10
0001
11M0
0001
,
M101
1000
10M1
0100
,
M011
0100
101M
0100
,
0010
1000
0001
1000
0001
1000
0100
0010
0100
1000
0100
0010
0001
1000
0010
0100
,
0010
1000
0001
0100
0010
1000
0001
0010
0002
0000
0000
0000
0000
0000
0000
0000
,
2003
0000
0000
0000
0010
0000
3001
1000
,
0200
0000
0000
0000
0000
0000
0000
0000
0310
0000
0000
0000
0011
0000
0001
1000
,
0010
0100
0001
0100
0010
1000
0100
1000
0001
1000
0100
1000
0010
0100
0001
0100
,
0001
1000
0001
0010
0001
0100
0001
0010
0100
1000
0001
0100
0010
1000
0001
0010
,
0001
1000
0100
1000
0010
0100
0001
1000
0100
1000
0001
1000
0100
1000
0010
0100
,
0001
0010
0001
1000
0010
0100
0001
0010
0100
1000
0100
0010
0001
1000
0010
0100
,
0001
0010
0001
1000
0001
0010
0001
1000
0100
1000
0010
1000
0001
1000
0100
1000
,
0010
0100
0001
1000
0001
0010
0100
0000
2000
0000
0000
0000
0000
0000
0000
0000
,
3002
0000
0000
0000
0000
0000
0103
0010
,
2000
0000
0000
0000
0001
0000
3010
1000
,
0001
0010
0100
1000
0100
0010
0001
0010
0100
1000
0100
0010
0001
0010
0100
1000
,
0001
0100
0010
1000
0010
0100
0001
1000
0100
1000
0010
0100
0001
1000
0100
0010
,
0001
0010
0100
1000
0001
0100
0010
1000
0001
0010
0001
1000
0100
1000
0010
0100
,
0001
1000
0010
0100
0001
0010
0001
1000
0100
1000
0010
1000
0001
0100
0010
1000
,
0001
0000
0011
0000
0001
1000
0010
0010
,
0000
1010
1000
0001
0001
0010
0010
0001
,
1001
1000
0010
0100
0001
1000
1000
0100
,
0010
0010
0001
0001
1000
1000
0010
0010
,
0110
0100
0001
0010
0100
1000
0000
1001
,
1000
0001
0100
0100
0010
0010
1000
1000
,
1100
0100
0010
0001
1001
1000
0010
0100
,
0101
0001
0010
0100
1100
1000
0010
0100
,
1001
1000
0001
0010
0001
1000
1000
0010
,
0100
0100
0001
0001
1000
1000
0100
0100
,
0110
0010
0100
1000
0001
0100
0100
0010
,
1000
1000
0001
0001
0010
0010
0001
0001
,
1001
1000
0010
0100
0001
0001
0100
0010
,
1000
1000
0100
0100
1000
1000
0001
0001
,
0101
0100
0001
1000
1100
0100
1000
0001
,
0101
0000
0000
0010
0000
0000
1000
0000
0001
0000
0010
0000
0100
0000
0010
0000
0001
0000
1000
0000
0010
0000
0100
0000
,
0001
1000
0100
0010
0011
0000
1000
0000
,
0001
0001
0010
0010
0001
0001
1000
0010
,
0110
0100
0001
1000
1100
0000
0010
0000
,
0001
0001
1000
1000
0010
0010
0100
0001
,
1001
1000
0001
0010
0001
0001
0000
1001
,
0001
1000
0010
0010
0100
0001
0001
1000
,
1100
0100
1000
0001
0100
0010
0001
0010
,
2000
0000
0100
0000
0010
0000
3001
1000
,
0100
0010
0001
0010
0000
1100
0000
1001
,
0100
0100
0010
0010
1000
1000
0001
0001
,
0011
0010
0001
1000
0000
1010
0000
0110
,
0010
0100
0001
0001
1000
1000
0100
0100
,
1001
0010
0100
0001
0000
0011
0000
1001
,
0001
1000
0001
0001
0010
0010
0001
0001
,
2000
0000
3010
0100
,
0102
0000
0013
0001
,
2002
0000
0000
0000
,
0000
0000
0000
0000
,
0000
0000
0000
0000
,
3003
0000
0000
0000
;
