#TITLE:LUV TO ME;
#SUBTITLE:-AMD MIX-;
#ARTIST:DJ KAZU feat. tiger YAMATO;
#TITLETRANSLIT:;
#SUBTITLETRANSLIT:;
#ARTISTTRANSLIT:;
#CREDIT:zeppy (doubles kb only);
#BANNER:LUV.PNG;
#BACKGROUND:LUV-BG.PNG;
#LYRICSPATH:;
#CDTITLE:;
#MUSIC:luv.mp3;
#OFFSET:1.438;
#SAMPLESTART:37.338;
#SAMPLELENGTH:12.000;
#SELECTABLE:YES;
#BPMS:0.000=154.000;
#STOPS:;
#BGCHANGES:;
// cache tags:
#FIRSTBEAT:4.000;
#LASTBEAT:248.000;
#SONGFILENAME:Songs/new cc/(zeppygorrila)DOUBLESKBONLY/LUV.sm;
#HASMUSIC:1;
#HASBANNER:0;
#MUSICLENGTH:96.898;
// end cache tags

//---------------dance-double - Doubles Keyboard onl----------------
#NOTES:
     dance-double:
     Doubles Keyboard onl:
     Challenge:
     7:
     1.000,1.000,1.000,0.000,1.000,706.000,450.000,0.000,0.000,327.000:
00000000
00000000
00000000
00000000
,
00001000
00001000
00001000
00000000
00000100
00000100
00000100
00000000
00000010
00000010
00000010
00000100
00000001
00000001
00000001
00000000
,
10000011
00000000
00100100
00000000
10001000
00000000
00100100
00000000
10000011
00000000
00100100
01000000
10000010
00000000
00101000
00000000
,
10000000
00000000
00100011
00000000
10000000
00000000
00101100
00000000
10000000
00000000
00100011
01000000
10000100
00000000
00100011
00000000
,
10000011
00000000
00100100
00000000
10001000
00000000
00100100
00000000
10000011
00000000
00100100
01000000
10000010
01000000
00101000
00000000
,
10000000
00000000
00100011
00000000
10000000
00000000
00101100
00000000
10000000
00000000
00100011
01000000
10000100
01000000
00100011
00000000
,
10000011
00000000
00100100
00000000
10001000
00000000
00100100
00000000
10000011
00000000
00100100
01000000
10000010
00000000
00101000
00000000
,
10000000
00000000
00100011
00000000
10000000
00000000
00101100
00000000
10000000
00000000
00100011
01000000
10000100
00000000
00100011
00000000
,
10000011
00000000
00100100
00000000
10001010
00000000
00100100
00000000
10000011
00000000
00100100
01000000
10001001
00000000
00100100
00000000
,
10001011
00001000
00001000
00000000
10001101
00001000
00001000
00000000
10001011
00001000
00001101
00001000
10001011
00001000
00001101
00000000
,
00000001
00000100
00000010
00001000
00000101
00000000
00000010
00000001
00000010
00001000
00000100
00000010
00000100
00000001
00001000
00000000
00001000
00000010
00000100
00000000
00000100
00001000
00000010
00000000
00000001
00000100
00000001
00000000
00000100
00000000
00000010
00000001
,
10001000
00000000
00110000
00000000
10010000
00000000
00100000
00000000
10010110
01000000
00111000
00000000
10010011
00000000
00101000
00000000
,
10011001
00000000
00111000
00000000
10010110
00000000
00111000
00000000
10000011
00000000
00111000
01000000
10010101
00000000
00110010
00000000
,
10011000
00000000
00100100
00000000
10000101
00000000
00101010
00000000
10010101
00000000
00100011
01000000
10001100
00000000
00101100
00000000
,
10000011
00000000
00111100
00000000
10001010
00000000
00110101
00000000
10010110
00000000
00101001
01000000
10011100
01000000
00110011
00000000
,
10010101
00000000
00111000
00000000
10010101
00000000
00111000
00000000
10010011
00000000
00111000
01000000
10011001
00000000
00101000
00000000
,
10010101
00000000
00111000
00000000
10010110
00000000
00111000
00000000
10001100
00000000
00111000
01000000
10010101
01000000
00111000
00000000
,
10000001
00000000
00110011
00000000
10001100
01000000
00110110
00000000
10000101
01000000
00100011
01000000
10000110
00000000
00101100
01000000
,
10011010
00001000
00101101
00000000
10011110
00001000
00111100
00001000
10001110
00001000
00111011
00001000
10011100
00000000
00110110
00000000
,
10011000
00100011
10011000
00110011
10010101
00101000
10000101
00111000
,
10010101
00000000
00110010
00000000
10010101
00000000
00110010
00000000
10000101
00010000
00100010
00001000
10000101
00000000
00110010
00001000
,
10010011
00110100
10010011
00110100
10010011
00100100
10010011
00110100
,
10000011
00010000
00100100
00000000
10010011
00000000
00111000
00000100
10000011
00001000
00100100
00001000
10000011
00000000
00101000
00000000
,
10010101
00111000
10010101
00111000
10010101
00101000
10000101
00110010
,
00010101
00000000
00110010
00000000
00010101
00000000
00110010
00000000
00010101
00000000
00100010
00001000
10010101
00000000
00101000
00000100
,
10010011
00111000
10010011
00110100
10010011
00111000
10010011
00110100
,
10010011
00111000
10000011
00110100
10000011
00111000
10010011
00100100
,
11011000
00001000
00101000
00001000
10111000
00001000
00101000
00001000
11011000
00000000
10010000
00000000
11010000
00000000
10011101
00000000
,
10010010
00000001
00101000
00000100
10010010
00000001
00111000
00000010
10000100
00000001
00111000
00000010
10001100
00000001
00111000
00000100
,
10000010
00000001
00110010
00000100
10001001
00000100
00110010
00000001
10001100
00000010
00111000
00000011
10000100
00000001
00111100
00000010
,
10010100
00000001
00110010
00000100
10011000
00000100
00110010
00000001
10011000
00000100
00100010
00000001
10010100
00000010
00101000
00000100
,
10010010
00000001
00110010
00000100
10011000
00000010
00100100
00000001
10010100
00000001
00100010
00001000
10000010
00001000
00110010
00000100
,
10011000
00000001
00110010
00000100
10011000
00000100
00110010
00001000
10000001
00000100
00110010
00000001
10000100
00000010
00111000
00000100
,
10010010
00000001
00110100
00000010
10011000
00000100
00110010
00000001
10000100
00000001
00111000
00000010
10000100
00000001
00110010
00000100
,
10001000
00000100
00110010
00000100
10010100
00001000
00110010
00000100
10000001
00000010
00110100
00001000
10010100
00001000
00110010
00000001
,
10000010
00000001
00110010
00001000
10010100
00000100
00110010
00000001
10011000
00000000
00110010
00000001
10000010
00000100
00111000
00000000
,
00011000
00110000
10011000
00100000
00010001
00100000
10010001
00100000
,
00011000
00100000
10010100
00100000
00010000
10101001
10011001
00110000
,
00010010
00110100
10010010
00110000
00010100
00110010
10000100
00110000
,
00001000
00000000
00110100
00000000
10000001
00000000
00110000
00000000
10001000
00000000
10110001
10000000
10000110
00000000
10110000
00000000
,
10011001
00110000
10010011
00110000
10001010
00110101
10000000
00111010
,
10000000
00110101
10000001
00110110
10000000
00110110
10001001
00101000
,
10000001
00000000
00100010
00000000
10000100
00000000
00101000
00000100
10000010
00000001
00101000
00000000
10001000
00000000
00100100
00000000
,
10001001
00001000
00101000
00000000
10001001
00001000
00101000
00000000
10001001
00001000
00101000
00001000
10001001
00001000
00101000
00001000
,
10011010
00100100
10010011
00110100
10010101
00100100
10000011
00100100
,
10010011
00110100
10010011
00110100
10000011
00110100
10001010
00100101
,
10011010
00110100
10011010
00110100
10011010
00100100
10001010
00110001
,
10011001
00000000
00100010
00010000
10000101
00000000
00111010
00000000
10010010
00000000
00100100
00000001
10001100
00000000
00101100
00000000
,
10010010
00110010
10010101
00111000
10010101
00100010
10010101
00111000
,
10010101
00111000
10000101
00110100
10000101
00111000
10010101
00110100
,
10010011
00111000
10010011
00110100
10010011
00111000
10010011
00100100
,
10010011
00101000
10010011
00110100
10000011
00101000
10000011
00100100
,
10001101
00001000
00101000
00001000
10001011
00001000
00101000
00001000
10001101
00000000
00101011
00000000
10001101
00000000
00101011
00000000
,
10011001
00000010
00110100
00001000
10010011
00000100
00111000
00000100
10000011
00000100
00111000
00000100
10000010
00000001
00110010
00000100
,
10011001
00000010
00110001
00000010
10010100
00001000
00110100
00000010
10001100
00000010
00110100
00000001
10000010
00001000
00110010
00000100
,
10010001
00000010
00110100
00000010
10010001
00000010
00110100
00001000
10010010
00000001
00110100
00000010
10000100
00000001
00110010
00000100
,
10011000
00000010
00110100
00000001
10010100
00000010
00111000
00000010
10010001
00000010
00111000
00000010
10000100
00000010
00111000
00000010
,
10011001
00000100
00110010
00000001
10010010
00000100
00111000
00000010
10000100
00000001
00110010
00000100
10001010
00000100
00110001
00000010
,
10011001
00000010
00110100
00001000
10010010
00000100
00110001
00000010
10000100
00000010
00111000
00000010
10000100
00000001
00110010
00000100
,
10011001
00000010
00110100
00000000
10010010
00001000
00110001
00000010
10000100
00000010
00110001
00001000
10000010
00001000
00110010
00000001
,
10001000
00000100
00110010
00000001
10011000
00000100
00110010
00000001
10010010
00001000
00110100
00000010
10000100
00000001
00100010
00000100
,
10000001
00000000
00001000
00000000
00101000
00000000
00000000
00000000
10000001
00000000
00001000
00000000
00101000
00000000
00000000
00000000
10001000
00000100
00000010
00000000
00000001
00000010
00000100
00000000
00001000
00000100
00000010
00000000
00000001
00000010
00000100
00000000
,
10000110
00000000
00000000
00000000
;
